  0
SECTION
  2
HEADER
  9
$ACADVER
  1
AC1015
  9
$ACADMAINTVER
 70
    20
  9
$DWGCODEPAGE
  3
ANSI_1252
  9
$INSBASE
 10
0.0
 20
0.0
 30
0.0
  9
$EXTMIN
 10
0.9999999999998863
 20
1.000000000000113
 30
0.0
  9
$EXTMAX
 10
840.9999999999996
 20
593.0000000000002
 30
0.0
  9
$LIMMIN
 10
0.0
 20
0.0
  9
$LIMMAX
 10
841.0
 20
594.0
  9
$ORTHOMODE
 70
     1
  9
$REGENMODE
 70
     1
  9
$FILLMODE
 70
     1
  9
$QTEXTMODE
 70
     0
  9
$MIRRTEXT
 70
     1
  9
$LTSCALE
 40
1.0
  9
$ATTMODE
 70
     1
  9
$TEXTSIZE
 40
3.5
  9
$TRACEWID
 40
1.0
  9
$TEXTSTYLE
  7
Standard
  9
$CLAYER
  8
0
  9
$CELTYPE
  6
Continuous
  9
$CECOLOR
 62
     5
  9
$CELTSCALE
 40
1.0
  9
$DISPSILH
 70
     0
  9
$DIMSCALE
 40
1.0
  9
$DIMASZ
 40
3.72
  9
$DIMEXO
 40
0.0
  9
$DIMDLI
 40
5.0
  9
$DIMRND
 40
0.0
  9
$DIMDLE
 40
0.0
  9
$DIMEXE
 40
1.5
  9
$DIMTP
 40
0.0
  9
$DIMTM
 40
0.0
  9
$DIMTXT
 40
3.5
  9
$DIMCEN
 40
0.0
  9
$DIMTSZ
 40
0.0
  9
$DIMTOL
 70
     0
  9
$DIMLIM
 70
     0
  9
$DIMTIH
 70
     0
  9
$DIMTOH
 70
     0
  9
$DIMSE1
 70
     0
  9
$DIMSE2
 70
     0
  9
$DIMTAD
 70
     1
  9
$DIMZIN
 70
     8
  9
$DIMBLK
  1
_OPEN15
  9
$DIMASO
 70
     1
  9
$DIMSHO
 70
     1
  9
$DIMPOST
  1

  9
$DIMAPOST
  1
"
  9
$DIMALT
 70
     0
  9
$DIMALTD
 70
     2
  9
$DIMALTF
 40
0.0393700787401575
  9
$DIMLFAC
 40
1.0
  9
$DIMTOFL
 70
     1
  9
$DIMTVP
 40
0.0
  9
$DIMTIX
 70
     0
  9
$DIMSOXD
 70
     0
  9
$DIMSAH
 70
     0
  9
$DIMBLK1
  1

  9
$DIMBLK2
  1

  9
$DIMSTYLE
  2
phoenix
  9
$DIMCLRD
 70
     1
  9
$DIMCLRE
 70
     1
  9
$DIMCLRT
 70
     5
  9
$DIMTFAC
 40
0.6666666666666666
  9
$DIMGAP
 40
0.7
  9
$DIMJUST
 70
     0
  9
$DIMSD1
 70
     0
  9
$DIMSD2
 70
     0
  9
$DIMTOLJ
 70
     1
  9
$DIMTZIN
 70
     8
  9
$DIMALTZ
 70
     0
  9
$DIMALTTZ
 70
     0
  9
$DIMUPT
 70
     0
  9
$DIMDEC
 70
     6
  9
$DIMTDEC
 70
     6
  9
$DIMALTU
 70
     2
  9
$DIMALTTD
 70
     2
  9
$DIMTXSTY
  7
Standard
  9
$DIMAUNIT
 70
     0
  9
$DIMADEC
 70
     4
  9
$DIMALTRND
 40
0.0
  9
$DIMAZIN
 70
     2
  9
$DIMDSEP
 70
    46
  9
$DIMATFIT
 70
     0
  9
$DIMFRAC
 70
     0
  9
$DIMLDRBLK
  1
_OPEN15
  9
$DIMLUNIT
 70
     2
  9
$DIMLWD
 70
    25
  9
$DIMLWE
 70
    25
  9
$DIMTMOVE
 70
     0
  9
$LUNITS
 70
     2
  9
$LUPREC
 70
     4
  9
$SKETCHINC
 40
1.0
  9
$FILLETRAD
 40
10.0
  9
$AUNITS
 70
     0
  9
$AUPREC
 70
     0
  9
$MENU
  1
.
  9
$ELEVATION
 40
0.0
  9
$PELEVATION
 40
0.0
  9
$THICKNESS
 40
0.0
  9
$LIMCHECK
 70
     0
  9
$CHAMFERA
 40
10.0
  9
$CHAMFERB
 40
10.0
  9
$CHAMFERC
 40
20.0
  9
$CHAMFERD
 40
0.0
  9
$SKPOLY
 70
     0
  9
$TDCREATE
 40
2452842.567244873
  9
$TDUCREATE
 40
2452842.525578206
  9
$TDUPDATE
 40
2455905.372018727
  9
$TDUUPDATE
 40
2455905.330352060
  9
$TDINDWG
 40
0.9167225463
  9
$TDUSRTIMER
 40
0.9167225463
  9
$USRTIMER
 70
     1
  9
$ANGBASE
 50
0.0
  9
$ANGDIR
 70
     0
  9
$PDMODE
 70
    35
  9
$PDSIZE
 40
-2.0
  9
$PLINEWID
 40
0.0
  9
$SPLFRAME
 70
     0
  9
$SPLINETYPE
 70
     6
  9
$SPLINESEGS
 70
     8
  9
$HANDSEED
  5
EA63
  9
$SURFTAB1
 70
     6
  9
$SURFTAB2
 70
     6
  9
$SURFTYPE
 70
     6
  9
$SURFU
 70
     6
  9
$SURFV
 70
     6
  9
$UCSBASE
  2

  9
$UCSNAME
  2

  9
$UCSORG
 10
0.0
 20
0.0
 30
0.0
  9
$UCSXDIR
 10
1.0
 20
0.0
 30
0.0
  9
$UCSYDIR
 10
0.0
 20
1.0
 30
0.0
  9
$UCSORTHOREF
  2

  9
$UCSORTHOVIEW
 70
     0
  9
$UCSORGTOP
 10
0.0
 20
0.0
 30
0.0
  9
$UCSORGBOTTOM
 10
0.0
 20
0.0
 30
0.0
  9
$UCSORGLEFT
 10
0.0
 20
0.0
 30
0.0
  9
$UCSORGRIGHT
 10
0.0
 20
0.0
 30
0.0
  9
$UCSORGFRONT
 10
0.0
 20
0.0
 30
0.0
  9
$UCSORGBACK
 10
0.0
 20
0.0
 30
0.0
  9
$PUCSBASE
  2

  9
$PUCSNAME
  2

  9
$PUCSORG
 10
0.0
 20
0.0
 30
0.0
  9
$PUCSXDIR
 10
1.0
 20
0.0
 30
0.0
  9
$PUCSYDIR
 10
0.0
 20
1.0
 30
0.0
  9
$PUCSORTHOREF
  2

  9
$PUCSORTHOVIEW
 70
     0
  9
$PUCSORGTOP
 10
0.0
 20
0.0
 30
0.0
  9
$PUCSORGBOTTOM
 10
0.0
 20
0.0
 30
0.0
  9
$PUCSORGLEFT
 10
0.0
 20
0.0
 30
0.0
  9
$PUCSORGRIGHT
 10
0.0
 20
0.0
 30
0.0
  9
$PUCSORGFRONT
 10
0.0
 20
0.0
 30
0.0
  9
$PUCSORGBACK
 10
0.0
 20
0.0
 30
0.0
  9
$USERI1
 70
     0
  9
$USERI2
 70
     0
  9
$USERI3
 70
     0
  9
$USERI4
 70
     0
  9
$USERI5
 70
     0
  9
$USERR1
 40
0.0
  9
$USERR2
 40
0.0
  9
$USERR3
 40
0.0
  9
$USERR4
 40
0.0
  9
$USERR5
 40
0.0
  9
$WORLDVIEW
 70
     1
  9
$SHADEDGE
 70
     3
  9
$SHADEDIF
 70
    70
  9
$TILEMODE
 70
     1
  9
$MAXACTVP
 70
    64
  9
$PINSBASE
 10
0.0
 20
0.0
 30
0.0
  9
$PLIMCHECK
 70
     0
  9
$PEXTMIN
 10
1.000000000000000E+20
 20
1.000000000000000E+20
 30
1.000000000000000E+20
  9
$PEXTMAX
 10
-1.000000000000000E+20
 20
-1.000000000000000E+20
 30
-1.000000000000000E+20
  9
$PLIMMIN
 10
0.0
 20
0.0
  9
$PLIMMAX
 10
420.0
 20
297.0
  9
$UNITMODE
 70
     0
  9
$VISRETAIN
 70
     1
  9
$PLINEGEN
 70
     0
  9
$PSLTSCALE
 70
     1
  9
$TREEDEPTH
 70
  3020
  9
$CMLSTYLE
  2
Standard
  9
$CMLJUST
 70
     0
  9
$CMLSCALE
 40
20.0
  9
$PROXYGRAPHICS
 70
     1
  9
$MEASUREMENT
 70
     1
  9
$CELWEIGHT
370
    35
  9
$ENDCAPS
280
     0
  9
$JOINSTYLE
280
     0
  9
$LWDISPLAY
290
     0
  9
$INSUNITS
 70
     4
  9
$HYPERLINKBASE
  1

  9
$STYLESHEET
  1
HP_SW_Dünn.ctb
  9
$XEDIT
290
     1
  9
$CEPSNTYPE
380
     0
  9
$PSTYLEMODE
290
     1
  9
$FINGERPRINTGUID
  2
{FDEAD578-A652-11D2-9A35-0060089B3A3F}
  9
$VERSIONGUID
  2
{6DD93835-23C2-461B-9DFC-ABE8B8EA3FAD}
  9
$EXTNAMES
290
     1
  9
$PSVPSCALE
 40
0.0
  9
$OLESTARTUP
290
     0
  0
ENDSEC
  0
SECTION
  2
CLASSES
  0
CLASS
  1
ACDBDICTIONARYWDFLT
  2
AcDbDictionaryWithDefault
  3
ObjectDBX Classes
 90
        0
280
     0
281
     0
  0
CLASS
  1
ACDBPLACEHOLDER
  2
AcDbPlaceHolder
  3
ObjectDBX Classes
 90
        0
280
     0
281
     0
  0
CLASS
  1
LAYOUT
  2
AcDbLayout
  3
ObjectDBX Classes
 90
        0
280
     0
281
     0
  0
CLASS
  1
PH_VARS
  2
PhoenixVars
  3
PHOENIX7010
 90
        0
280
     0
281
     0
  0
CLASS
  1
PH_GROUP
  2
PhGroup
  3
PHOENIX7010
 90
        0
280
     0
281
     0
  0
CLASS
  1
DICTIONARYVAR
  2
AcDbDictionaryVar
  3
ObjectDBX Classes
 90
        0
280
     0
281
     0
  0
CLASS
  1
PH_ENTDIMREACTOR
  2
EntDimReactor
  3
PHOENIX7010
 90
        0
280
     0
281
     0
  0
CLASS
  1
PH_DIMENTREACTOR
  2
DimEntReactor
  3
PHOENIX7010
 90
        0
280
     0
281
     0
  0
CLASS
  1
TABLESTYLE
  2
AcDbTableStyle
  3
ObjectDBX Classes
 90
     4095
280
     0
281
     0
  0
CLASS
  1
SORTENTSTABLE
  2
AcDbSortentsTable
  3
ObjectDBX Classes
 90
        0
280
     0
281
     0
  0
CLASS
  1
MATERIAL
  2
AcDbMaterial
  3
ObjectDBX Classes
 90
     1153
280
     0
281
     0
  0
CLASS
  1
VISUALSTYLE
  2
AcDbVisualStyle
  3
ObjectDBX Classes
 90
     4095
280
     0
281
     0
  0
CLASS
  1
SCALE
  2
AcDbScale
  3
ObjectDBX Classes
 90
     1153
280
     0
281
     0
  0
CLASS
  1
MLEADERSTYLE
  2
AcDbMLeaderStyle
  3
ACDB_MLEADERSTYLE_CLASS
 90
     4095
280
     0
281
     0
  0
CLASS
  1
CELLSTYLEMAP
  2
AcDbCellStyleMap
  3
ObjectDBX Classes
 90
     1152
280
     0
281
     0
  0
ENDSEC
  0
SECTION
  2
TABLES
  0
TABLE
  2
VPORT
  5
8
330
0
100
AcDbSymbolTable
 70
     1
  0
VPORT
  5
E681
330
8
100
AcDbSymbolTableRecord
100
AcDbViewportTableRecord
  2
*Active
 70
     0
 10
0.0
 20
0.0
 11
1.0
 21
1.0
 12
423.6665355020456
 22
297.014011858862
 13
0.0
 23
0.0
 14
10.0
 24
10.0
 15
10.0
 25
10.0
 16
0.0
 26
0.0
 36
1.0
 17
0.0
 27
0.0
 37
0.0
 40
596.3990184582753
 41
2.174566473988439
 42
50.0
 43
0.0
 44
0.0
 50
0.0
 51
0.0
 71
     0
 72
   100
 73
     1
 74
     3
 75
     0
 76
     0
 77
     0
 78
     0
281
     0
 65
     1
110
0.0
120
0.0
130
0.0
111
1.0
121
0.0
131
0.0
112
0.0
122
1.0
132
0.0
 79
     0
146
0.0
  0
ENDTAB
  0
TABLE
  2
LTYPE
  5
5
330
0
100
AcDbSymbolTable
 70
     3
  0
LTYPE
  5
14
330
5
100
AcDbSymbolTableRecord
100
AcDbLinetypeTableRecord
  2
ByBlock
 70
     0
  3

 72
    65
 73
     0
 40
0.0
  0
LTYPE
  5
15
330
5
100
AcDbSymbolTableRecord
100
AcDbLinetypeTableRecord
  2
ByLayer
 70
     0
  3

 72
    65
 73
     0
 40
0.0
  0
LTYPE
  5
16
330
5
100
AcDbSymbolTableRecord
100
AcDbLinetypeTableRecord
  2
Continuous
 70
     0
  3
Solid line
 72
    65
 73
     0
 40
0.0
  0
LTYPE
  5
381B
330
5
100
AcDbSymbolTableRecord
100
AcDbLinetypeTableRecord
  2
ACAD_ISO04W100
 70
     0
  3
____ . ____ . ____ . ____ . ____ . ____ . ____ 
 72
    65
 73
     4
 40
30.5
 49
24.0
 74
     0
 49
-3.0
 74
     0
 49
0.5
 74
     0
 49
-3.0
 74
     0
  0
LTYPE
  5
3B63
330
5
100
AcDbSymbolTableRecord
100
AcDbLinetypeTableRecord
  2
ACAD_ISO02W100
 70
     0
  3
ISO Strichlinie __ __ __ __ __ __ __ __ __ __ _
 72
    65
 73
     2
 40
15.0
 49
12.0
 74
     0
 49
-3.0
 74
     0
  0
ENDTAB
  0
TABLE
  2
LAYER
  5
2
102
{ACAD_XDICTIONARY
360
E65A
102
}
330
0
100
AcDbSymbolTable
 70
     4
  0
LAYER
  5
10
102
{ACAD_XDICTIONARY
360
E9E2
102
}
330
2
100
AcDbSymbolTableRecord
100
AcDbLayerTableRecord
  2
0
 70
     0
 62
     7
  6
Continuous
370
    -3
390
F
  0
LAYER
  5
69
330
2
100
AcDbSymbolTableRecord
100
AcDbLayerTableRecord
  2
Defpoints
 70
     0
 62
    -7
  6
Continuous
290
     0
370
    -3
390
F
  0
LAYER
  5
E658
102
{ACAD_XDICTIONARY
360
E9E4
102
}
330
2
100
AcDbSymbolTableRecord
100
AcDbLayerTableRecord
  2
Bearbeitung
 70
     0
 62
     7
  6
Continuous
370
    -3
390
F
1001
AcAecLayerStandard
1000

1000

  0
LAYER
  5
E6B6
102
{ACAD_XDICTIONARY
360
E9E6
102
}
330
2
100
AcDbSymbolTableRecord
100
AcDbLayerTableRecord
  2
PH_HILFSELEMENTE
 70
     0
 62
    -7
  6
Continuous
370
    -3
390
F
  0
ENDTAB
  0
TABLE
  2
STYLE
  5
3
330
0
100
AcDbSymbolTable
 70
     1
  0
STYLE
  5
11
330
3
100
AcDbSymbolTableRecord
100
AcDbTextStyleTableRecord
  2
Standard
 70
     0
 40
0.0
 41
1.199999999999999
 50
0.0
 71
     0
 42
3.5
  3
isocp.shx
  4

  0
ENDTAB
  0
TABLE
  2
VIEW
  5
6
330
0
100
AcDbSymbolTable
 70
     0
  0
ENDTAB
  0
TABLE
  2
UCS
  5
7
330
0
100
AcDbSymbolTable
 70
     0
  0
ENDTAB
  0
TABLE
  2
APPID
  5
9
330
0
100
AcDbSymbolTable
 70
     6
  0
APPID
  5
12
330
9
100
AcDbSymbolTableRecord
100
AcDbRegAppTableRecord
  2
ACAD
 70
     0
  0
APPID
  5
40
330
9
100
AcDbSymbolTableRecord
100
AcDbRegAppTableRecord
  2
PHOENIX7010
 70
     0
  0
APPID
  5
C920
330
9
100
AcDbSymbolTableRecord
100
AcDbRegAppTableRecord
  2
ACAD_PSEXT
 70
     0
  0
APPID
  5
E659
330
9
100
AcDbSymbolTableRecord
100
AcDbRegAppTableRecord
  2
AcAecLayerStandard
 70
     0
  0
APPID
  5
E9E0
330
9
100
AcDbSymbolTableRecord
100
AcDbRegAppTableRecord
  2
ACAD_EXEMPT_FROM_CAD_STANDARDS
 70
     0
  0
APPID
  5
EA1C
330
9
100
AcDbSymbolTableRecord
100
AcDbRegAppTableRecord
  2
ACAD_MLEADERVER
 70
     0
  0
ENDTAB
  0
TABLE
  2
DIMSTYLE
  5
A
330
0
100
AcDbSymbolTable
 70
     3
100
AcDbDimStyleTable
 71
     1
340
47
  0
DIMSTYLE
105
47
102
{ACAD_REACTORS
330
9329
330
9C5D
330
A3FA
330
9A16
330
CAB1
102
}
330
A
100
AcDbSymbolTableRecord
100
AcDbDimStyleTableRecord
  2
phoenix
 70
     0
  4
"
 41
3.72
 42
0.0
 43
5.0
 44
1.5
 73
     0
 74
     0
 77
     1
 78
     8
 79
     2
140
2.5
141
0.0
143
0.0393700787401575
146
0.6666666666666666
147
0.5
172
     1
176
     1
177
     1
178
     5
179
     4
271
     6
272
     6
284
     8
288
     1
289
     0
340
11
341
41
342
41
371
    25
372
    25
  0
DIMSTYLE
105
E66D
330
A
100
AcDbSymbolTableRecord
100
AcDbDimStyleTableRecord
  2
phoenix$4
 70
     0
  4
"
 41
3.5
 42
0.0
 43
7.0
 44
1.5
 73
     0
 74
     0
 77
     1
 78
     8
 79
     2
140
3.5
141
0.0
143
0.0393700787401575
146
0.6666666666666666
147
2.0
176
     1
177
     1
178
     5
179
     2
271
     2
272
     2
278
    44
284
     8
288
     1
289
     0
340
11
371
    25
372
    25
  0
DIMSTYLE
105
E69A
330
A
100
AcDbSymbolTableRecord
100
AcDbDimStyleTableRecord
  2
ISO-25
 70
     0
 41
2.5
 42
0.625
 43
3.75
 44
1.25
 73
     0
 74
     0
 77
     1
 78
     8
140
2.5
141
2.5
143
0.03937007874016
147
0.625
171
     3
172
     1
271
     2
272
     2
274
     3
278
    44
283
     0
284
     8
340
11
  0
ENDTAB
  0
TABLE
  2
BLOCK_RECORD
  5
1
330
0
100
AcDbSymbolTable
 70
    15
  0
BLOCK_RECORD
  5
1F
102
{ACAD_XDICTIONARY
360
E635
102
}
330
1
100
AcDbSymbolTableRecord
100
AcDbBlockTableRecord
  2
*Model_Space
340
22
  0
BLOCK_RECORD
  5
1B
330
1
100
AcDbSymbolTableRecord
100
AcDbBlockTableRecord
  2
*Paper_Space
340
1E
  0
BLOCK_RECORD
  5
23
330
1
100
AcDbSymbolTableRecord
100
AcDbBlockTableRecord
  2
*Paper_Space0
340
26
  0
BLOCK_RECORD
  5
41
330
1
100
AcDbSymbolTableRecord
100
AcDbBlockTableRecord
  2
_OPEN15
340
0
102
{BLKREFS
331
E943
331
E944
331
E94C
331
E94D
331
E955
331
E956
331
E95E
331
E95F
331
E969
331
E96A
102
}
  0
BLOCK_RECORD
  5
3B5F
330
1
100
AcDbSymbolTableRecord
100
AcDbBlockTableRecord
  2
PH_GRPBLK
340
0
102
{BLKREFS
331
E789
331
E9D3
331
E975
331
E97D
102
}
  0
BLOCK_RECORD
  5
932A
330
1
100
AcDbSymbolTableRecord
100
AcDbBlockTableRecord
  2
*D3
340
0
  0
BLOCK_RECORD
  5
9A17
330
1
100
AcDbSymbolTableRecord
100
AcDbBlockTableRecord
  2
*D4
340
0
  0
BLOCK_RECORD
  5
9C5E
330
1
100
AcDbSymbolTableRecord
100
AcDbBlockTableRecord
  2
*D5
340
0
  0
BLOCK_RECORD
  5
A3FB
330
1
100
AcDbSymbolTableRecord
100
AcDbBlockTableRecord
  2
*D6
340
0
  0
BLOCK_RECORD
  5
CAB2
330
1
100
AcDbSymbolTableRecord
100
AcDbBlockTableRecord
  2
*D14
340
0
  0
ENDTAB
  0
ENDSEC
  0
SECTION
  2
BLOCKS
  0
BLOCK
  5
20
330
1F
100
AcDbEntity
  8
0
100
AcDbBlockBegin
  2
*Model_Space
 70
     0
 10
0.0
 20
0.0
 30
0.0
  3
*Model_Space
  1

  0
ENDBLK
  5
21
330
1F
100
AcDbEntity
  8
0
100
AcDbBlockEnd
  0
BLOCK
  5
1C
330
1B
100
AcDbEntity
 67
     1
  8
0
100
AcDbBlockBegin
  2
*Paper_Space
 70
     0
 10
0.0
 20
0.0
 30
0.0
  3
*Paper_Space
  1

  0
ENDBLK
  5
1D
330
1B
100
AcDbEntity
 67
     1
  8
0
100
AcDbBlockEnd
  0
BLOCK
  5
24
330
23
100
AcDbEntity
 67
     1
  8
0
100
AcDbBlockBegin
  2
*Paper_Space0
 70
     0
 10
0.0
 20
0.0
 30
0.0
  3
*Paper_Space0
  1

  0
ENDBLK
  5
25
330
23
100
AcDbEntity
 67
     1
  8
0
100
AcDbBlockEnd
  0
BLOCK
  5
45
330
41
100
AcDbEntity
  8
0
100
AcDbBlockBegin
  2
_OPEN15
 70
     0
 10
1.0
 20
0.0
 30
0.0
  3
_OPEN15
  1

  0
LINE
  5
42
330
41
100
AcDbEntity
  8
0
  6
ByBlock
 62
     0
100
AcDbLine
 10
0.0
 20
0.0
 30
0.0
 11
1.0
 21
0.0
 31
0.0
  0
LINE
  5
43
330
41
100
AcDbEntity
  8
0
  6
ByBlock
 62
     0
100
AcDbLine
 10
1.0
 20
0.0
 30
0.0
 11
0.0
 21
0.1316524975873958
 31
0.0
  0
LINE
  5
44
330
41
100
AcDbEntity
  8
0
  6
ByBlock
 62
     0
100
AcDbLine
 10
1.0
 20
0.0
 30
0.0
 11
0.0
 21
-0.1316524975873958
 31
0.0
  0
ENDBLK
  5
46
330
41
100
AcDbEntity
  8
0
100
AcDbBlockEnd
  0
BLOCK
  5
3B61
330
3B5F
100
AcDbEntity
  8
0
 62
     7
370
    50
100
AcDbBlockBegin
  2
PH_GRPBLK
 70
     0
 10
0.0
 20
0.0
 30
0.0
  3
PH_GRPBLK
  1

  0
POINT
  5
3B60
330
3B5F
100
AcDbEntity
  8
Defpoints
  6
Continuous
 62
     0
370
    50
100
AcDbPoint
 10
0.0
 20
0.0
 30
0.0
  0
ENDBLK
  5
3B62
330
3B5F
100
AcDbEntity
  8
0
 62
     7
370
    50
100
AcDbBlockEnd
  0
BLOCK
  5
9334
330
932A
100
AcDbEntity
  8
0
 62
     1
370
    25
100
AcDbBlockBegin
  2
*D3
 70
     1
 10
0.0
 20
0.0
 30
0.0
  3
*D3
  1

  0
LINE
  5
E940
330
932A
100
AcDbEntity
  8
0
  6
Continuous
 62
     1
370
    25
100
AcDbLine
 10
353.3201842164067
 20
431.6730214081449
 30
0.0
 11
378.8201842164067
 21
431.6730214081449
 31
0.0
  0
LINE
  5
E941
330
932A
100
AcDbEntity
  8
0
  6
Continuous
 62
     1
370
    25
100
AcDbLine
 10
353.3201842164067
 20
171.6730214081449
 30
0.0
 11
378.8201842164067
 21
171.6730214081449
 31
0.0
  0
LINE
  5
E942
330
932A
100
AcDbEntity
  8
0
  6
Continuous
 62
     1
370
    25
100
AcDbLine
 10
377.3201842164068
 20
427.9530214081448
 30
0.0
 11
377.3201842164067
 21
175.3930214081449
 31
0.0
  0
INSERT
  5
E943
330
932A
100
AcDbEntity
  8
0
  6
Continuous
 62
     1
370
    25
100
AcDbBlockReference
  2
_OPEN15
 10
377.3201842164068
 20
431.6730214081449
 30
0.0
 41
3.72
 42
3.72
 43
3.72
 50
90.0
  0
INSERT
  5
E944
330
932A
100
AcDbEntity
  8
0
  6
Continuous
 62
     1
370
    25
100
AcDbBlockReference
  2
_OPEN15
 10
377.3201842164067
 20
171.6730214081449
 30
0.0
 41
3.72
 42
3.72
 43
3.72
 50
270.0
  0
MTEXT
  5
E945
330
932A
100
AcDbEntity
  8
0
  6
Continuous
 62
     5
370
    35
100
AcDbMText
 10
373.8196920904224
 20
301.673021408145
 30
0.0
 40
5.0
 41
0.0
 71
     5
 72
     1
  1
\A1;260
 11
0.0000000000000001
 21
1.0
 31
0.0
 73
     1
 44
1.0
1001
ACAD
1000
MTEXTBEGIN
1070
    73
1070
     1
1070
    44
1040
1.0
1070
    74
1070
     0
1000
MTEXTEND
  0
POINT
  5
E946
330
932A
100
AcDbEntity
  8
Defpoints
  6
Continuous
 62
     0
370
    35
100
AcDbPoint
 10
353.3201842164067
 20
431.6730214081449
 30
0.0
  0
POINT
  5
E947
330
932A
100
AcDbEntity
  8
Defpoints
  6
Continuous
 62
     0
370
    35
100
AcDbPoint
 10
353.3201842164067
 20
171.6730214081449
 30
0.0
  0
POINT
  5
E948
330
932A
100
AcDbEntity
  8
Defpoints
  6
Continuous
 62
     0
370
    35
100
AcDbPoint
 10
377.3201842164067
 20
171.6730214081449
 30
0.0
  0
ENDBLK
  5
9335
330
932A
100
AcDbEntity
  8
0
 62
     1
370
    25
100
AcDbBlockEnd
  0
BLOCK
  5
9A21
330
9A17
100
AcDbEntity
  8
0
 62
     1
370
    25
100
AcDbBlockBegin
  2
*D4
 70
     1
 10
0.0
 20
0.0
 30
0.0
  3
*D4
  1

  0
LINE
  5
E949
330
9A17
100
AcDbEntity
  8
0
  6
Continuous
 62
     1
370
    25
100
AcDbLine
 10
203.3201842164067
 20
181.6730214081449
 30
0.0
 11
203.3201842164067
 21
156.1730214081449
 31
0.0
  0
LINE
  5
E94A
330
9A17
100
AcDbEntity
  8
0
  6
Continuous
 62
     1
370
    25
100
AcDbLine
 10
363.3201842164067
 20
181.6730214081449
 30
0.0
 11
363.3201842164067
 21
156.1730214081449
 31
0.0
  0
LINE
  5
E94B
330
9A17
100
AcDbEntity
  8
0
  6
Continuous
 62
     1
370
    25
100
AcDbLine
 10
207.0401842164067
 20
157.6730214081448
 30
0.0
 11
359.6001842164067
 21
157.6730214081448
 31
0.0
  0
INSERT
  5
E94C
330
9A17
100
AcDbEntity
  8
0
  6
Continuous
 62
     1
370
    25
100
AcDbBlockReference
  2
_OPEN15
 10
203.3201842164067
 20
157.6730214081448
 30
0.0
 41
3.72
 42
3.72
 43
3.72
 50
180.0
  0
INSERT
  5
E94D
330
9A17
100
AcDbEntity
  8
0
  6
Continuous
 62
     1
370
    25
100
AcDbBlockReference
  2
_OPEN15
 10
363.3201842164067
 20
157.6730214081448
 30
0.0
 41
3.72
 42
3.72
 43
3.72
  0
MTEXT
  5
E94E
330
9A17
100
AcDbEntity
  8
0
  6
Continuous
 62
     5
370
    35
100
AcDbMText
 10
283.3201842164067
 20
161.1730214081449
 30
0.0
 40
5.0
 41
0.0
 71
     5
 72
     1
  1
\A1;160
 73
     1
 44
1.0
1001
ACAD
1000
MTEXTBEGIN
1070
    73
1070
     1
1070
    44
1040
1.0
1070
    74
1070
     0
1000
MTEXTEND
  0
POINT
  5
E94F
330
9A17
100
AcDbEntity
  8
Defpoints
  6
Continuous
 62
     0
370
    35
100
AcDbPoint
 10
203.3201842164067
 20
181.6730214081449
 30
0.0
  0
POINT
  5
E950
330
9A17
100
AcDbEntity
  8
Defpoints
  6
Continuous
 62
     0
370
    35
100
AcDbPoint
 10
363.3201842164067
 20
181.6730214081449
 30
0.0
  0
POINT
  5
E951
330
9A17
100
AcDbEntity
  8
Defpoints
  6
Continuous
 62
     0
370
    35
100
AcDbPoint
 10
363.3201842164067
 20
157.6730214081448
 30
0.0
  0
ENDBLK
  5
9A22
330
9A17
100
AcDbEntity
  8
0
 62
     1
370
    25
100
AcDbBlockEnd
  0
BLOCK
  5
9C68
330
9C5E
100
AcDbEntity
  8
0
 62
     1
370
    25
100
AcDbBlockBegin
  2
*D5
 70
     1
 10
0.0
 20
0.0
 30
0.0
  3
*D5
  1

  0
LINE
  5
E952
330
9C5E
100
AcDbEntity
  8
0
  6
Continuous
 62
     1
370
    25
100
AcDbLine
 10
360.8481525272828
 20
31.67302140814513
 30
0.0
 11
378.8201842164066
 21
31.67302140814513
 31
0.0
  0
LINE
  5
E953
330
9C5E
100
AcDbEntity
  8
0
  6
Continuous
 62
     1
370
    25
100
AcDbLine
 10
363.3201841745267
 20
51.67302140814513
 30
0.0
 11
378.8201842164066
 21
51.67302140814513
 31
0.0
  0
LINE
  5
E954
330
9C5E
100
AcDbEntity
  8
0
  6
Continuous
 62
     1
370
    25
100
AcDbLine
 10
377.3201842164066
 20
35.39302140814513
 30
0.0
 11
377.3201842164066
 21
47.95302140814512
 31
0.0
  0
INSERT
  5
E955
330
9C5E
100
AcDbEntity
  8
0
  6
Continuous
 62
     1
370
    25
100
AcDbBlockReference
  2
_OPEN15
 10
377.3201842164066
 20
31.67302140814513
 30
0.0
 41
3.72
 42
3.72
 43
3.72
 50
270.0
  0
INSERT
  5
E956
330
9C5E
100
AcDbEntity
  8
0
  6
Continuous
 62
     1
370
    25
100
AcDbBlockReference
  2
_OPEN15
 10
377.3201842164066
 20
51.67302140814513
 30
0.0
 41
3.72
 42
3.72
 43
3.72
 50
90.0
  0
MTEXT
  5
E957
330
9C5E
100
AcDbEntity
  8
0
  6
Continuous
 62
     5
370
    35
100
AcDbMText
 10
373.8196920904224
 20
41.67302140814519
 30
0.0
 40
5.0
 41
0.0
 71
     5
 72
     1
  1
\A1;20
 11
0.0000000000000001
 21
1.0
 31
0.0
 73
     1
 44
1.0
1001
ACAD
1000
MTEXTBEGIN
1070
    73
1070
     1
1070
    44
1040
1.0
1070
    74
1070
     0
1000
MTEXTEND
  0
POINT
  5
E958
330
9C5E
100
AcDbEntity
  8
Defpoints
  6
Continuous
 62
     0
370
    35
100
AcDbPoint
 10
360.8481525272828
 20
31.67302140814513
 30
0.0
  0
POINT
  5
E959
330
9C5E
100
AcDbEntity
  8
Defpoints
  6
Continuous
 62
     0
370
    35
100
AcDbPoint
 10
363.3201841745267
 20
51.67302140814513
 30
0.0
  0
POINT
  5
E95A
330
9C5E
100
AcDbEntity
  8
Defpoints
  6
Continuous
 62
     0
370
    35
100
AcDbPoint
 10
377.3201842164066
 20
51.67302140814513
 30
0.0
  0
ENDBLK
  5
9C69
330
9C5E
100
AcDbEntity
  8
0
 62
     1
370
    25
100
AcDbBlockEnd
  0
BLOCK
  5
A405
330
A3FB
100
AcDbEntity
  8
0
 62
     1
370
    25
100
AcDbBlockBegin
  2
*D6
 70
     1
 10
0.0
 20
0.0
 30
0.0
  3
*D6
  1

  0
LINE
  5
E95B
330
A3FB
100
AcDbEntity
  8
0
  6
Continuous
 62
     1
370
    25
100
AcDbLine
 10
360.3964013349732
 20
121.6730214081451
 30
0.0
 11
388.8201842164066
 21
121.6730214081451
 31
0.0
  0
LINE
  5
E95C
330
A3FB
100
AcDbEntity
  8
0
  6
Continuous
 62
     1
370
    25
100
AcDbLine
 10
360.8481525272828
 20
31.67302140814513
 30
0.0
 11
388.8201842164066
 21
31.67302140814513
 31
0.0
  0
LINE
  5
E95D
330
A3FB
100
AcDbEntity
  8
0
  6
Continuous
 62
     1
370
    25
100
AcDbLine
 10
387.3201842164066
 20
117.9530214081451
 30
0.0
 11
387.3201842164066
 21
35.39302140814513
 31
0.0
  0
INSERT
  5
E95E
330
A3FB
100
AcDbEntity
  8
0
  6
Continuous
 62
     1
370
    25
100
AcDbBlockReference
  2
_OPEN15
 10
387.3201842164066
 20
121.6730214081451
 30
0.0
 41
3.72
 42
3.72
 43
3.72
 50
90.0
  0
INSERT
  5
E95F
330
A3FB
100
AcDbEntity
  8
0
  6
Continuous
 62
     1
370
    25
100
AcDbBlockReference
  2
_OPEN15
 10
387.3201842164066
 20
31.67302140814513
 30
0.0
 41
3.72
 42
3.72
 43
3.72
 50
270.0
  0
MTEXT
  5
E960
330
A3FB
100
AcDbEntity
  8
0
  6
Continuous
 62
     5
370
    35
100
AcDbMText
 10
383.8201842164066
 20
76.67302140814519
 30
0.0
 40
5.0
 41
0.0
 71
     5
 72
     1
  1
\A1;90
 11
0.0000000000000001
 21
1.0
 31
0.0
 73
     1
 44
1.0
1001
ACAD
1000
MTEXTBEGIN
1070
    73
1070
     1
1070
    44
1040
1.0
1070
    74
1070
     0
1000
MTEXTEND
  0
POINT
  5
E961
330
A3FB
100
AcDbEntity
  8
Defpoints
  6
Continuous
 62
     0
370
    35
100
AcDbPoint
 10
360.3964013349732
 20
121.6730214081451
 30
0.0
  0
POINT
  5
E962
330
A3FB
100
AcDbEntity
  8
Defpoints
  6
Continuous
 62
     0
370
    35
100
AcDbPoint
 10
360.8481525272828
 20
31.67302140814513
 30
0.0
  0
POINT
  5
E963
330
A3FB
100
AcDbEntity
  8
Defpoints
  6
Continuous
 62
     0
370
    35
100
AcDbPoint
 10
387.3201842164066
 20
31.67302140814513
 30
0.0
  0
ENDBLK
  5
A406
330
A3FB
100
AcDbEntity
  8
0
 62
     1
370
    25
100
AcDbBlockEnd
  0
BLOCK
  5
CABE
330
CAB2
100
AcDbEntity
  8
0
 62
     1
370
    25
100
AcDbBlockBegin
  2
*D14
 70
     1
 10
0.0
 20
0.0
 30
0.0
  3
*D14
  1

  0
LINE
  5
E964
330
CAB2
100
AcDbEntity
  8
0
  6
Continuous
 62
     1
370
    25
100
AcDbLine
 10
591.2281303775371
 20
186.6730214081447
 30
0.0
 11
591.2281303775371
 21
156.1730214081449
 31
0.0
  0
LINE
  5
E965
330
CAB2
100
AcDbEntity
  8
0
  6
Continuous
 62
     1
370
    25
100
AcDbLine
 10
597.2281303775371
 20
186.6730214081447
 30
0.0
 11
597.2281303775371
 21
156.1730214081449
 31
0.0
  0
LINE
  5
E966
330
CAB2
100
AcDbEntity
  8
0
  6
Continuous
 62
     1
370
    25
100
AcDbLine
 10
587.508130377537
 20
157.6730214081449
 30
0.0
 11
583.788130377537
 21
157.6730214081449
 31
0.0
  0
LINE
  5
E967
330
CAB2
100
AcDbEntity
  8
0
  6
Continuous
 62
     1
370
    25
100
AcDbLine
 10
600.9481303775372
 20
157.6730214081449
 30
0.0
 11
623.524823290923
 21
157.6730214081449
 31
0.0
  0
LINE
  5
E968
330
CAB2
100
AcDbEntity
  8
0
  6
Continuous
 62
     1
370
    25
100
AcDbLine
 10
591.2281303775371
 20
157.6730214081449
 30
0.0
 11
597.2281303775371
 21
157.6730214081449
 31
0.0
  0
INSERT
  5
E969
330
CAB2
100
AcDbEntity
  8
0
  6
Continuous
 62
     1
370
    25
100
AcDbBlockReference
  2
_OPEN15
 10
591.2281303775371
 20
157.6730214081449
 30
0.0
 41
3.72
 42
3.72
 43
3.72
  0
INSERT
  5
E96A
330
CAB2
100
AcDbEntity
  8
0
  6
Continuous
 62
     1
370
    25
100
AcDbBlockReference
  2
_OPEN15
 10
597.2281303775371
 20
157.6730214081449
 30
0.0
 41
3.72
 42
3.72
 43
3.72
 50
180.0
  0
MTEXT
  5
E96B
330
CAB2
100
AcDbEntity
  8
0
  6
Continuous
 62
     5
370
    35
100
AcDbMText
 10
614.0964768342301
 20
161.1730214081449
 30
0.0
 40
5.0
 41
0.0
 71
     5
 72
     1
  1
\A1;6xM6
 73
     1
 44
1.0
1001
ACAD
1000
MTEXTBEGIN
1070
    73
1070
     1
1070
    44
1040
1.0
1070
    74
1070
     0
1000
MTEXTEND
  0
POINT
  5
E96C
330
CAB2
100
AcDbEntity
  8
Defpoints
  6
Continuous
 62
     0
370
    35
100
AcDbPoint
 10
591.2281303775371
 20
186.6730214081447
 30
0.0
  0
POINT
  5
E96D
330
CAB2
100
AcDbEntity
  8
Defpoints
  6
Continuous
 62
     0
370
    35
100
AcDbPoint
 10
597.2281303775371
 20
186.6730214081447
 30
0.0
  0
POINT
  5
E96E
330
CAB2
100
AcDbEntity
  8
Defpoints
  6
Continuous
 62
     0
370
    35
100
AcDbPoint
 10
597.2281303775371
 20
157.6730214081449
 30
0.0
  0
ENDBLK
  5
CABF
330
CAB2
100
AcDbEntity
  8
0
 62
     1
370
    25
100
AcDbBlockEnd
  0
ENDSEC
  0
SECTION
  2
ENTITIES
  0
ARC
  5
7CC3
102
{ACAD_REACTORS
330
394C
330
9C37
102
}
330
1F
100
AcDbEntity
  8
0
  6
Continuous
 62
     7
100
AcDbCircle
 10
353.3201842164067
 20
181.6730214081449
 30
0.0
 40
10.0
100
AcDbArc
 50
270.0
 51
0.0
1001
PHOENIX7010
1002
{
1070
    41
1040
1.0
1002
}
  0
LINE
  5
7CC4
102
{ACAD_REACTORS
330
394C
102
}
330
1F
100
AcDbEntity
  8
0
  6
Continuous
 62
     7
100
AcDbLine
 10
363.3201842164067
 20
181.6730214081449
 30
0.0
 11
363.3201842164067
 21
421.6730214081449
 31
0.0
1001
PHOENIX7010
1002
{
1070
    41
1040
1.0
1002
}
  0
LINE
  5
7CC5
102
{ACAD_REACTORS
330
394C
330
956E
102
}
330
1F
100
AcDbEntity
  8
0
  6
Continuous
 62
     7
100
AcDbLine
 10
213.3201842164067
 20
171.6730214081449
 30
0.0
 11
353.3201842164067
 21
171.6730214081449
 31
0.0
1001
PHOENIX7010
1002
{
1070
    41
1040
1.0
1002
}
  0
LINE
  5
7CC8
102
{ACAD_REACTORS
330
394C
102
}
330
1F
100
AcDbEntity
  8
0
  6
ACAD_ISO02W100
 62
     5
100
AcDbLine
 10
356.3201842164067
 20
195.6730214081449
 30
0.0
 11
356.3201842164067
 21
407.6730214081448
 31
0.0
1001
PHOENIX7010
1002
{
1070
    41
1040
1.0
1002
}
  0
ARC
  5
7CC9
102
{ACAD_REACTORS
330
394C
102
}
330
1F
100
AcDbEntity
  8
0
  6
ACAD_ISO02W100
 62
     5
 48
0.0760062738771724
100
AcDbCircle
 10
354.8201842164067
 20
195.6730214081449
 30
0.0
 40
1.5
100
AcDbArc
 50
270.0
 51
0.0
1001
PHOENIX7010
1002
{
1070
    41
1040
1.0
1002
}
  0
LINE
  5
7CCA
102
{ACAD_REACTORS
330
394C
102
}
330
1F
100
AcDbEntity
  8
0
  6
ACAD_ISO02W100
 62
     5
 48
0.532258064516129
100
AcDbLine
 10
338.3201842164067
 20
194.1730214081449
 30
0.0
 11
354.8201842164067
 21
194.1730214081449
 31
0.0
1001
PHOENIX7010
1002
{
1070
    41
1040
1.0
1002
}
  0
ARC
  5
7CCB
102
{ACAD_REACTORS
330
394C
102
}
330
1F
100
AcDbEntity
  8
0
  6
ACAD_ISO02W100
 62
     5
 48
0.6333856156431035
100
AcDbCircle
 10
338.3201842164067
 20
181.6730214081449
 30
0.0
 40
12.5
100
AcDbArc
 50
90.0
 51
180.0
1001
PHOENIX7010
1002
{
1070
    41
1040
1.0
1002
}
  0
ARC
  5
7CCC
102
{ACAD_REACTORS
330
394C
102
}
330
1F
100
AcDbEntity
  8
0
  6
ACAD_ISO02W100
 62
     5
 48
0.0760062738771724
100
AcDbCircle
 10
324.3201842164067
 20
180.1730214081449
 30
0.0
 40
1.5
100
AcDbArc
 50
270.0
 51
0.0
1001
PHOENIX7010
1002
{
1070
    41
1040
1.0
1002
}
  0
LINE
  5
7CCD
102
{ACAD_REACTORS
330
394C
102
}
330
1F
100
AcDbEntity
  8
0
  6
ACAD_ISO02W100
 62
     5
 48
0.0483870967741936
100
AcDbLine
 10
325.8201842164067
 20
180.1730214081449
 30
0.0
 11
325.8201842164067
 21
181.6730214081449
 31
0.0
1001
PHOENIX7010
1002
{
1070
    41
1040
1.0
1002
}
  0
LINE
  5
7CCE
102
{ACAD_REACTORS
330
394C
102
}
330
1F
100
AcDbEntity
  8
0
  6
ACAD_ISO02W100
 62
     5
100
AcDbLine
 10
242.3201842164067
 20
178.6730214081449
 30
0.0
 11
324.3201842164067
 21
178.6730214081449
 31
0.0
1001
PHOENIX7010
1002
{
1070
    41
1040
1.0
1002
}
  0
ARC
  5
7CCF
102
{ACAD_REACTORS
330
394C
102
}
330
1F
100
AcDbEntity
  8
0
  6
Continuous
 62
     7
100
AcDbCircle
 10
213.3201842164067
 20
181.6730214081449
 30
0.0
 40
10.0
100
AcDbArc
 50
180.0
 51
270.0
1001
PHOENIX7010
1002
{
1070
    41
1040
1.0
1002
}
  0
ARC
  5
7CD2
102
{ACAD_REACTORS
330
394C
102
}
330
1F
100
AcDbEntity
  8
0
  6
ACAD_ISO02W100
 62
     5
 48
0.0760062738771724
100
AcDbCircle
 10
242.3201842164067
 20
180.1730214081449
 30
0.0
 40
1.5
100
AcDbArc
 50
180.0
 51
270.0
1001
PHOENIX7010
1002
{
1070
    41
1040
1.0
1002
}
  0
ARC
  5
7CD3
102
{ACAD_REACTORS
330
394C
102
}
330
1F
100
AcDbEntity
  8
0
  6
ACAD_ISO02W100
 62
     5
 48
0.6333856156431035
100
AcDbCircle
 10
228.3201842164067
 20
181.6730214081449
 30
0.0
 40
12.5
100
AcDbArc
 50
0.0
 51
90.0
1001
PHOENIX7010
1002
{
1070
    41
1040
1.0
1002
}
  0
LINE
  5
7CD4
102
{ACAD_REACTORS
330
394C
102
}
330
1F
100
AcDbEntity
  8
0
  6
ACAD_ISO02W100
 62
     5
 48
0.0483870967741936
100
AcDbLine
 10
240.8201842164067
 20
180.1730214081449
 30
0.0
 11
240.8201842164067
 21
181.6730214081449
 31
0.0
1001
PHOENIX7010
1002
{
1070
    41
1040
1.0
1002
}
  0
LINE
  5
7CD5
102
{ACAD_REACTORS
330
394C
102
}
330
1F
100
AcDbEntity
  8
0
  6
ACAD_ISO02W100
 62
     5
 48
0.532258064516129
100
AcDbLine
 10
228.3201842164067
 20
194.1730214081449
 30
0.0
 11
211.8201842164067
 21
194.1730214081449
 31
0.0
1001
PHOENIX7010
1002
{
1070
    41
1040
1.0
1002
}
  0
ARC
  5
7CD6
102
{ACAD_REACTORS
330
394C
102
}
330
1F
100
AcDbEntity
  8
0
  6
ACAD_ISO02W100
 62
     5
 48
0.0760062738771724
100
AcDbCircle
 10
211.8201842164067
 20
195.6730214081449
 30
0.0
 40
1.5
100
AcDbArc
 50
180.0
 51
270.0
1001
PHOENIX7010
1002
{
1070
    41
1040
1.0
1002
}
  0
LINE
  5
7CD7
102
{ACAD_REACTORS
330
394C
102
}
330
1F
100
AcDbEntity
  8
0
  6
ACAD_ISO02W100
 62
     5
100
AcDbLine
 10
210.3201842164067
 20
195.6730214081449
 30
0.0
 11
210.3201842164067
 21
407.6730214081448
 31
0.0
1001
PHOENIX7010
1002
{
1070
    41
1040
1.0
1002
}
  0
ARC
  5
7CD9
102
{ACAD_REACTORS
330
394C
102
}
330
1F
100
AcDbEntity
  8
0
  6
Continuous
 62
     7
100
AcDbCircle
 10
213.3201842164067
 20
421.6730214081449
 30
0.0
 40
10.0
100
AcDbArc
 50
90.0
 51
180.0
1001
PHOENIX7010
1002
{
1070
    41
1040
1.0
1002
}
  0
ARC
  5
7CDA
102
{ACAD_REACTORS
330
394C
102
}
330
1F
100
AcDbEntity
  8
0
  6
ACAD_ISO02W100
 62
     5
 48
0.0760062738771724
100
AcDbCircle
 10
211.8201842164067
 20
407.6730214081448
 30
0.0
 40
1.5
100
AcDbArc
 50
90.0
 51
180.0
1001
PHOENIX7010
1002
{
1070
    41
1040
1.0
1002
}
  0
LINE
  5
7CDB
102
{ACAD_REACTORS
330
394C
102
}
330
1F
100
AcDbEntity
  8
0
  6
ACAD_ISO04W100
 62
     1
 48
0.2419354838709604
100
AcDbLine
 10
220.8201842164067
 20
421.6730214081449
 30
0.0
 11
205.8201842164071
 21
421.6730214081449
 31
0.0
1001
PHOENIX7010
1002
{
1070
    41
1040
1.0
1002
}
  0
LINE
  5
7CDC
102
{ACAD_REACTORS
330
394C
102
}
330
1F
100
AcDbEntity
  8
0
  6
ACAD_ISO04W100
 62
     1
 48
0.2419354838709677
100
AcDbLine
 10
213.3201842164067
 20
414.1730214081449
 30
0.0
 11
213.3201842164067
 21
429.1730214081448
 31
0.0
1001
PHOENIX7010
1002
{
1070
    41
1040
1.0
1002
}
  0
LINE
  5
7CDD
102
{ACAD_REACTORS
330
394C
330
956D
102
}
330
1F
100
AcDbEntity
  8
0
  6
Continuous
 62
     7
100
AcDbLine
 10
353.3201842164067
 20
431.6730214081449
 30
0.0
 11
213.3201842164067
 21
431.6730214081449
 31
0.0
1001
PHOENIX7010
1002
{
1070
    41
1040
1.0
1002
}
  0
LINE
  5
7CDE
102
{ACAD_REACTORS
330
394C
102
}
330
1F
100
AcDbEntity
  8
0
  6
ACAD_ISO02W100
 62
     5
 48
0.532258064516129
100
AcDbLine
 10
228.3201842164067
 20
409.1730214081449
 30
0.0
 11
211.8201842164067
 21
409.1730214081449
 31
0.0
1001
PHOENIX7010
1002
{
1070
    41
1040
1.0
1002
}
  0
ARC
  5
7CDF
102
{ACAD_REACTORS
330
394C
102
}
330
1F
100
AcDbEntity
  8
0
  6
ACAD_ISO02W100
 62
     5
 48
0.6333856156431035
100
AcDbCircle
 10
228.3201842164067
 20
421.6730214081449
 30
0.0
 40
12.5
100
AcDbArc
 50
270.0
 51
0.0
1001
PHOENIX7010
1002
{
1070
    41
1040
1.0
1002
}
  0
LINE
  5
7CE0
102
{ACAD_REACTORS
330
394C
102
}
330
1F
100
AcDbEntity
  8
0
  6
ACAD_ISO02W100
 62
     5
 48
0.0483870967741936
100
AcDbLine
 10
240.8201842164067
 20
423.1730214081449
 30
0.0
 11
240.8201842164067
 21
421.6730214081449
 31
0.0
1001
PHOENIX7010
1002
{
1070
    41
1040
1.0
1002
}
  0
ARC
  5
7CE1
102
{ACAD_REACTORS
330
394C
102
}
330
1F
100
AcDbEntity
  8
0
  6
ACAD_ISO02W100
 62
     5
 48
0.0760062738771724
100
AcDbCircle
 10
242.3201842164067
 20
423.1730214081449
 30
0.0
 40
1.5
100
AcDbArc
 50
90.0
 51
180.0
1001
PHOENIX7010
1002
{
1070
    41
1040
1.0
1002
}
  0
LINE
  5
7CE2
102
{ACAD_REACTORS
330
394C
102
}
330
1F
100
AcDbEntity
  8
0
  6
ACAD_ISO02W100
 62
     5
100
AcDbLine
 10
324.3201842164067
 20
424.6730214081448
 30
0.0
 11
242.3201842164067
 21
424.6730214081448
 31
0.0
1001
PHOENIX7010
1002
{
1070
    41
1040
1.0
1002
}
  0
LINE
  5
7CE3
102
{ACAD_REACTORS
330
394C
102
}
330
1F
100
AcDbEntity
  8
0
  6
ACAD_ISO02W100
 62
     5
 48
0.3064516129032258
100
AcDbLine
 10
312.3201842164067
 20
424.6730214081448
 30
0.0
 11
312.3201842164067
 21
415.1730214081449
 31
0.0
1001
PHOENIX7010
1002
{
1070
    41
1040
1.0
1002
}
  0
ARC
  5
7CE4
102
{ACAD_REACTORS
330
394C
102
}
330
1F
100
AcDbEntity
  8
0
  6
ACAD_ISO02W100
 62
     5
 48
0.3040250955086897
100
AcDbCircle
 10
318.3201842164067
 20
415.1730214081449
 30
0.0
 40
6.0
100
AcDbArc
 50
180.0
 51
270.0
1001
PHOENIX7010
1002
{
1070
    41
1040
1.0
1002
}
  0
LINE
  5
7CE5
102
{ACAD_REACTORS
330
394C
102
}
330
1F
100
AcDbEntity
  8
0
  6
ACAD_ISO02W100
 62
     5
100
AcDbLine
 10
318.3201842164067
 20
409.1730214081449
 30
0.0
 11
354.8201842164067
 21
409.1730214081449
 31
0.0
1001
PHOENIX7010
1002
{
1070
    41
1040
1.0
1002
}
  0
LINE
  5
7CE6
102
{ACAD_REACTORS
330
394C
102
}
330
1F
100
AcDbEntity
  8
0
  6
ACAD_ISO04W100
 62
     1
 48
0.3333333333333333
100
AcDbLine
 10
323.5701842164067
 20
415.1730214081449
 30
0.0
 11
313.0701842164067
 21
415.1730214081449
 31
0.0
1001
PHOENIX7010
1002
{
1070
    41
1040
1.0
1002
}
  0
LINE
  5
7CE7
102
{ACAD_REACTORS
330
394C
102
}
330
1F
100
AcDbEntity
  8
0
  6
ACAD_ISO04W100
 62
     1
 48
0.3333333333333333
100
AcDbLine
 10
318.3201842164067
 20
420.4230214081449
 30
0.0
 11
318.3201842164067
 21
409.9230214081448
 31
0.0
1001
PHOENIX7010
1002
{
1070
    41
1040
1.0
1002
}
  0
CIRCLE
  5
7CE8
102
{ACAD_REACTORS
330
394C
102
}
330
1F
100
AcDbEntity
  8
0
  6
ACAD_ISO02W100
 62
     5
100
AcDbCircle
 10
318.3201842164067
 20
415.1730214081449
 30
0.0
 40
3.25
1001
PHOENIX7010
1002
{
1070
    41
1040
1.0
1002
}
  0
CIRCLE
  5
7CE9
102
{ACAD_REACTORS
330
394C
102
}
330
1F
100
AcDbEntity
  8
0
  6
ACAD_ISO02W100
 62
     5
100
AcDbCircle
 10
318.3201842164067
 20
415.1730214081449
 30
0.0
 40
2.5
1001
PHOENIX7010
1002
{
1070
    41
1040
1.0
1002
}
  0
ARC
  5
7CEA
102
{ACAD_REACTORS
330
394C
102
}
330
1F
100
AcDbEntity
  8
0
  6
Continuous
 62
     7
100
AcDbCircle
 10
353.3201842164067
 20
421.6730214081449
 30
0.0
 40
10.0
100
AcDbArc
 50
0.0
 51
90.0
1001
PHOENIX7010
1002
{
1070
    41
1040
1.0
1002
}
  0
ARC
  5
7CEB
102
{ACAD_REACTORS
330
394C
102
}
330
1F
100
AcDbEntity
  8
0
  6
ACAD_ISO02W100
 62
     5
 48
0.0760062738771724
100
AcDbCircle
 10
354.8201842164067
 20
407.6730214081448
 30
0.0
 40
1.5
100
AcDbArc
 50
0.0
 51
90.0
1001
PHOENIX7010
1002
{
1070
    41
1040
1.0
1002
}
  0
LINE
  5
7CEE
102
{ACAD_REACTORS
330
394C
102
}
330
1F
100
AcDbEntity
  8
0
  6
ACAD_ISO04W100
 62
     1
100
AcDbLine
 10
283.3201842164067
 20
169.6730214081449
 30
0.0
 11
283.3201842164067
 21
433.6730214081448
 31
0.0
1001
PHOENIX7010
1002
{
1070
    41
1040
1.0
1002
}
  0
LINE
  5
7CEF
102
{ACAD_REACTORS
330
394C
102
}
330
1F
100
AcDbEntity
  8
0
  6
ACAD_ISO04W100
 62
     1
100
AcDbLine
 10
201.3201842164067
 20
301.6730214081449
 30
0.0
 11
365.3201842164067
 21
301.6730214081449
 31
0.0
1001
PHOENIX7010
1002
{
1070
    41
1040
1.0
1002
}
  0
ARC
  5
7D77
102
{ACAD_REACTORS
330
394C
102
}
330
1F
100
AcDbEntity
  8
0
  6
ACAD_ISO02W100
 62
     5
 48
0.0760062738771724
100
AcDbCircle
 10
324.3201842164067
 20
423.1730214081446
 30
0.0
 40
1.5
100
AcDbArc
 50
0.0
 51
90.0
1001
PHOENIX7010
1002
{
1070
    41
1040
1.0
1002
}
  0
LINE
  5
7D78
102
{ACAD_REACTORS
330
394C
102
}
330
1F
100
AcDbEntity
  8
0
  6
ACAD_ISO02W100
 62
     5
 48
0.0483870967741936
100
AcDbLine
 10
325.8201842164067
 20
423.1730214081446
 30
0.0
 11
325.8201842164067
 21
421.6730214081446
 31
0.0
1001
PHOENIX7010
1002
{
1070
    41
1040
1.0
1002
}
  0
ARC
  5
7D79
102
{ACAD_REACTORS
330
394C
102
}
330
1F
100
AcDbEntity
  8
0
  6
ACAD_ISO02W100
 62
     5
 48
0.6333856156431035
100
AcDbCircle
 10
338.3201842164067
 20
421.6730214081446
 30
0.0
 40
12.5
100
AcDbArc
 50
180.0
 51
270.0
1001
PHOENIX7010
1002
{
1070
    41
1040
1.0
1002
}
  0
CIRCLE
  5
7D84
102
{ACAD_REACTORS
330
394C
102
}
330
1F
100
AcDbEntity
  8
0
  6
Continuous
 62
     7
370
    50
100
AcDbCircle
 10
213.3201842164067
 20
421.6730214081449
 30
0.0
 40
2.699999999999988
1001
PHOENIX7010
1002
{
1070
    41
1040
1.0
1002
}
  0
CIRCLE
  5
7D85
102
{ACAD_REACTORS
330
394C
102
}
330
1F
100
AcDbEntity
  8
0
  6
Continuous
 62
     7
370
    50
100
AcDbCircle
 10
213.3201842164067
 20
421.6730214081449
 30
0.0
 40
5.5
1001
PHOENIX7010
1002
{
1070
    41
1040
1.0
1002
}
  0
CIRCLE
  5
7D89
102
{ACAD_REACTORS
330
394C
102
}
330
1F
100
AcDbEntity
  8
0
  6
Continuous
 62
     7
370
    50
100
AcDbCircle
 10
353.3201842164065
 20
421.6730214081449
 30
0.0
 40
5.5
1001
PHOENIX7010
1002
{
1070
    41
1040
1.0
1002
}
  0
CIRCLE
  5
7D8A
102
{ACAD_REACTORS
330
394C
102
}
330
1F
100
AcDbEntity
  8
0
  6
Continuous
 62
     7
370
    50
100
AcDbCircle
 10
353.3201842164065
 20
421.6730214081449
 30
0.0
 40
2.699999999999988
1001
PHOENIX7010
1002
{
1070
    41
1040
1.0
1002
}
  0
CIRCLE
  5
7D8B
102
{ACAD_REACTORS
330
394C
102
}
330
1F
100
AcDbEntity
  8
0
  6
Continuous
 62
     7
370
    50
100
AcDbCircle
 10
353.3201842164065
 20
181.6730214081449
 30
0.0
 40
2.699999999999988
1001
PHOENIX7010
1002
{
1070
    41
1040
1.0
1002
}
  0
CIRCLE
  5
7D8C
102
{ACAD_REACTORS
330
394C
102
}
330
1F
100
AcDbEntity
  8
0
  6
Continuous
 62
     7
370
    50
100
AcDbCircle
 10
353.3201842164065
 20
181.6730214081449
 30
0.0
 40
5.5
1001
PHOENIX7010
1002
{
1070
    41
1040
1.0
1002
}
  0
CIRCLE
  5
7D8D
102
{ACAD_REACTORS
330
394C
102
}
330
1F
100
AcDbEntity
  8
0
  6
Continuous
 62
     7
370
    50
100
AcDbCircle
 10
213.3201842164067
 20
181.6730214081449
 30
0.0
 40
5.5
1001
PHOENIX7010
1002
{
1070
    41
1040
1.0
1002
}
  0
CIRCLE
  5
7D8E
102
{ACAD_REACTORS
330
394C
102
}
330
1F
100
AcDbEntity
  8
0
  6
Continuous
 62
     7
370
    50
100
AcDbCircle
 10
213.3201842164067
 20
181.6730214081449
 30
0.0
 40
2.699999999999988
1001
PHOENIX7010
1002
{
1070
    41
1040
1.0
1002
}
  0
LINE
  5
7D8F
102
{ACAD_REACTORS
330
394C
102
}
330
1F
100
AcDbEntity
  8
0
  6
ACAD_ISO04W100
 62
     1
 48
0.2419354838709677
100
AcDbLine
 10
353.3201842164067
 20
414.1730214081449
 30
0.0
 11
353.3201842164067
 21
429.1730214081448
 31
0.0
1001
PHOENIX7010
1002
{
1070
    41
1040
1.0
1002
}
  0
LINE
  5
7D90
102
{ACAD_REACTORS
330
394C
102
}
330
1F
100
AcDbEntity
  8
0
  6
ACAD_ISO04W100
 62
     1
 48
0.2419354838709604
100
AcDbLine
 10
360.8201842164064
 20
421.6730214081449
 30
0.0
 11
345.8201842164069
 21
421.6730214081449
 31
0.0
1001
PHOENIX7010
1002
{
1070
    41
1040
1.0
1002
}
  0
LINE
  5
7D91
102
{ACAD_REACTORS
330
394C
102
}
330
1F
100
AcDbEntity
  8
0
  6
ACAD_ISO04W100
 62
     1
 48
0.2419354838709604
100
AcDbLine
 10
360.8201842164064
 20
181.6730214081449
 30
0.0
 11
345.8201842164069
 21
181.6730214081449
 31
0.0
1001
PHOENIX7010
1002
{
1070
    41
1040
1.0
1002
}
  0
LINE
  5
7D92
102
{ACAD_REACTORS
330
394C
102
}
330
1F
100
AcDbEntity
  8
0
  6
ACAD_ISO04W100
 62
     1
 48
0.2419354838709677
100
AcDbLine
 10
353.3201842164067
 20
174.1730214081449
 30
0.0
 11
353.3201842164067
 21
189.1730214081449
 31
0.0
1001
PHOENIX7010
1002
{
1070
    41
1040
1.0
1002
}
  0
LINE
  5
7D93
102
{ACAD_REACTORS
330
394C
102
}
330
1F
100
AcDbEntity
  8
0
  6
ACAD_ISO04W100
 62
     1
 48
0.2419354838709677
100
AcDbLine
 10
213.3201842164067
 20
174.1730214081449
 30
0.0
 11
213.3201842164067
 21
189.1730214081449
 31
0.0
1001
PHOENIX7010
1002
{
1070
    41
1040
1.0
1002
}
  0
LINE
  5
7D94
102
{ACAD_REACTORS
330
394C
102
}
330
1F
100
AcDbEntity
  8
0
  6
ACAD_ISO04W100
 62
     1
 48
0.2419354838709604
100
AcDbLine
 10
220.8201842164067
 20
181.6730214081449
 30
0.0
 11
205.8201842164071
 21
181.6730214081449
 31
0.0
1001
PHOENIX7010
1002
{
1070
    41
1040
1.0
1002
}
  0
ARC
  5
7D96
102
{ACAD_REACTORS
330
394C
102
}
330
1F
100
AcDbEntity
  8
0
  6
Continuous
 62
     7
100
AcDbCircle
 10
702.2281303775371
 20
181.6730214081447
 30
0.0
 40
10.0
100
AcDbArc
 50
270.0
 51
0.0
1001
PHOENIX7010
1002
{
1070
    41
1040
1.0
1002
}
  0
LINE
  5
7D97
102
{ACAD_REACTORS
330
394C
102
}
330
1F
100
AcDbEntity
  8
0
  6
Continuous
 62
     7
100
AcDbLine
 10
712.2281303775371
 20
181.6730214081447
 30
0.0
 11
712.2281303775371
 21
421.6730214081446
 31
0.0
1001
PHOENIX7010
1002
{
1070
    41
1040
1.0
1002
}
  0
LINE
  5
7D98
102
{ACAD_REACTORS
330
394C
102
}
330
1F
100
AcDbEntity
  8
0
  6
Continuous
 62
     7
100
AcDbLine
 10
562.2281303775371
 20
171.6730214081447
 30
0.0
 11
702.2281303775371
 21
171.6730214081447
 31
0.0
1001
PHOENIX7010
1002
{
1070
    41
1040
1.0
1002
}
  0
ARC
  5
7D9B
102
{ACAD_REACTORS
330
394C
102
}
330
1F
100
AcDbEntity
  8
0
  6
ACAD_ISO02W100
 62
     5
 48
0.2026833970057931
100
AcDbCircle
 10
703.7281303775371
 20
195.6730214081447
 30
0.0
 40
4.0
100
AcDbArc
 50
270.0
 51
0.0
1001
PHOENIX7010
1002
{
1070
    41
1040
1.0
1002
}
  0
LINE
  5
7D9C
102
{ACAD_REACTORS
330
394C
102
}
330
1F
100
AcDbEntity
  8
0
  6
ACAD_ISO02W100
 62
     5
100
AcDbLine
 10
707.7281303775371
 20
195.6730214081447
 30
0.0
 11
707.7281303775371
 21
407.6730214081447
 31
0.0
1001
PHOENIX7010
1002
{
1070
    41
1040
1.0
1002
}
  0
LINE
  5
7D9D
102
{ACAD_REACTORS
330
394C
102
}
330
1F
100
AcDbEntity
  8
0
  6
ACAD_ISO02W100
 62
     5
100
AcDbLine
 10
560.7281303775371
 20
191.6730214081447
 30
0.0
 11
703.7281303775371
 21
191.6730214081447
 31
0.0
1001
PHOENIX7010
1002
{
1070
    41
1040
1.0
1002
}
  0
ARC
  5
7D9E
102
{ACAD_REACTORS
330
394C
102
}
330
1F
100
AcDbEntity
  8
0
  6
ACAD_ISO02W100
 62
     5
 48
0.5067084925144828
100
AcDbCircle
 10
687.2281303775371
 20
181.6730214081447
 30
0.0
 40
10.0
100
AcDbArc
 50
90.0
 51
180.0
1001
PHOENIX7010
1002
{
1070
    41
1040
1.0
1002
}
  0
LINE
  5
7D9F
102
{ACAD_REACTORS
330
394C
102
}
330
1F
100
AcDbEntity
  8
0
  6
ACAD_ISO02W100
 62
     5
 48
0.0483870967741936
100
AcDbLine
 10
677.2281303775371
 20
180.1730214081447
 30
0.0
 11
677.2281303775371
 21
181.6730214081447
 31
0.0
1001
PHOENIX7010
1002
{
1070
    41
1040
1.0
1002
}
  0
ARC
  5
7DA0
102
{ACAD_REACTORS
330
394C
102
}
330
1F
100
AcDbEntity
  8
0
  6
ACAD_ISO02W100
 62
     5
 48
0.2026833970057931
100
AcDbCircle
 10
673.2281303775371
 20
180.1730214081447
 30
0.0
 40
4.0
100
AcDbArc
 50
270.0
 51
0.0
1001
PHOENIX7010
1002
{
1070
    41
1040
1.0
1002
}
  0
LINE
  5
7DA1
102
{ACAD_REACTORS
330
394C
102
}
330
1F
100
AcDbEntity
  8
0
  6
ACAD_ISO02W100
 62
     5
100
AcDbLine
 10
673.2281303775371
 20
176.1730214081446
 30
0.0
 11
591.2281303775371
 21
176.1730214081446
 31
0.0
1001
PHOENIX7010
1002
{
1070
    41
1040
1.0
1002
}
  0
LINE
  5
7DA2
102
{ACAD_REACTORS
330
394C
102
}
330
1F
100
AcDbEntity
  8
0
  6
ACAD_ISO04W100
 62
     1
 48
0.1612903225806451
100
AcDbLine
 10
665.2281303775371
 20
186.6730214081447
 30
0.0
 11
675.2281303775371
 21
186.6730214081447
 31
0.0
1001
PHOENIX7010
1002
{
1070
    41
1040
1.0
1002
}
  0
LINE
  5
7DA3
102
{ACAD_REACTORS
330
394C
102
}
330
1F
100
AcDbEntity
  8
0
  6
ACAD_ISO04W100
 62
     1
 48
0.1612903225806451
100
AcDbLine
 10
670.2281303775371
 20
191.6730214081447
 30
0.0
 11
670.2281303775371
 21
181.6730214081447
 31
0.0
1001
PHOENIX7010
1002
{
1070
    41
1040
1.0
1002
}
  0
LINE
  5
7DA4
102
{ACAD_REACTORS
330
394C
102
}
330
1F
100
AcDbEntity
  8
0
  6
ACAD_ISO04W100
 62
     1
 48
0.1612903225806451
100
AcDbLine
 10
637.2281303775371
 20
186.6730214081447
 30
0.0
 11
627.2281303775371
 21
186.6730214081447
 31
0.0
1001
PHOENIX7010
1002
{
1070
    41
1040
1.0
1002
}
  0
LINE
  5
7DA5
102
{ACAD_REACTORS
330
394C
102
}
330
1F
100
AcDbEntity
  8
0
  6
ACAD_ISO04W100
 62
     1
 48
0.1612903225806451
100
AcDbLine
 10
599.2281303775371
 20
186.6730214081447
 30
0.0
 11
589.2281303775371
 21
186.6730214081447
 31
0.0
1001
PHOENIX7010
1002
{
1070
    41
1040
1.0
1002
}
  0
LINE
  5
7DA6
102
{ACAD_REACTORS
330
394C
102
}
330
1F
100
AcDbEntity
  8
0
  6
ACAD_ISO04W100
 62
     1
 48
0.1612903225806451
100
AcDbLine
 10
594.2281303775371
 20
191.6730214081447
 30
0.0
 11
594.2281303775371
 21
181.6730214081447
 31
0.0
1001
PHOENIX7010
1002
{
1070
    41
1040
1.0
1002
}
  0
ARC
  5
7DA7
102
{ACAD_REACTORS
330
394C
102
}
330
1F
100
AcDbEntity
  8
0
  6
ACAD_ISO02W100
 62
     5
 48
0.2026833970057931
100
AcDbCircle
 10
591.2281303775371
 20
180.1730214081447
 30
0.0
 40
4.0
100
AcDbArc
 50
180.0
 51
270.0
1001
PHOENIX7010
1002
{
1070
    41
1040
1.0
1002
}
  0
LINE
  5
7DA8
102
{ACAD_REACTORS
330
394C
102
}
330
1F
100
AcDbEntity
  8
0
  6
ACAD_ISO02W100
 62
     5
 48
0.0483870967741936
100
AcDbLine
 10
587.2281303775371
 20
180.1730214081447
 30
0.0
 11
587.2281303775371
 21
181.6730214081447
 31
0.0
1001
PHOENIX7010
1002
{
1070
    41
1040
1.0
1002
}
  0
ARC
  5
7DA9
102
{ACAD_REACTORS
330
394C
102
}
330
1F
100
AcDbEntity
  8
0
  6
ACAD_ISO02W100
 62
     5
 48
0.5067084925144827
100
AcDbCircle
 10
577.2281303775371
 20
181.6730214081447
 30
0.0
 40
10.0
100
AcDbArc
 50
0.0
 51
90.0
1001
PHOENIX7010
1002
{
1070
    41
1040
1.0
1002
}
  0
ARC
  5
7DAA
102
{ACAD_REACTORS
330
394C
102
}
330
1F
100
AcDbEntity
  8
0
  6
Continuous
 62
     7
100
AcDbCircle
 10
562.2281303775371
 20
181.6730214081447
 30
0.0
 40
10.0
100
AcDbArc
 50
180.0
 51
270.0
1001
PHOENIX7010
1002
{
1070
    41
1040
1.0
1002
}
  0
ARC
  5
7DAB
102
{ACAD_REACTORS
330
394C
102
}
330
1F
100
AcDbEntity
  8
0
  6
ACAD_ISO02W100
 62
     5
 48
0.2026833970057931
100
AcDbCircle
 10
560.7281303775371
 20
195.6730214081447
 30
0.0
 40
4.0
100
AcDbArc
 50
180.0
 51
270.0
1001
PHOENIX7010
1002
{
1070
    41
1040
1.0
1002
}
  0
LINE
  5
7DAC
102
{ACAD_REACTORS
330
394C
102
}
330
1F
100
AcDbEntity
  8
0
  6
Continuous
 62
     7
100
AcDbLine
 10
552.2281303775371
 20
181.6730214081447
 30
0.0
 11
552.2281303775371
 21
421.6730214081446
 31
0.0
1001
PHOENIX7010
1002
{
1070
    41
1040
1.0
1002
}
  0
LINE
  5
7DAD
102
{ACAD_REACTORS
330
394C
102
}
330
1F
100
AcDbEntity
  8
0
  6
ACAD_ISO02W100
 62
     5
100
AcDbLine
 10
556.7281303775371
 20
195.6730214081447
 30
0.0
 11
556.7281303775371
 21
407.6730214081447
 31
0.0
1001
PHOENIX7010
1002
{
1070
    41
1040
1.0
1002
}
  0
ARC
  5
7DAE
102
{ACAD_REACTORS
330
394C
102
}
330
1F
100
AcDbEntity
  8
0
  6
ACAD_ISO02W100
 62
     5
 48
0.2026833970057931
100
AcDbCircle
 10
560.7281303775371
 20
407.6730214081447
 30
0.0
 40
4.0
100
AcDbArc
 50
90.0
 51
180.0
1001
PHOENIX7010
1002
{
1070
    41
1040
1.0
1002
}
  0
LINE
  5
7DAF
102
{ACAD_REACTORS
330
394C
102
}
330
1F
100
AcDbEntity
  8
0
  6
ACAD_ISO04W100
 62
     1
 48
0.5120967741935484
100
AcDbLine
 10
584.9781303775371
 20
421.6730214081446
 30
0.0
 11
553.2281303775371
 21
421.6730214081446
 31
0.0
1001
PHOENIX7010
1002
{
1070
    41
1040
1.0
1002
}
  0
LINE
  5
7DB0
102
{ACAD_REACTORS
330
394C
102
}
330
1F
100
AcDbEntity
  8
0
  6
ACAD_ISO04W100
 62
     1
 48
0.2903225806451613
100
AcDbLine
 10
562.2281303775371
 20
412.6730214081447
 30
0.0
 11
562.2281303775371
 21
430.6730214081446
 31
0.0
1001
PHOENIX7010
1002
{
1070
    41
1040
1.0
1002
}
  0
LINE
  5
7DB7
102
{ACAD_REACTORS
330
394C
102
}
330
1F
100
AcDbEntity
  8
0
  6
ACAD_ISO02W100
 62
     5
100
AcDbLine
 10
703.7281303775371
 20
411.6730214081447
 30
0.0
 11
560.7281303775371
 21
411.6730214081447
 31
0.0
1001
PHOENIX7010
1002
{
1070
    41
1040
1.0
1002
}
  0
LINE
  5
7DB8
102
{ACAD_REACTORS
330
394C
102
}
330
1F
100
AcDbEntity
  8
0
  6
Continuous
 62
     7
100
AcDbLine
 10
702.2281303775371
 20
431.6730214081446
 30
0.0
 11
562.2281303775371
 21
431.6730214081446
 31
0.0
1001
PHOENIX7010
1002
{
1070
    41
1040
1.0
1002
}
  0
ARC
  5
7DB9
102
{ACAD_REACTORS
330
394C
102
}
330
1F
100
AcDbEntity
  8
0
  6
Continuous
 62
     7
100
AcDbCircle
 10
562.2281303775371
 20
421.6730214081446
 30
0.0
 40
10.0
100
AcDbArc
 50
90.0
 51
180.0
1001
PHOENIX7010
1002
{
1070
    41
1040
1.0
1002
}
  0
LINE
  5
7DBB
102
{ACAD_REACTORS
330
394C
102
}
330
1F
100
AcDbEntity
  8
0
  6
ACAD_ISO04W100
 62
     1
 48
0.25
100
AcDbLine
 10
577.2281303775371
 20
413.9230214081447
 30
0.0
 11
577.2281303775371
 21
429.4230214081446
 31
0.0
1001
PHOENIX7010
1002
{
1070
    41
1040
1.0
1002
}
  0
ARC
  5
7DBC
102
{ACAD_REACTORS
330
394C
102
}
330
1F
100
AcDbEntity
  8
0
  6
ACAD_ISO02W100
 62
     5
 48
0.5067084925144828
100
AcDbCircle
 10
577.2281303775371
 20
421.6730214081446
 30
0.0
 40
10.0
100
AcDbArc
 50
270.0
 51
0.0
1001
PHOENIX7010
1002
{
1070
    41
1040
1.0
1002
}
  0
ARC
  5
7DBD
102
{ACAD_REACTORS
330
394C
102
}
330
1F
100
AcDbEntity
  8
0
  6
ACAD_ISO02W100
 62
     5
 48
0.2026833970057931
100
AcDbCircle
 10
591.2281303775371
 20
423.1730214081446
 30
0.0
 40
4.0
100
AcDbArc
 50
90.0
 51
180.0
1001
PHOENIX7010
1002
{
1070
    41
1040
1.0
1002
}
  0
LINE
  5
7DBE
102
{ACAD_REACTORS
330
394C
102
}
330
1F
100
AcDbEntity
  8
0
  6
ACAD_ISO02W100
 62
     5
 48
0.0483870967741936
100
AcDbLine
 10
587.2281303775371
 20
423.1730214081446
 30
0.0
 11
587.2281303775371
 21
421.6730214081446
 31
0.0
1001
PHOENIX7010
1002
{
1070
    41
1040
1.0
1002
}
  0
LINE
  5
7DBF
102
{ACAD_REACTORS
330
394C
102
}
330
1F
100
AcDbEntity
  8
0
  6
ACAD_ISO02W100
 62
     5
100
AcDbLine
 10
673.2281303775371
 20
427.1730214081446
 30
0.0
 11
591.2281303775371
 21
427.1730214081446
 31
0.0
1001
PHOENIX7010
1002
{
1070
    41
1040
1.0
1002
}
  0
LINE
  5
7DC0
102
{ACAD_REACTORS
330
394C
102
}
330
1F
100
AcDbEntity
  8
0
  6
ACAD_ISO04W100
 62
     1
 48
0.1612903225806451
100
AcDbLine
 10
594.2281303775371
 20
411.6730214081447
 30
0.0
 11
594.2281303775371
 21
421.6730214081446
 31
0.0
1001
PHOENIX7010
1002
{
1070
    41
1040
1.0
1002
}
  0
LINE
  5
7DC1
102
{ACAD_REACTORS
330
394C
102
}
330
1F
100
AcDbEntity
  8
0
  6
ACAD_ISO04W100
 62
     1
 48
0.1612903225806451
100
AcDbLine
 10
599.2281303775371
 20
416.6730214081447
 30
0.0
 11
589.2281303775371
 21
416.6730214081447
 31
0.0
1001
PHOENIX7010
1002
{
1070
    41
1040
1.0
1002
}
  0
LINE
  5
7DC2
102
{ACAD_REACTORS
330
394C
102
}
330
1F
100
AcDbEntity
  8
0
  6
ACAD_ISO04W100
 62
     1
 48
0.1612903225806451
100
AcDbLine
 10
637.2281303775371
 20
416.6730214081447
 30
0.0
 11
627.2281303775371
 21
416.6730214081447
 31
0.0
1001
PHOENIX7010
1002
{
1070
    41
1040
1.0
1002
}
  0
LINE
  5
7DC3
102
{ACAD_REACTORS
330
394C
102
}
330
1F
100
AcDbEntity
  8
0
  6
ACAD_ISO04W100
 62
     1
 48
0.1612903225806451
100
AcDbLine
 10
670.2281303775371
 20
411.6730214081447
 30
0.0
 11
670.2281303775371
 21
421.6730214081446
 31
0.0
1001
PHOENIX7010
1002
{
1070
    41
1040
1.0
1002
}
  0
LINE
  5
7DC4
102
{ACAD_REACTORS
330
394C
102
}
330
1F
100
AcDbEntity
  8
0
  6
ACAD_ISO04W100
 62
     1
 48
0.1612903225806451
100
AcDbLine
 10
665.2281303775371
 20
416.6730214081447
 30
0.0
 11
675.2281303775371
 21
416.6730214081447
 31
0.0
1001
PHOENIX7010
1002
{
1070
    41
1040
1.0
1002
}
  0
ARC
  5
7DC5
102
{ACAD_REACTORS
330
394C
102
}
330
1F
100
AcDbEntity
  8
0
  6
ACAD_ISO02W100
 62
     5
 48
0.2026833970057931
100
AcDbCircle
 10
673.2281303775371
 20
423.1730214081446
 30
0.0
 40
4.0
100
AcDbArc
 50
0.0
 51
90.0
1001
PHOENIX7010
1002
{
1070
    41
1040
1.0
1002
}
  0
LINE
  5
7DC6
102
{ACAD_REACTORS
330
394C
102
}
330
1F
100
AcDbEntity
  8
0
  6
ACAD_ISO02W100
 62
     5
 48
0.0483870967741936
100
AcDbLine
 10
677.2281303775371
 20
423.1730214081446
 30
0.0
 11
677.2281303775371
 21
421.6730214081446
 31
0.0
1001
PHOENIX7010
1002
{
1070
    41
1040
1.0
1002
}
  0
ARC
  5
7DC7
102
{ACAD_REACTORS
330
394C
102
}
330
1F
100
AcDbEntity
  8
0
  6
ACAD_ISO02W100
 62
     5
 48
0.5067084925144828
100
AcDbCircle
 10
687.2281303775371
 20
421.6730214081446
 30
0.0
 40
10.0
100
AcDbArc
 50
180.0
 51
270.0
1001
PHOENIX7010
1002
{
1070
    41
1040
1.0
1002
}
  0
ARC
  5
7DC8
102
{ACAD_REACTORS
330
394C
102
}
330
1F
100
AcDbEntity
  8
0
  6
ACAD_ISO02W100
 62
     5
100
AcDbCircle
 10
703.7281303775371
 20
407.6730214081447
 30
0.0
 40
4.0
100
AcDbArc
 50
0.0
 51
90.0
1001
PHOENIX7010
1002
{
1070
    41
1040
1.0
1002
}
  0
ARC
  5
7DC9
102
{ACAD_REACTORS
330
394C
102
}
330
1F
100
AcDbEntity
  8
0
  6
Continuous
 62
     7
100
AcDbCircle
 10
702.2281303775371
 20
421.6730214081446
 30
0.0
 40
10.0
100
AcDbArc
 50
0.0
 51
90.0
1001
PHOENIX7010
1002
{
1070
    41
1040
1.0
1002
}
  0
LINE
  5
7DCA
102
{ACAD_REACTORS
330
394C
102
}
330
1F
100
AcDbEntity
  8
0
  6
ACAD_ISO04W100
 62
     1
100
AcDbLine
 10
632.2281303775371
 20
169.6730214081447
 30
0.0
 11
632.2281303775371
 21
433.6730214081446
 31
0.0
1001
PHOENIX7010
1002
{
1070
    41
1040
1.0
1002
}
  0
LINE
  5
7DCB
102
{ACAD_REACTORS
330
394C
102
}
330
1F
100
AcDbEntity
  8
0
  6
ACAD_ISO04W100
 62
     1
100
AcDbLine
 10
550.2281303775371
 20
301.6730214081447
 30
0.0
 11
714.2281303775371
 21
301.6730214081447
 31
0.0
1001
PHOENIX7010
1002
{
1070
    41
1040
1.0
1002
}
  0
CIRCLE
  5
7DD3
330
1F
100
AcDbEntity
  8
0
  6
Continuous
 62
     7
370
    50
100
AcDbCircle
 10
562.2281303775371
 20
421.6730214081446
 30
0.0
 40
2.460000000000036
1001
PHOENIX7010
1002
{
1070
    41
1040
1.0
1002
}
  0
ARC
  5
7DD5
330
1F
100
AcDbEntity
  8
0
  6
Continuous
 62
     1
370
    25
100
AcDbCircle
 10
562.2281303775371
 20
421.6730214081446
 30
0.0
 40
2.999999999999999
100
AcDbArc
 50
73.59907657794657
 51
343.5990765779465
1001
PHOENIX7010
1002
{
1070
    41
1040
1.0
1002
}
  0
LINE
  5
7DDF
330
1F
100
AcDbEntity
  8
0
  6
Continuous
 62
     7
370
    50
100
AcDbLine
 10
565.7281303775371
 20
415.6108435816536
 30
0.0
 11
565.7281303775371
 21
427.7351992346357
 31
0.0
1001
PHOENIX7010
1002
{
1070
    41
1040
1.0
1002
}
  0
CIRCLE
  5
7DE1
330
1F
100
AcDbEntity
  8
0
  6
Continuous
 62
     7
370
    50
100
AcDbCircle
 10
577.2281303775371
 20
421.6730214081446
 30
0.0
 40
3.5
1001
PHOENIX7010
1002
{
1070
    41
1040
1.0
1002
}
  0
CIRCLE
  5
7DE2
330
1F
100
AcDbEntity
  8
0
  6
ACAD_ISO02W100
 62
     5
370
    35
100
AcDbCircle
 10
577.2281303775371
 20
421.6730214081446
 30
0.0
 40
5.75
1001
PHOENIX7010
1002
{
1070
    41
1040
1.0
1002
}
  0
CIRCLE
  5
7DE4
330
1F
100
AcDbEntity
  8
0
  6
ACAD_ISO02W100
 62
     5
 48
0.4986011566342584
370
    35
100
AcDbCircle
 10
594.2281303775371
 20
416.6730214081447
 30
0.0
 40
2.460000000000036
1001
PHOENIX7010
1002
{
1070
    41
1040
1.0
1002
}
  0
ARC
  5
7DE6
330
1F
100
AcDbEntity
  8
0
  6
ACAD_ISO02W100
 62
     1
 48
0.4560376432630345
370
    25
100
AcDbCircle
 10
594.2281303775371
 20
416.6730214081447
 30
0.0
 40
2.999999999999999
100
AcDbArc
 50
71.01604404287984
 51
341.0160440428796
1001
PHOENIX7010
1002
{
1070
    41
1040
1.0
1002
}
  0
ARC
  5
7DE9
330
1F
100
AcDbEntity
  8
0
  6
ACAD_ISO02W100
 62
     1
 48
0.4560376432630345
370
    25
100
AcDbCircle
 10
632.2281303775371
 20
416.6730214081447
 30
0.0
 40
2.999999999999999
100
AcDbArc
 50
71.01604404287984
 51
341.0160440428796
1001
PHOENIX7010
1002
{
1070
    41
1040
1.0
1002
}
  0
CIRCLE
  5
7DEA
330
1F
100
AcDbEntity
  8
0
  6
ACAD_ISO02W100
 62
     5
 48
0.4986011566342584
370
    35
100
AcDbCircle
 10
632.2281303775371
 20
416.6730214081447
 30
0.0
 40
2.460000000000036
1001
PHOENIX7010
1002
{
1070
    41
1040
1.0
1002
}
  0
CIRCLE
  5
7DEB
330
1F
100
AcDbEntity
  8
0
  6
ACAD_ISO02W100
 62
     5
 48
0.4986011566342584
370
    35
100
AcDbCircle
 10
670.2281303775371
 20
416.6730214081447
 30
0.0
 40
2.460000000000036
1001
PHOENIX7010
1002
{
1070
    41
1040
1.0
1002
}
  0
ARC
  5
7DEC
330
1F
100
AcDbEntity
  8
0
  6
ACAD_ISO02W100
 62
     1
 48
0.4560376432630345
370
    25
100
AcDbCircle
 10
670.2281303775371
 20
416.6730214081447
 30
0.0
 40
2.999999999999999
100
AcDbArc
 50
71.01604404287984
 51
341.0160440428796
1001
PHOENIX7010
1002
{
1070
    41
1040
1.0
1002
}
  0
ARC
  5
7DED
330
1F
100
AcDbEntity
  8
0
  6
ACAD_ISO02W100
 62
     1
 48
0.4560376432630345
370
    25
100
AcDbCircle
 10
670.2281303775371
 20
186.6730214081447
 30
0.0
 40
2.999999999999999
100
AcDbArc
 50
71.01604404287984
 51
341.0160440428796
1001
PHOENIX7010
1002
{
1070
    41
1040
1.0
1002
}
  0
CIRCLE
  5
7DEE
330
1F
100
AcDbEntity
  8
0
  6
ACAD_ISO02W100
 62
     5
 48
0.4986011566342584
370
    35
100
AcDbCircle
 10
670.2281303775371
 20
186.6730214081447
 30
0.0
 40
2.460000000000036
1001
PHOENIX7010
1002
{
1070
    41
1040
1.0
1002
}
  0
CIRCLE
  5
7DEF
330
1F
100
AcDbEntity
  8
0
  6
ACAD_ISO02W100
 62
     5
 48
0.4986011566342584
370
    35
100
AcDbCircle
 10
632.2281303775371
 20
186.6730214081447
 30
0.0
 40
2.460000000000036
1001
PHOENIX7010
1002
{
1070
    41
1040
1.0
1002
}
  0
ARC
  5
7DF0
330
1F
100
AcDbEntity
  8
0
  6
ACAD_ISO02W100
 62
     1
 48
0.4560376432630345
370
    25
100
AcDbCircle
 10
632.2281303775371
 20
186.6730214081447
 30
0.0
 40
2.999999999999999
100
AcDbArc
 50
71.01604404287984
 51
341.0160440428796
1001
PHOENIX7010
1002
{
1070
    41
1040
1.0
1002
}
  0
ARC
  5
7DF1
102
{ACAD_REACTORS
330
D1AB
102
}
330
1F
100
AcDbEntity
  8
0
  6
ACAD_ISO02W100
 62
     1
 48
0.4881020822796803
370
    25
100
AcDbCircle
 10
594.2281303775371
 20
186.6730214081447
 30
0.0
 40
2.999999999999999
100
AcDbArc
 50
71.01604404287984
 51
0.0
1001
PHOENIX7010
1002
{
1070
    41
1040
1.0
1002
}
  0
CIRCLE
  5
7DF2
330
1F
100
AcDbEntity
  8
0
  6
ACAD_ISO02W100
 62
     5
 48
0.4986011566342584
370
    35
100
AcDbCircle
 10
594.2281303775371
 20
186.6730214081447
 30
0.0
 40
2.460000000000036
1001
PHOENIX7010
1002
{
1070
    41
1040
1.0
1002
}
  0
LINE
  5
7DF5
102
{ACAD_REACTORS
330
394C
102
}
330
1F
100
AcDbEntity
  8
0
  6
ACAD_ISO04W100
 62
     1
 48
0.5120967741935484
100
AcDbLine
 10
679.4781303775371
 20
421.6730214081445
 30
0.0
 11
711.2281303775371
 21
421.6730214081445
 31
0.0
1001
PHOENIX7010
1002
{
1070
    41
1040
1.0
1002
}
  0
CIRCLE
  5
7DF7
330
1F
100
AcDbEntity
  8
0
  6
ACAD_ISO02W100
 62
     5
370
    35
100
AcDbCircle
 10
687.2281303775371
 20
421.6730214081445
 30
0.0
 40
5.75
1001
PHOENIX7010
1002
{
1070
    41
1040
1.0
1002
}
  0
CIRCLE
  5
7DF8
330
1F
100
AcDbEntity
  8
0
  6
Continuous
 62
     7
370
    50
100
AcDbCircle
 10
687.2281303775371
 20
421.6730214081445
 30
0.0
 40
3.5
1001
PHOENIX7010
1002
{
1070
    41
1040
1.0
1002
}
  0
ARC
  5
7DFA
330
1F
100
AcDbEntity
  8
0
  6
Continuous
 62
     1
370
    25
100
AcDbCircle
 10
702.2281303775371
 20
421.6730214081445
 30
0.0
 40
2.999999999999999
100
AcDbArc
 50
253.5990765779466
 51
163.5990765779465
1001
PHOENIX7010
1002
{
1070
    41
1040
1.0
1002
}
  0
CIRCLE
  5
7DFB
330
1F
100
AcDbEntity
  8
0
  6
Continuous
 62
     7
370
    50
100
AcDbCircle
 10
702.2281303775371
 20
421.6730214081445
 30
0.0
 40
2.460000000000036
1001
PHOENIX7010
1002
{
1070
    41
1040
1.0
1002
}
  0
LINE
  5
7DFC
102
{ACAD_REACTORS
330
394C
102
}
330
1F
100
AcDbEntity
  8
0
  6
ACAD_ISO04W100
 62
     1
 48
0.2903225806451613
100
AcDbLine
 10
702.2281303775371
 20
430.6730214081446
 30
0.0
 11
702.2281303775371
 21
412.6730214081446
 31
0.0
1001
PHOENIX7010
1002
{
1070
    41
1040
1.0
1002
}
  0
LINE
  5
7DFD
102
{ACAD_REACTORS
330
394C
102
}
330
1F
100
AcDbEntity
  8
0
  6
ACAD_ISO04W100
 62
     1
 48
0.25
100
AcDbLine
 10
687.2281303775371
 20
429.4230214081446
 30
0.0
 11
687.2281303775371
 21
413.9230214081446
 31
0.0
1001
PHOENIX7010
1002
{
1070
    41
1040
1.0
1002
}
  0
LINE
  5
7DFE
330
1F
100
AcDbEntity
  8
0
  6
Continuous
 62
     7
370
    50
100
AcDbLine
 10
698.7281303775371
 20
427.7351992346356
 30
0.0
 11
698.7281303775371
 21
415.6108435816535
 31
0.0
1001
PHOENIX7010
1002
{
1070
    41
1040
1.0
1002
}
  0
LINE
  5
7E01
102
{ACAD_REACTORS
330
394C
102
}
330
1F
100
AcDbEntity
  8
0
  6
ACAD_ISO04W100
 62
     1
 48
0.5120967741935484
100
AcDbLine
 10
679.4781303775371
 20
181.6730214081447
 30
0.0
 11
711.2281303775371
 21
181.6730214081447
 31
0.0
1001
PHOENIX7010
1002
{
1070
    41
1040
1.0
1002
}
  0
LINE
  5
7E02
102
{ACAD_REACTORS
330
394C
102
}
330
1F
100
AcDbEntity
  8
0
  6
ACAD_ISO04W100
 62
     1
 48
0.2903225806451613
100
AcDbLine
 10
702.2281303775371
 20
190.6730214081447
 30
0.0
 11
702.2281303775371
 21
172.6730214081447
 31
0.0
1001
PHOENIX7010
1002
{
1070
    41
1040
1.0
1002
}
  0
LINE
  5
7E03
102
{ACAD_REACTORS
330
394C
102
}
330
1F
100
AcDbEntity
  8
0
  6
ACAD_ISO04W100
 62
     1
 48
0.25
100
AcDbLine
 10
687.2281303775371
 20
189.4230214081447
 30
0.0
 11
687.2281303775371
 21
173.9230214081447
 31
0.0
1001
PHOENIX7010
1002
{
1070
    41
1040
1.0
1002
}
  0
CIRCLE
  5
7E04
330
1F
100
AcDbEntity
  8
0
  6
Continuous
 62
     7
370
    50
100
AcDbCircle
 10
702.2281303775371
 20
181.6730214081447
 30
0.0
 40
2.460000000000036
1001
PHOENIX7010
1002
{
1070
    41
1040
1.0
1002
}
  0
ARC
  5
7E05
330
1F
100
AcDbEntity
  8
0
  6
Continuous
 62
     1
370
    25
100
AcDbCircle
 10
702.2281303775371
 20
181.6730214081447
 30
0.0
 40
2.999999999999999
100
AcDbArc
 50
253.5990765779466
 51
163.5990765779465
1001
PHOENIX7010
1002
{
1070
    41
1040
1.0
1002
}
  0
LINE
  5
7E07
330
1F
100
AcDbEntity
  8
0
  6
Continuous
 62
     7
370
    50
100
AcDbLine
 10
698.7281303775371
 20
187.7351992346357
 30
0.0
 11
698.7281303775371
 21
175.6108435816536
 31
0.0
1001
PHOENIX7010
1002
{
1070
    41
1040
1.0
1002
}
  0
CIRCLE
  5
7E08
330
1F
100
AcDbEntity
  8
0
  6
Continuous
 62
     7
370
    50
100
AcDbCircle
 10
687.2281303775371
 20
181.6730214081447
 30
0.0
 40
3.5
1001
PHOENIX7010
1002
{
1070
    41
1040
1.0
1002
}
  0
CIRCLE
  5
7E09
330
1F
100
AcDbEntity
  8
0
  6
ACAD_ISO02W100
 62
     5
370
    35
100
AcDbCircle
 10
687.2281303775371
 20
181.6730214081447
 30
0.0
 40
5.75
1001
PHOENIX7010
1002
{
1070
    41
1040
1.0
1002
}
  0
LINE
  5
7E0B
102
{ACAD_REACTORS
330
394C
102
}
330
1F
100
AcDbEntity
  8
0
  6
ACAD_ISO04W100
 62
     1
 48
0.5120967741935484
100
AcDbLine
 10
584.9781303775371
 20
181.6730214081447
 30
0.0
 11
553.2281303775371
 21
181.6730214081447
 31
0.0
1001
PHOENIX7010
1002
{
1070
    41
1040
1.0
1002
}
  0
CIRCLE
  5
7E0D
330
1F
100
AcDbEntity
  8
0
  6
ACAD_ISO02W100
 62
     5
370
    35
100
AcDbCircle
 10
577.2281303775371
 20
181.6730214081447
 30
0.0
 40
5.75
1001
PHOENIX7010
1002
{
1070
    41
1040
1.0
1002
}
  0
CIRCLE
  5
7E0E
330
1F
100
AcDbEntity
  8
0
  6
Continuous
 62
     7
370
    50
100
AcDbCircle
 10
577.2281303775371
 20
181.6730214081447
 30
0.0
 40
3.5
1001
PHOENIX7010
1002
{
1070
    41
1040
1.0
1002
}
  0
ARC
  5
7E0F
330
1F
100
AcDbEntity
  8
0
  6
Continuous
 62
     7
370
    50
100
AcDbCircle
 10
562.2281303775371
 20
181.6730214081447
 30
0.0
 40
7.0
100
AcDbArc
 50
60.0
 51
300.0000000000004
1001
PHOENIX7010
1002
{
1070
    41
1040
1.0
1002
}
  0
ARC
  5
7E10
330
1F
100
AcDbEntity
  8
0
  6
Continuous
 62
     1
370
    25
100
AcDbCircle
 10
562.2281303775371
 20
181.6730214081447
 30
0.0
 40
2.999999999999999
100
AcDbArc
 50
73.59907657794657
 51
343.5990765779465
1001
PHOENIX7010
1002
{
1070
    41
1040
1.0
1002
}
  0
CIRCLE
  5
7E11
330
1F
100
AcDbEntity
  8
0
  6
Continuous
 62
     7
370
    50
100
AcDbCircle
 10
562.2281303775371
 20
181.6730214081447
 30
0.0
 40
2.460000000000036
1001
PHOENIX7010
1002
{
1070
    41
1040
1.0
1002
}
  0
LINE
  5
7E12
102
{ACAD_REACTORS
330
394C
102
}
330
1F
100
AcDbEntity
  8
0
  6
ACAD_ISO04W100
 62
     1
 48
0.2903225806451613
100
AcDbLine
 10
562.2281303775371
 20
172.6730214081447
 30
0.0
 11
562.2281303775371
 21
190.6730214081447
 31
0.0
1001
PHOENIX7010
1002
{
1070
    41
1040
1.0
1002
}
  0
LINE
  5
7E13
102
{ACAD_REACTORS
330
394C
102
}
330
1F
100
AcDbEntity
  8
0
  6
ACAD_ISO04W100
 62
     1
 48
0.25
100
AcDbLine
 10
577.2281303775371
 20
173.9230214081447
 30
0.0
 11
577.2281303775371
 21
189.4230214081447
 31
0.0
1001
PHOENIX7010
1002
{
1070
    41
1040
1.0
1002
}
  0
LINE
  5
7E14
330
1F
100
AcDbEntity
  8
0
  6
Continuous
 62
     7
370
    50
100
AcDbLine
 10
565.7281303775371
 20
175.6108435816536
 30
0.0
 11
565.7281303775371
 21
187.7351992346357
 31
0.0
1001
PHOENIX7010
1002
{
1070
    41
1040
1.0
1002
}
  0
LINE
  5
7F1E
102
{ACAD_REACTORS
330
7F22
102
}
330
1F
100
AcDbEntity
  8
0
  6
Continuous
 62
     1
370
    25
100
AcDbLine
 10
836.9999999999997
 20
418.0000000000002
 30
0.0
 11
840.9999999999996
 21
418.0000000000002
 31
0.0
1001
PHOENIX7010
1002
{
1070
    62
1070
     1
1070
    41
1040
1.0
1002
}
  0
LINE
  5
7F1F
102
{ACAD_REACTORS
330
7F22
102
}
330
1F
100
AcDbEntity
  8
0
  6
Continuous
 62
     1
370
    25
100
AcDbLine
 10
571.9999999999997
 20
6.0
 30
0.0
 11
571.9999999999997
 21
2.0
 31
0.0
1001
PHOENIX7010
1002
{
1070
    62
1070
     1
1070
    41
1040
1.0
1002
}
  0
LINE
  5
7FA8
102
{ACAD_REACTORS
330
394C
102
}
330
1F
100
AcDbEntity
  8
0
  6
Continuous
 62
     7
100
AcDbLine
 10
363.3201841745267
 20
550.1730214081447
 30
0.0
 11
203.3201842164067
 21
550.1730214081447
 31
0.0
1001
PHOENIX7010
1002
{
1070
    41
1040
1.0
1002
}
  0
LINE
  5
7FA9
102
{ACAD_REACTORS
330
394C
102
}
330
1F
100
AcDbEntity
  8
0
  6
Continuous
 62
     7
100
AcDbLine
 10
362.3201841745267
 20
550.1730214081447
 30
0.0
 11
362.3201841745267
 21
551.6730214081446
 31
0.0
1001
PHOENIX7010
1002
{
1070
    41
1040
1.0
1002
}
  0
LINE
  5
7FAA
102
{ACAD_REACTORS
330
394C
102
}
330
1F
100
AcDbEntity
  8
0
  6
Continuous
 62
     7
100
AcDbLine
 10
362.3489551750186
 20
483.6438274418484
 30
0.0
 11
363.3201841745267
 21
550.1730214081447
 31
0.0
1001
PHOENIX7010
1002
{
1070
    41
1040
1.0
1002
}
  0
ARC
  5
7FAC
102
{ACAD_REACTORS
330
394C
102
}
330
1F
100
AcDbEntity
  8
0
  6
Continuous
 62
     7
100
AcDbCircle
 10
360.3491682582867
 20
483.6730214081446
 30
0.0
 40
2.0
100
AcDbArc
 50
270.0
 51
359.1636247688533
1001
PHOENIX7010
1002
{
1070
    41
1040
1.0
1002
}
  0
ARC
  5
7FAD
102
{ACAD_REACTORS
330
394C
102
}
330
1F
100
AcDbEntity
  8
0
  6
ACAD_ISO02W100
 62
     5
 48
0.100393000012023
100
AcDbCircle
 10
355.8493794085361
 20
487.6730214081447
 30
0.0
 40
2.0
100
AcDbArc
 50
270.0
 51
359.1574754968589
1001
PHOENIX7010
1002
{
1070
    41
1040
1.0
1002
}
  0
LINE
  5
7FAE
102
{ACAD_REACTORS
330
394C
102
}
330
1F
100
AcDbEntity
  8
0
  6
Continuous
 62
     7
100
AcDbLine
 10
206.2439670978399
 20
481.6730214081446
 30
0.0
 11
360.3964013349732
 21
481.6730214081446
 31
0.0
1001
PHOENIX7010
1002
{
1070
    41
1040
1.0
1002
}
  0
LINE
  5
7FAF
102
{ACAD_REACTORS
330
394C
102
}
330
1F
100
AcDbEntity
  8
0
  6
ACAD_ISO02W100
 62
     5
100
AcDbLine
 10
210.7909889405168
 20
485.6730214081445
 30
0.0
 11
355.8493794085361
 21
485.6730214081446
 31
0.0
1001
PHOENIX7010
1002
{
1070
    41
1040
1.0
1002
}
  0
ARC
  5
7FB2
102
{ACAD_REACTORS
330
394C
102
}
330
1F
100
AcDbEntity
  8
0
  6
ACAD_ISO02W100
 62
     5
 48
0.1002483251697976
100
AcDbCircle
 10
325.3537951745266
 20
496.6730214081446
 30
0.0
 40
2.0
100
AcDbArc
 50
269.999969999997
 51
359.0289620000065
1001
PHOENIX7010
1002
{
1070
    41
1040
1.0
1002
}
  0
ARC
  5
7FB3
102
{ACAD_REACTORS
330
394C
102
}
330
1F
100
AcDbEntity
  8
0
  6
ACAD_ISO02W100
 62
     5
 48
0.1013417198972485
100
AcDbCircle
 10
240.3188062581865
 20
496.6716034150133
 30
0.0
 40
2.0
100
AcDbArc
 50
179.999989999999
 51
270.0000089999931
1001
PHOENIX7010
1002
{
1070
    41
1040
1.0
1002
}
  0
ARC
  5
7FB5
102
{ACAD_REACTORS
330
394C
102
}
330
1F
100
AcDbEntity
  8
0
  6
Continuous
 62
     7
100
AcDbCircle
 10
206.2439671327468
 20
483.6730214081446
 30
0.0
 40
2.0
100
AcDbArc
 50
180.8363759999975
 51
269.9999989999921
1001
PHOENIX7010
1002
{
1070
    41
1040
1.0
1002
}
  0
LINE
  5
7FB6
102
{ACAD_REACTORS
330
394C
102
}
330
1F
100
AcDbEntity
  8
0
  6
Continuous
 62
     7
100
AcDbLine
 10
204.2441802164067
 20
483.6438274150133
 30
0.0
 11
203.3201842164067
 21
550.1716034150133
 31
0.0
1001
PHOENIX7010
1002
{
1070
    41
1040
1.0
1002
}
  0
LINE
  5
7FB8
102
{ACAD_REACTORS
330
394C
102
}
330
1F
100
AcDbEntity
  8
0
  6
ACAD_ISO04W100
 62
     1
100
AcDbLine
 10
283.3201841745265
 20
573.6730214081446
 30
0.0
 11
283.3201841745265
 21
479.6730214081446
 31
0.0
1001
PHOENIX7010
1002
{
1070
    41
1040
1.0
1002
}
  0
ARC
  5
7FBC
102
{ACAD_REACTORS
330
394C
102
}
330
1F
100
AcDbEntity
  8
0
  6
ACAD_ISO02W100
 62
     5
 48
0.100393000012023
100
AcDbCircle
 10
210.7909889405168
 20
487.6730214081447
 30
0.0
 40
2.0
100
AcDbArc
 50
180.842524503141
 51
270.0
1001
PHOENIX7010
1002
{
1070
    41
1040
1.0
1002
}
  0
LINE
  5
7FBF
102
{ACAD_REACTORS
330
394C
102
}
330
1F
100
AcDbEntity
  8
0
  6
Continuous
 62
     7
100
AcDbLine
 10
204.3201841745263
 20
550.1730214081447
 30
0.0
 11
204.3201841745263
 21
551.6730214081446
 31
0.0
1001
PHOENIX7010
1002
{
1070
    41
1040
1.0
1002
}
  0
LINE
  5
7FC5
102
{ACAD_REACTORS
330
394C
102
}
330
1F
100
AcDbEntity
  8
0
  6
ACAD_ISO02W100
 62
     5
100
AcDbLine
 10
228.3201841745265
 20
494.6730214081447
 30
0.0
 11
338.3201841745265
 21
494.6730214081447
 31
0.0
1001
PHOENIX7010
1002
{
1070
    41
1040
1.0
1002
}
  0
LINE
  5
7FC7
102
{ACAD_REACTORS
330
394C
102
}
330
1F
100
AcDbEntity
  8
0
  6
Continuous
 62
     7
100
AcDbLine
 10
362.847467178758
 20
569.7253752465472
 30
0.0
 11
363.3201841745267
 21
551.6730214081446
 31
0.0
1001
PHOENIX7010
1002
{
1070
    41
1040
1.0
1002
}
  0
ARC
  5
7FC8
102
{ACAD_REACTORS
330
394C
102
}
330
1F
100
AcDbEntity
  8
0
  6
Continuous
 62
     7
100
AcDbCircle
 10
360.8481525272828
 20
569.6730214081447
 30
0.0
 40
2.0
100
AcDbArc
 50
1.499998331735036
 51
90.0
1001
PHOENIX7010
1002
{
1070
    41
1040
1.0
1002
}
  0
LINE
  5
7FC9
102
{ACAD_REACTORS
330
394C
102
}
330
1F
100
AcDbEntity
  8
0
  6
Continuous
 62
     7
100
AcDbLine
 10
205.7922158217702
 20
571.6730214081446
 30
0.0
 11
360.8481525272828
 21
571.6730214081446
 31
0.0
1001
PHOENIX7010
1002
{
1070
    41
1040
1.0
1002
}
  0
LINE
  5
7FCA
102
{ACAD_REACTORS
330
394C
102
}
330
1F
100
AcDbEntity
  8
0
  6
ACAD_ISO02W100
 62
     5
 48
0.4845077398450952
100
AcDbLine
 10
356.0580541681288
 20
566.6904737746656
 30
0.0
 11
356.3201841745267
 21
551.6730214081446
 31
0.0
1001
PHOENIX7010
1002
{
1070
    41
1040
1.0
1002
}
  0
ARC
  5
7FCB
102
{ACAD_REACTORS
330
394C
102
}
330
1F
100
AcDbEntity
  8
0
  6
ACAD_ISO02W100
 62
     5
 48
0.0501078411031407
100
AcDbCircle
 10
355.0582064722757
 20
566.6730214081447
 30
0.0
 40
1.0
100
AcDbArc
 50
0.9999977126146367
 51
90.0
1001
PHOENIX7010
1002
{
1070
    41
1040
1.0
1002
}
  0
LINE
  5
7FCC
102
{ACAD_REACTORS
330
394C
102
}
330
1F
100
AcDbEntity
  8
0
  6
ACAD_ISO02W100
 62
     5
100
AcDbLine
 10
211.5821618767772
 20
567.6730214081446
 30
0.0
 11
355.0582064722757
 21
567.6730214081446
 31
0.0
1001
PHOENIX7010
1002
{
1070
    41
1040
1.0
1002
}
  0
LINE
  5
7FCF
102
{ACAD_REACTORS
330
394C
102
}
330
1F
100
AcDbEntity
  8
0
  6
Continuous
 62
     7
100
AcDbLine
 10
363.3201841745267
 20
551.6730214081446
 30
0.0
 11
203.3201841745263
 21
551.6730214081446
 31
0.0
1001
PHOENIX7010
1002
{
1070
    41
1040
1.0
1002
}
  0
ARC
  5
7FD4
102
{ACAD_REACTORS
330
394C
102
}
330
1F
100
AcDbEntity
  8
0
  6
ACAD_ISO02W100
 62
     5
 48
0.0501078411031408
100
AcDbCircle
 10
242.0821618767773
 20
566.6730214081447
 30
0.0
 40
1.0
100
AcDbArc
 50
90.0
 51
179.0000022873853
1001
PHOENIX7010
1002
{
1070
    41
1040
1.0
1002
}
  0
LINE
  5
7FD5
102
{ACAD_REACTORS
330
394C
102
}
330
1F
100
AcDbEntity
  8
0
  6
ACAD_ISO02W100
 62
     5
 48
0.4845077398450951
100
AcDbLine
 10
240.8201841745265
 20
551.6730214081446
 30
0.0
 11
241.0823141809242
 21
566.6904737746656
 31
0.0
1001
PHOENIX7010
1002
{
1070
    41
1040
1.0
1002
}
  0
ARC
  5
7FD6
102
{ACAD_REACTORS
330
394C
102
}
330
1F
100
AcDbEntity
  8
0
  6
Continuous
 62
     7
100
AcDbCircle
 10
205.7922158217702
 20
569.6730214081447
 30
0.0
 40
2.0
100
AcDbArc
 50
90.0
 51
178.5000016682649
1001
PHOENIX7010
1002
{
1070
    41
1040
1.0
1002
}
  0
LINE
  5
7FD7
102
{ACAD_REACTORS
330
394C
102
}
330
1F
100
AcDbEntity
  8
0
  6
Continuous
 62
     7
100
AcDbLine
 10
203.3201841745263
 20
551.6730214081446
 30
0.0
 11
203.7929011702949
 21
569.7253752465472
 31
0.0
1001
PHOENIX7010
1002
{
1070
    41
1040
1.0
1002
}
  0
ARC
  5
7FDB
102
{ACAD_REACTORS
330
394C
102
}
330
1F
100
AcDbEntity
  8
0
  6
ACAD_ISO02W100
 62
     5
 48
0.0501078411031408
100
AcDbCircle
 10
211.5821618767772
 20
566.6730214081447
 30
0.0
 40
1.0
100
AcDbArc
 50
90.0
 51
179.0000022873853
1001
PHOENIX7010
1002
{
1070
    41
1040
1.0
1002
}
  0
LINE
  5
7FDC
102
{ACAD_REACTORS
330
394C
102
}
330
1F
100
AcDbEntity
  8
0
  6
ACAD_ISO02W100
 62
     5
 48
0.4845077398450951
100
AcDbLine
 10
210.5823141809242
 20
566.6904737746656
 30
0.0
 11
210.3201841745263
 21
551.6730214081446
 31
0.0
1001
PHOENIX7010
1002
{
1070
    41
1040
1.0
1002
}
  0
LINE
  5
7FDD
102
{ACAD_REACTORS
330
394C
102
}
330
1F
100
AcDbEntity
  8
0
  6
ACAD_ISO02W100
 62
     5
100
AcDbLine
 10
208.7912051685462
 20
487.6436128148003
 30
0.0
 11
207.8495959476954
 21
551.6730214081446
 31
0.0
1001
PHOENIX7010
1002
{
1070
    41
1040
1.0
1002
}
  0
LINE
  5
7FDF
102
{ACAD_REACTORS
330
394C
102
}
330
1F
100
AcDbEntity
  8
0
  6
ACAD_ISO02W100
 62
     5
100
AcDbLine
 10
238.3188062581865
 20
551.6730214081446
 30
0.0
 11
238.3188062581865
 21
496.6716034150133
 31
0.0
1001
PHOENIX7010
1002
{
1070
    41
1040
1.0
1002
}
  0
LINE
  5
7FE1
102
{ACAD_REACTORS
330
394C
102
}
330
1F
100
AcDbEntity
  8
0
  6
ACAD_ISO02W100
 62
     5
100
AcDbLine
 10
328.2862858753854
 20
551.6730214081446
 30
0.0
 11
327.3535081745265
 21
496.6391274081446
 31
0.0
1001
PHOENIX7010
1002
{
1070
    41
1040
1.0
1002
}
  0
LINE
  5
7FE3
102
{ACAD_REACTORS
330
394C
102
}
330
1F
100
AcDbEntity
  8
0
  6
ACAD_ISO02W100
 62
     5
100
AcDbLine
 10
357.8491631805068
 20
487.6436128148003
 30
0.0
 11
358.7907724013576
 21
551.6730214081446
 31
0.0
1001
PHOENIX7010
1002
{
1070
    41
1040
1.0
1002
}
  0
LINE
  5
7FE8
102
{ACAD_REACTORS
330
394C
102
}
330
1F
100
AcDbEntity
  8
0
  6
ACAD_ISO02W100
 62
     5
100
AcDbLine
 10
211.5821618767772
 20
35.67302140814514
 30
0.0
 11
355.0582064722757
 21
35.67302140814514
 31
0.0
1001
PHOENIX7010
1002
{
1070
    41
1040
1.0
1002
}
  0
LINE
  5
7FE9
102
{ACAD_REACTORS
330
394C
102
}
330
1F
100
AcDbEntity
  8
0
  6
ACAD_ISO02W100
 62
     5
100
AcDbLine
 10
210.7909889405168
 20
117.6730214081452
 30
0.0
 11
355.8493794085361
 21
117.6730214081451
 31
0.0
1001
PHOENIX7010
1002
{
1070
    41
1040
1.0
1002
}
  0
LINE
  5
7FEA
102
{ACAD_REACTORS
330
394C
102
}
330
1F
100
AcDbEntity
  8
0
  6
ACAD_ISO02W100
 62
     5
100
AcDbLine
 10
228.3201841745265
 20
108.6730214081451
 30
0.0
 11
338.3201841745265
 21
108.6730214081451
 31
0.0
1001
PHOENIX7010
1002
{
1070
    41
1040
1.0
1002
}
  0
LINE
  5
7FEB
102
{ACAD_REACTORS
330
394C
330
9E36
102
}
330
1F
100
AcDbEntity
  8
0
  6
Continuous
 62
     7
100
AcDbLine
 10
363.3201841745267
 20
51.67302140814513
 30
0.0
 11
203.3201841745263
 21
51.67302140814513
 31
0.0
1001
PHOENIX7010
1002
{
1070
    41
1040
1.0
1002
}
  0
LINE
  5
7FEC
102
{ACAD_REACTORS
330
394C
330
9E35
330
A5D3
102
}
330
1F
100
AcDbEntity
  8
0
  6
Continuous
 62
     7
100
AcDbLine
 10
205.7922158217702
 20
31.67302140814513
 30
0.0
 11
360.8481525272828
 21
31.67302140814513
 31
0.0
1001
PHOENIX7010
1002
{
1070
    41
1040
1.0
1002
}
  0
LINE
  5
7FED
102
{ACAD_REACTORS
330
394C
102
}
330
1F
100
AcDbEntity
  8
0
  6
Continuous
 62
     7
100
AcDbLine
 10
363.3201841745267
 20
53.17302140814513
 30
0.0
 11
203.3201842164067
 21
53.17302140814513
 31
0.0
1001
PHOENIX7010
1002
{
1070
    41
1040
1.0
1002
}
  0
LINE
  5
7FEE
102
{ACAD_REACTORS
330
394C
330
A5D2
102
}
330
1F
100
AcDbEntity
  8
0
  6
Continuous
 62
     7
100
AcDbLine
 10
206.2439670978399
 20
121.6730214081451
 30
0.0
 11
360.3964013349732
 21
121.6730214081451
 31
0.0
1001
PHOENIX7010
1002
{
1070
    41
1040
1.0
1002
}
  0
LINE
  5
7FEF
102
{ACAD_REACTORS
330
394C
102
}
330
1F
100
AcDbEntity
  8
0
  6
ACAD_ISO02W100
 62
     5
 48
0.4845077398450951
100
AcDbLine
 10
210.5823141809242
 20
36.65556904162418
 30
0.0
 11
210.3201841745263
 21
51.67302140814513
 31
0.0
1001
PHOENIX7010
1002
{
1070
    41
1040
1.0
1002
}
  0
LINE
  5
7FF0
102
{ACAD_REACTORS
330
394C
102
}
330
1F
100
AcDbEntity
  8
0
  6
ACAD_ISO02W100
 62
     5
 48
0.4845077398450951
100
AcDbLine
 10
240.8201841745265
 20
51.67302140814513
 30
0.0
 11
241.0823141809242
 21
36.65556904162418
 31
0.0
1001
PHOENIX7010
1002
{
1070
    41
1040
1.0
1002
}
  0
LINE
  5
7FF1
102
{ACAD_REACTORS
330
394C
102
}
330
1F
100
AcDbEntity
  8
0
  6
ACAD_ISO04W100
 62
     1
100
AcDbLine
 10
283.3201841745265
 20
29.67302140814513
 30
0.0
 11
283.3201841745265
 21
123.6730214081451
 31
0.0
1001
PHOENIX7010
1002
{
1070
    41
1040
1.0
1002
}
  0
LINE
  5
7FF2
102
{ACAD_REACTORS
330
394C
102
}
330
1F
100
AcDbEntity
  8
0
  6
Continuous
 62
     7
100
AcDbLine
 10
203.3201841745263
 20
51.67302140814513
 30
0.0
 11
203.7929011702949
 21
33.62066756974253
 31
0.0
1001
PHOENIX7010
1002
{
1070
    41
1040
1.0
1002
}
  0
LINE
  5
7FF3
102
{ACAD_REACTORS
330
394C
102
}
330
1F
100
AcDbEntity
  8
0
  6
ACAD_ISO02W100
 62
     5
100
AcDbLine
 10
208.7912051685462
 20
115.7024300014894
 30
0.0
 11
207.8495959476954
 21
51.67302140814513
 31
0.0
1001
PHOENIX7010
1002
{
1070
    41
1040
1.0
1002
}
  0
LINE
  5
7FF4
102
{ACAD_REACTORS
330
394C
102
}
330
1F
100
AcDbEntity
  8
0
  6
Continuous
 62
     7
100
AcDbLine
 10
204.2441802164067
 20
119.7022154012765
 30
0.0
 11
203.3201842164067
 21
53.17443940127645
 31
0.0
1001
PHOENIX7010
1002
{
1070
    41
1040
1.0
1002
}
  0
ARC
  5
7FF5
102
{ACAD_REACTORS
330
394C
102
}
330
1F
100
AcDbEntity
  8
0
  6
ACAD_ISO02W100
 62
     5
 48
0.100393000012023
100
AcDbCircle
 10
210.7909889405168
 20
115.6730214081451
 30
0.0
 40
2.0
100
AcDbArc
 50
90.0
 51
179.157475496859
1001
PHOENIX7010
1002
{
1070
    41
1040
1.0
1002
}
  0
ARC
  5
7FF6
102
{ACAD_REACTORS
330
394C
102
}
330
1F
100
AcDbEntity
  8
0
  6
Continuous
 62
     7
100
AcDbCircle
 10
206.2439671327468
 20
119.6730214081452
 30
0.0
 40
2.0
100
AcDbArc
 50
90.00000100000791
 51
179.1636240000024
1001
PHOENIX7010
1002
{
1070
    41
1040
1.0
1002
}
  0
LINE
  5
7FF7
102
{ACAD_REACTORS
330
394C
102
}
330
1F
100
AcDbEntity
  8
0
  6
Continuous
 62
     7
100
AcDbLine
 10
204.3201841745263
 20
53.17302140814513
 30
0.0
 11
204.3201841745263
 21
51.67302140814513
 31
0.0
1001
PHOENIX7010
1002
{
1070
    41
1040
1.0
1002
}
  0
LINE
  5
7FF8
102
{ACAD_REACTORS
330
394C
102
}
330
1F
100
AcDbEntity
  8
0
  6
ACAD_ISO02W100
 62
     5
100
AcDbLine
 10
238.3188062581865
 20
51.67302140814513
 30
0.0
 11
238.3188062581865
 21
106.6744394012764
 31
0.0
1001
PHOENIX7010
1002
{
1070
    41
1040
1.0
1002
}
  0
ARC
  5
7FF9
102
{ACAD_REACTORS
330
394C
102
}
330
1F
100
AcDbEntity
  8
0
  6
ACAD_ISO02W100
 62
     5
 48
0.1013417198972485
100
AcDbCircle
 10
240.3188062581865
 20
106.6744394012764
 30
0.0
 40
2.0
100
AcDbArc
 50
89.99999100000691
 51
180.000010000001
1001
PHOENIX7010
1002
{
1070
    41
1040
1.0
1002
}
  0
ARC
  5
7FFA
102
{ACAD_REACTORS
330
394C
102
}
330
1F
100
AcDbEntity
  8
0
  6
Continuous
 62
     7
100
AcDbCircle
 10
205.7922158217702
 20
33.67302140814513
 30
0.0
 40
2.0
100
AcDbArc
 50
181.499998331735
 51
270.0
1001
PHOENIX7010
1002
{
1070
    41
1040
1.0
1002
}
  0
ARC
  5
7FFB
102
{ACAD_REACTORS
330
394C
102
}
330
1F
100
AcDbEntity
  8
0
  6
ACAD_ISO02W100
 62
     5
 48
0.0501078411031408
100
AcDbCircle
 10
211.5821618767772
 20
36.67302140814513
 30
0.0
 40
1.0
100
AcDbArc
 50
180.9999977126146
 51
270.0
1001
PHOENIX7010
1002
{
1070
    41
1040
1.0
1002
}
  0
ARC
  5
7FFC
102
{ACAD_REACTORS
330
394C
102
}
330
1F
100
AcDbEntity
  8
0
  6
ACAD_ISO02W100
 62
     5
 48
0.0501078411031408
100
AcDbCircle
 10
242.0821618767773
 20
36.67302140814513
 30
0.0
 40
1.0
100
AcDbArc
 50
180.9999977126146
 51
270.0
1001
PHOENIX7010
1002
{
1070
    41
1040
1.0
1002
}
  0
LINE
  5
7FFD
102
{ACAD_REACTORS
330
394C
102
}
330
1F
100
AcDbEntity
  8
0
  6
ACAD_ISO02W100
 62
     5
 48
0.4845077398450952
100
AcDbLine
 10
356.0580541681288
 20
36.65556904162418
 30
0.0
 11
356.3201841745267
 21
51.67302140814513
 31
0.0
1001
PHOENIX7010
1002
{
1070
    41
1040
1.0
1002
}
  0
LINE
  5
7FFE
102
{ACAD_REACTORS
330
394C
102
}
330
1F
100
AcDbEntity
  8
0
  6
ACAD_ISO02W100
 62
     5
 48
0.2903225806451613
100
AcDbLine
 10
312.3201841745267
 20
36.67302140814513
 30
0.0
 11
312.3201841745267
 21
45.67302140814513
 31
0.0
1001
PHOENIX7010
1002
{
1070
    41
1040
1.0
1002
}
  0
LINE
  5
7FFF
102
{ACAD_REACTORS
330
394C
102
}
330
1F
100
AcDbEntity
  8
0
  6
Continuous
 62
     7
100
AcDbLine
 10
362.847467178758
 20
33.62066756974264
 30
0.0
 11
363.3201841745267
 21
51.67302140814513
 31
0.0
1001
PHOENIX7010
1002
{
1070
    41
1040
1.0
1002
}
  0
LINE
  5
8000
102
{ACAD_REACTORS
330
394C
102
}
330
1F
100
AcDbEntity
  8
0
  6
ACAD_ISO02W100
 62
     5
100
AcDbLine
 10
357.8491631805068
 20
115.7024300014894
 30
0.0
 11
358.7907724013576
 21
51.67302140814513
 31
0.0
1001
PHOENIX7010
1002
{
1070
    41
1040
1.0
1002
}
  0
LINE
  5
8001
102
{ACAD_REACTORS
330
394C
102
}
330
1F
100
AcDbEntity
  8
0
  6
ACAD_ISO02W100
 62
     5
100
AcDbLine
 10
328.2862858753854
 20
51.67302140814513
 30
0.0
 11
327.3535081745265
 21
106.7069154081451
 31
0.0
1001
PHOENIX7010
1002
{
1070
    41
1040
1.0
1002
}
  0
LINE
  5
8002
102
{ACAD_REACTORS
330
394C
102
}
330
1F
100
AcDbEntity
  8
0
  6
Continuous
 62
     7
100
AcDbLine
 10
362.3489551750186
 20
119.7022153744414
 30
0.0
 11
363.3201841745267
 21
53.17302140814513
 31
0.0
1001
PHOENIX7010
1002
{
1070
    41
1040
1.0
1002
}
  0
ARC
  5
8003
102
{ACAD_REACTORS
330
394C
102
}
330
1F
100
AcDbEntity
  8
0
  6
ACAD_ISO02W100
 62
     5
 48
0.1002483251697976
100
AcDbCircle
 10
325.3537951745266
 20
106.6730214081451
 30
0.0
 40
2.0
100
AcDbArc
 50
0.9710379999934888
 51
90.00003000000303
1001
PHOENIX7010
1002
{
1070
    41
1040
1.0
1002
}
  0
ARC
  5
8004
102
{ACAD_REACTORS
330
394C
102
}
330
1F
100
AcDbEntity
  8
0
  6
ACAD_ISO02W100
 62
     5
 48
0.100393000012023
100
AcDbCircle
 10
355.8493794085361
 20
115.6730214081451
 30
0.0
 40
2.0
100
AcDbArc
 50
0.8425245031410158
 51
90.0
1001
PHOENIX7010
1002
{
1070
    41
1040
1.0
1002
}
  0
ARC
  5
8005
102
{ACAD_REACTORS
330
394C
102
}
330
1F
100
AcDbEntity
  8
0
  6
Continuous
 62
     7
100
AcDbCircle
 10
360.3491682582867
 20
119.6730214081451
 30
0.0
 40
2.0
100
AcDbArc
 50
0.836375231146745
 51
90.0
1001
PHOENIX7010
1002
{
1070
    41
1040
1.0
1002
}
  0
LINE
  5
8006
102
{ACAD_REACTORS
330
394C
102
}
330
1F
100
AcDbEntity
  8
0
  6
ACAD_ISO02W100
 62
     5
 48
0.8064516129032258
100
AcDbLine
 10
313.3201841745267
 20
46.67302140814513
 30
0.0
 11
338.3201841745267
 21
46.67302140814513
 31
0.0
1001
PHOENIX7010
1002
{
1070
    41
1040
1.0
1002
}
  0
ARC
  5
8007
102
{ACAD_REACTORS
330
394C
102
}
330
1F
100
AcDbEntity
  8
0
  6
ACAD_ISO02W100
 62
     5
 48
0.0506708492514483
100
AcDbCircle
 10
313.3201841745267
 20
45.67302140814513
 30
0.0
 40
1.0
100
AcDbArc
 50
90.0
 51
180.0
1001
PHOENIX7010
1002
{
1070
    41
1040
1.0
1002
}
  0
LINE
  5
8008
102
{ACAD_REACTORS
330
394C
102
}
330
1F
100
AcDbEntity
  8
0
  6
ACAD_ISO02W100
 62
     5
 48
0.1612903225806451
100
AcDbLine
 10
325.8201841745267
 20
51.67302140814513
 30
0.0
 11
325.8201841745267
 21
46.67302140814513
 31
0.0
1001
PHOENIX7010
1002
{
1070
    41
1040
1.0
1002
}
  0
LINE
  5
8009
102
{ACAD_REACTORS
330
394C
102
}
330
1F
100
AcDbEntity
  8
0
  6
Continuous
 62
     7
100
AcDbLine
 10
362.3201841745267
 20
53.17302140814513
 30
0.0
 11
362.3201841745267
 21
51.67302140814513
 31
0.0
1001
PHOENIX7010
1002
{
1070
    41
1040
1.0
1002
}
  0
ARC
  5
800A
102
{ACAD_REACTORS
330
394C
102
}
330
1F
100
AcDbEntity
  8
0
  6
ACAD_ISO02W100
 62
     5
 48
0.0506708492514483
100
AcDbCircle
 10
311.3201841745267
 20
36.67302140814513
 30
0.0
 40
1.0
100
AcDbArc
 50
270.0
 51
0.0
1001
PHOENIX7010
1002
{
1070
    41
1040
1.0
1002
}
  0
ARC
  5
800B
102
{ACAD_REACTORS
330
394C
102
}
330
1F
100
AcDbEntity
  8
0
  6
ACAD_ISO02W100
 62
     5
 48
0.0501078411031407
100
AcDbCircle
 10
355.0582064722757
 20
36.67302140814513
 30
0.0
 40
1.0
100
AcDbArc
 50
270.0
 51
359.0000022873854
1001
PHOENIX7010
1002
{
1070
    41
1040
1.0
1002
}
  0
ARC
  5
800C
102
{ACAD_REACTORS
330
394C
102
}
330
1F
100
AcDbEntity
  8
0
  6
Continuous
 62
     7
100
AcDbCircle
 10
360.8481525272828
 20
33.67302140814513
 30
0.0
 40
2.0
100
AcDbArc
 50
270.0
 51
358.5000016682649
1001
PHOENIX7010
1002
{
1070
    41
1040
1.0
1002
}
  0
LINE
  5
800E
102
{ACAD_REACTORS
330
394C
102
}
330
1F
100
AcDbEntity
  8
0
  6
ACAD_ISO02W100
 62
     5
 48
0.4845077398450951
100
AcDbLine
 10
325.8201841745265
 20
551.6730214081446
 30
0.0
 11
325.5580541681288
 21
566.6904737746656
 31
0.0
1001
PHOENIX7010
1002
{
1070
    41
1040
1.0
1002
}
  0
ARC
  5
800F
102
{ACAD_REACTORS
330
394C
102
}
330
1F
100
AcDbEntity
  8
0
  6
ACAD_ISO02W100
 62
     5
 48
0.0501078411031408
100
AcDbCircle
 10
324.5582064722758
 20
566.6730214081447
 30
0.0
 40
1.0
100
AcDbArc
 50
0.9999977126146367
 51
90.0
1001
PHOENIX7010
1002
{
1070
    41
1040
1.0
1002
}
  0
LINE
  5
8010
102
{ACAD_REACTORS
330
394C
102
}
330
1F
100
AcDbEntity
  8
0
  6
Continuous
 62
     7
100
AcDbLine
 10
423.3201842164062
 20
174.5968042895782
 30
0.0
 11
423.3201842164062
 21
428.7492384918047
 31
0.0
1001
PHOENIX7010
1002
{
1070
    41
1040
1.0
1002
}
  0
ARC
  5
8011
102
{ACAD_REACTORS
330
394C
102
}
330
1F
100
AcDbEntity
  8
0
  6
Continuous
 62
     7
100
AcDbCircle
 10
425.3201842164062
 20
174.5968043244851
 30
0.0
 40
2.0
100
AcDbArc
 50
180.0000010000079
 51
269.1636240000025
1001
PHOENIX7010
1002
{
1070
    41
1040
1.0
1002
}
  0
LINE
  5
8012
102
{ACAD_REACTORS
330
394C
102
}
330
1F
100
AcDbEntity
  8
0
  6
Continuous
 62
     7
100
AcDbLine
 10
425.2909902232747
 20
172.597017408145
 30
0.0
 11
491.8187662232749
 21
171.6730214081449
 31
0.0
1001
PHOENIX7010
1002
{
1070
    41
1040
1.0
1002
}
  0
LINE
  5
8013
102
{ACAD_REACTORS
330
394C
102
}
330
1F
100
AcDbEntity
  8
0
  6
Continuous
 62
     7
100
AcDbLine
 10
493.3201842164062
 20
171.6730213662646
 30
0.0
 11
511.3725380548087
 21
172.1457383620331
 31
0.0
1001
PHOENIX7010
1002
{
1070
    41
1040
1.0
1002
}
  0
ARC
  5
8014
102
{ACAD_REACTORS
330
394C
102
}
330
1F
100
AcDbEntity
  8
0
  6
Continuous
 62
     7
100
AcDbCircle
 10
511.3201842164062
 20
174.1450530135086
 30
0.0
 40
2.0
100
AcDbArc
 50
271.4999983317351
 51
0.0
1001
PHOENIX7010
1002
{
1070
    41
1040
1.0
1002
}
  0
LINE
  5
8015
102
{ACAD_REACTORS
330
394C
102
}
330
1F
100
AcDbEntity
  8
0
  6
Continuous
 62
     7
100
AcDbLine
 10
513.3201842164062
 20
174.1450530135086
 30
0.0
 11
513.3201842164062
 21
429.2009898027812
 31
0.0
1001
PHOENIX7010
1002
{
1070
    41
1040
1.0
1002
}
  0
LINE
  5
8016
102
{ACAD_REACTORS
330
394C
102
}
330
1F
100
AcDbEntity
  8
0
  6
ACAD_ISO02W100
 62
     5
100
AcDbLine
 10
509.3201842164062
 20
179.9349990685156
 30
0.0
 11
509.3201842164062
 21
423.4110437477741
 31
0.0
1001
PHOENIX7010
1002
{
1070
    41
1040
1.0
1002
}
  0
ARC
  5
8017
102
{ACAD_REACTORS
330
394C
102
}
330
1F
100
AcDbEntity
  8
0
  6
ACAD_ISO02W100
 62
     5
 48
0.0501078411031408
100
AcDbCircle
 10
508.3201842164062
 20
179.9349990685156
 30
0.0
 40
1.0
100
AcDbArc
 50
270.9999977126145
 51
0.0
1001
PHOENIX7010
1002
{
1070
    41
1040
1.0
1002
}
  0
LINE
  5
8018
102
{ACAD_REACTORS
330
394C
102
}
330
1F
100
AcDbEntity
  8
0
  6
ACAD_ISO02W100
 62
     5
 48
0.4845077398450951
100
AcDbLine
 10
508.3376365829272
 20
178.9351513726626
 30
0.0
 11
493.3201842164062
 21
178.6730213662646
 31
0.0
1001
PHOENIX7010
1002
{
1070
    41
1040
1.0
1002
}
  0
LINE
  5
8019
102
{ACAD_REACTORS
330
394C
102
}
330
1F
100
AcDbEntity
  8
0
  6
Continuous
 62
     7
100
AcDbLine
 10
491.8201842164062
 20
172.6730213662646
 30
0.0
 11
493.3201842164062
 21
172.6730213662646
 31
0.0
1001
PHOENIX7010
1002
{
1070
    41
1040
1.0
1002
}
  0
LINE
  5
801A
102
{ACAD_REACTORS
330
394C
102
}
330
1F
100
AcDbEntity
  8
0
  6
ACAD_ISO02W100
 62
     5
100
AcDbLine
 10
429.2907756230618
 20
177.1440423602846
 30
0.0
 11
493.3201842164062
 21
176.2024331394338
 31
0.0
1001
PHOENIX7010
1002
{
1070
    41
1040
1.0
1002
}
  0
ARC
  5
801B
102
{ACAD_REACTORS
330
394C
102
}
330
1F
100
AcDbEntity
  8
0
  6
ACAD_ISO02W100
 62
     5
 48
0.100393000012023
100
AcDbCircle
 10
429.3201842164062
 20
179.1438261322553
 30
0.0
 40
2.0
100
AcDbArc
 50
180.0
 51
269.1574754968588
1001
PHOENIX7010
1002
{
1070
    41
1040
1.0
1002
}
  0
LINE
  5
801C
102
{ACAD_REACTORS
330
394C
102
}
330
1F
100
AcDbEntity
  8
0
  6
ACAD_ISO02W100
 62
     5
100
AcDbLine
 10
427.320184216406
 20
179.1438261322553
 30
0.0
 11
427.3201842164062
 21
424.2022166840345
 31
0.0
1001
PHOENIX7010
1002
{
1070
    41
1040
1.0
1002
}
  0
LINE
  5
801F
102
{ACAD_REACTORS
330
394C
102
}
330
1F
100
AcDbEntity
  8
0
  6
Continuous
 62
     7
100
AcDbLine
 10
425.2909902232747
 20
430.7490254081447
 30
0.0
 11
491.8187662232749
 21
431.6730214081448
 31
0.0
1001
PHOENIX7010
1002
{
1070
    41
1040
1.0
1002
}
  0
LINE
  5
8020
102
{ACAD_REACTORS
330
394C
102
}
330
1F
100
AcDbEntity
  8
0
  6
ACAD_ISO02W100
 62
     5
100
AcDbLine
 10
429.2907756230618
 20
426.2020004560051
 30
0.0
 11
493.3201842164062
 21
427.143609676856
 31
0.0
1001
PHOENIX7010
1002
{
1070
    41
1040
1.0
1002
}
  0
ARC
  5
8021
102
{ACAD_REACTORS
330
394C
102
}
330
1F
100
AcDbEntity
  8
0
  6
ACAD_ISO02W100
 62
     5
 48
0.100393000012023
100
AcDbCircle
 10
429.3201842164062
 20
424.2022166840345
 30
0.0
 40
2.0
100
AcDbArc
 50
90.842524503141
 51
180.0
1001
PHOENIX7010
1002
{
1070
    41
1040
1.0
1002
}
  0
ARC
  5
8022
102
{ACAD_REACTORS
330
394C
102
}
330
1F
100
AcDbEntity
  8
0
  6
Continuous
 62
     7
100
AcDbCircle
 10
425.3201842164062
 20
428.7492384918047
 30
0.0
 40
2.0
100
AcDbArc
 50
90.83637599999752
 51
179.9999989999921
1001
PHOENIX7010
1002
{
1070
    41
1040
1.0
1002
}
  0
LINE
  5
8023
102
{ACAD_REACTORS
330
394C
102
}
330
1F
100
AcDbEntity
  8
0
  6
Continuous
 62
     7
100
AcDbLine
 10
493.3201842164062
 20
431.6730214500251
 30
0.0
 11
511.3725380548087
 21
431.2003044542566
 31
0.0
1001
PHOENIX7010
1002
{
1070
    41
1040
1.0
1002
}
  0
LINE
  5
8024
102
{ACAD_REACTORS
330
394C
102
}
330
1F
100
AcDbEntity
  8
0
  6
ACAD_ISO02W100
 62
     5
 48
0.4845077398450951
100
AcDbLine
 10
508.3376365829272
 20
424.4108914436272
 30
0.0
 11
493.3201842164062
 21
424.6730214500251
 31
0.0
1001
PHOENIX7010
1002
{
1070
    41
1040
1.0
1002
}
  0
LINE
  5
8025
102
{ACAD_REACTORS
330
394C
102
}
330
1F
100
AcDbEntity
  8
0
  6
Continuous
 62
     7
100
AcDbLine
 10
491.8201842164062
 20
430.6730214500251
 30
0.0
 11
493.3201842164062
 21
430.6730214500251
 31
0.0
1001
PHOENIX7010
1002
{
1070
    41
1040
1.0
1002
}
  0
ARC
  5
8026
102
{ACAD_REACTORS
330
394C
102
}
330
1F
100
AcDbEntity
  8
0
  6
Continuous
 62
     7
100
AcDbCircle
 10
511.3201842164062
 20
429.2009898027812
 30
0.0
 40
2.0
100
AcDbArc
 50
0.0
 51
88.50000166826497
1001
PHOENIX7010
1002
{
1070
    41
1040
1.0
1002
}
  0
ARC
  5
8027
102
{ACAD_REACTORS
330
394C
102
}
330
1F
100
AcDbEntity
  8
0
  6
ACAD_ISO02W100
 62
     5
 48
0.0501078411031408
100
AcDbCircle
 10
508.3201842164062
 20
423.4110437477741
 30
0.0
 40
1.0
100
AcDbArc
 50
0.0
 51
89.00000228738525
1001
PHOENIX7010
1002
{
1070
    41
1040
1.0
1002
}
  0
LINE
  5
8028
330
1F
100
AcDbEntity
  8
0
  6
Continuous
 62
     7
370
    50
100
AcDbLine
 10
491.8187662232749
 20
431.6730214081448
 30
0.0
 11
491.8187662232749
 21
171.6730214081449
 31
0.0
1001
PHOENIX7010
1002
{
1070
    41
1040
1.0
1002
}
  0
LINE
  5
8029
330
1F
100
AcDbEntity
  8
0
  6
Continuous
 62
     7
370
    50
100
AcDbLine
 10
493.3201842164062
 20
171.6730213662646
 30
0.0
 11
493.3201842164062
 21
431.6730214500251
 31
0.0
1001
PHOENIX7010
1002
{
1070
    41
1040
1.0
1002
}
  0
LINE
  5
802B
102
{ACAD_REACTORS
330
394C
102
}
330
1F
100
AcDbEntity
  8
0
  6
ACAD_ISO02W100
 62
     5
100
AcDbLine
 10
429.2907756230618
 20
192.6146306289955
 30
0.0
 11
493.3201842164062
 21
191.6730214081447
 31
0.0
1001
PHOENIX7010
1002
{
1070
    41
1040
1.0
1002
}
  0
ARC
  5
802C
102
{ACAD_REACTORS
330
394C
102
}
330
1F
100
AcDbEntity
  8
0
  6
ACAD_ISO02W100
 62
     5
 48
0.100393000012023
100
AcDbCircle
 10
429.3201842164062
 20
194.6144144009662
 30
0.0
 40
2.0
100
AcDbArc
 50
180.0
 51
269.1574754968588
1001
PHOENIX7010
1002
{
1070
    41
1040
1.0
1002
}
  0
LINE
  5
802D
102
{ACAD_REACTORS
330
394C
102
}
330
1F
100
AcDbEntity
  8
0
  6
ACAD_ISO02W100
 62
     5
100
AcDbLine
 10
429.2907756230618
 20
410.7314121872942
 30
0.0
 11
493.3201842164062
 21
411.6730214081451
 31
0.0
1001
PHOENIX7010
1002
{
1070
    41
1040
1.0
1002
}
  0
ARC
  5
802E
102
{ACAD_REACTORS
330
394C
102
}
330
1F
100
AcDbEntity
  8
0
  6
ACAD_ISO02W100
 62
     5
 48
0.100393000012023
100
AcDbCircle
 10
429.3201842164062
 20
408.7316284153236
 30
0.0
 40
2.0
100
AcDbArc
 50
90.842524503141
 51
180.0
1001
PHOENIX7010
1002
{
1070
    41
1040
1.0
1002
}
  0
LINE
  5
802F
102
{ACAD_REACTORS
330
394C
102
}
330
1F
100
AcDbEntity
  8
0
  6
ACAD_ISO02W100
 62
     5
 48
0.4990512344745465
100
AcDbLine
 10
436.3201842164062
 20
177.0406686747542
 30
0.0
 11
436.3201842164062
 21
192.5112569434652
 31
0.0
1001
PHOENIX7010
1002
{
1070
    41
1040
1.0
1002
}
  0
LINE
  5
8030
102
{ACAD_REACTORS
330
394C
102
}
330
1F
100
AcDbEntity
  8
0
  6
ACAD_ISO02W100
 62
     5
 48
0.4990512344745456
100
AcDbLine
 10
436.3201842164062
 20
410.8347858728246
 30
0.0
 11
436.3201842164062
 21
426.3053741415355
 31
0.0
1001
PHOENIX7010
1002
{
1070
    41
1040
1.0
1002
}
  0
LINE
  5
8032
330
1F
100
AcDbEntity
  8
0
  6
ACAD_ISO04W100
 62
     1
370
    25
100
AcDbLine
 10
421.3201842164062
 20
301.6730213903036
 30
0.0
 11
515.3201842164062
 21
301.6730214085328
 31
0.0
1001
PHOENIX7010
1002
{
1070
    41
1040
1.0
1002
}
  0
LINE
  5
8034
102
{ACAD_REACTORS
330
394C
102
}
330
1F
100
AcDbEntity
  8
0
  6
ACAD_ISO02W100
 62
     5
 48
0.4845077398450951
100
AcDbLine
 10
508.3376365829272
 20
194.4351514145428
 30
0.0
 11
493.3201842164062
 21
194.1730214081449
 31
0.0
1001
PHOENIX7010
1002
{
1070
    41
1040
1.0
1002
}
  0
ARC
  5
8035
102
{ACAD_REACTORS
330
394C
102
}
330
1F
100
AcDbEntity
  8
0
  6
ACAD_ISO02W100
 62
     5
 48
0.0501078411031408
100
AcDbCircle
 10
508.3201842164062
 20
195.4349991103959
 30
0.0
 40
1.0
100
AcDbArc
 50
270.9999977126145
 51
0.0
1001
PHOENIX7010
1002
{
1070
    41
1040
1.0
1002
}
  0
ARC
  5
8036
102
{ACAD_REACTORS
330
394C
102
}
330
1F
100
AcDbEntity
  8
0
  6
ACAD_ISO02W100
 62
     5
 48
0.0501078411031408
100
AcDbCircle
 10
508.3201841752011
 20
407.9110437039546
 30
0.0
 40
1.0
100
AcDbArc
 50
0.0000000222250037
 51
89.00000230960733
1001
PHOENIX7010
1002
{
1070
    41
1040
1.0
1002
}
  0
LINE
  5
8037
102
{ACAD_REACTORS
330
394C
102
}
330
1F
100
AcDbEntity
  8
0
  6
ACAD_ISO02W100
 62
     5
 48
0.4845077398450951
100
AcDbLine
 10
508.3376365413341
 20
408.9108913998145
 30
0.0
 11
493.3201841747115
 21
409.1730214003878
 31
0.0
1001
PHOENIX7010
1002
{
1070
    41
1040
1.0
1002
}
  0
LINE
  5
8039
330
1F
100
AcDbEntity
  8
0
  6
ACAD_ISO04W100
 62
     1
370
    25
100
AcDbLine
 10
145.3201842164071
 20
301.6730213903036
 30
0.0
 11
51.32018421640714
 21
301.6730214085328
 31
0.0
1001
PHOENIX7010
1002
{
1070
    41
1040
1.0
1002
}
  0
LINE
  5
803A
102
{ACAD_REACTORS
330
394C
102
}
330
1F
100
AcDbEntity
  8
0
  6
ACAD_ISO02W100
 62
     5
100
AcDbLine
 10
137.3495928097516
 20
410.7314121872942
 30
0.0
 11
73.32018421640714
 21
411.6730214081451
 31
0.0
1001
PHOENIX7010
1002
{
1070
    41
1040
1.0
1002
}
  0
LINE
  5
803B
102
{ACAD_REACTORS
330
394C
102
}
330
1F
100
AcDbEntity
  8
0
  6
ACAD_ISO02W100
 62
     5
100
AcDbLine
 10
137.3495928097516
 20
192.6146306289955
 30
0.0
 11
73.32018421640714
 21
191.6730214081447
 31
0.0
1001
PHOENIX7010
1002
{
1070
    41
1040
1.0
1002
}
  0
LINE
  5
803C
102
{ACAD_REACTORS
330
394C
102
}
330
1F
100
AcDbEntity
  8
0
  6
ACAD_ISO02W100
 62
     5
100
AcDbLine
 10
137.3495928097516
 20
426.2020004560051
 30
0.0
 11
73.32018421640714
 21
427.143609676856
 31
0.0
1001
PHOENIX7010
1002
{
1070
    41
1040
1.0
1002
}
  0
LINE
  5
803D
102
{ACAD_REACTORS
330
394C
102
}
330
1F
100
AcDbEntity
  8
0
  6
Continuous
 62
     7
100
AcDbLine
 10
141.3493782095386
 20
430.7490254081447
 30
0.0
 11
74.82160220953847
 21
431.6730214081448
 31
0.0
1001
PHOENIX7010
1002
{
1070
    41
1040
1.0
1002
}
  0
LINE
  5
803E
102
{ACAD_REACTORS
330
394C
102
}
330
1F
100
AcDbEntity
  8
0
  6
Continuous
 62
     7
100
AcDbLine
 10
141.3493782095386
 20
172.597017408145
 30
0.0
 11
74.82160220953847
 21
171.6730214081449
 31
0.0
1001
PHOENIX7010
1002
{
1070
    41
1040
1.0
1002
}
  0
LINE
  5
803F
102
{ACAD_REACTORS
330
394C
102
}
330
1F
100
AcDbEntity
  8
0
  6
ACAD_ISO02W100
 62
     5
100
AcDbLine
 10
137.3495928097516
 20
177.1440423602846
 30
0.0
 11
73.32018421640714
 21
176.2024331394338
 31
0.0
1001
PHOENIX7010
1002
{
1070
    41
1040
1.0
1002
}
  0
LINE
  5
8040
102
{ACAD_REACTORS
330
394C
102
}
330
1F
100
AcDbEntity
  8
0
  6
ACAD_ISO02W100
 62
     5
100
AcDbLine
 10
139.3201842164073
 20
179.1438261322553
 30
0.0
 11
139.3201842164071
 21
424.2022166840345
 31
0.0
1001
PHOENIX7010
1002
{
1070
    41
1040
1.0
1002
}
  0
LINE
  5
8041
102
{ACAD_REACTORS
330
394C
102
}
330
1F
100
AcDbEntity
  8
0
  6
Continuous
 62
     7
100
AcDbLine
 10
143.3201842164071
 20
174.5968042895782
 30
0.0
 11
143.3201842164071
 21
428.7492384918047
 31
0.0
1001
PHOENIX7010
1002
{
1070
    41
1040
1.0
1002
}
  0
ARC
  5
8042
102
{ACAD_REACTORS
330
394C
102
}
330
1F
100
AcDbEntity
  8
0
  6
ACAD_ISO02W100
 62
     5
 48
0.100393000012023
100
AcDbCircle
 10
137.3201842164071
 20
179.1438261322553
 30
0.0
 40
2.0
100
AcDbArc
 50
270.842524503141
 51
0.0
1001
PHOENIX7010
1002
{
1070
    41
1040
1.0
1002
}
  0
ARC
  5
8043
102
{ACAD_REACTORS
330
394C
102
}
330
1F
100
AcDbEntity
  8
0
  6
Continuous
 62
     7
100
AcDbCircle
 10
141.3201842164072
 20
174.5968043244851
 30
0.0
 40
2.0
100
AcDbArc
 50
270.8363759999975
 51
359.9999989999921
1001
PHOENIX7010
1002
{
1070
    41
1040
1.0
1002
}
  0
ARC
  5
8044
102
{ACAD_REACTORS
330
394C
102
}
330
1F
100
AcDbEntity
  8
0
  6
ACAD_ISO02W100
 62
     5
 48
0.100393000012023
100
AcDbCircle
 10
137.3201842164071
 20
194.6144144009662
 30
0.0
 40
2.0
100
AcDbArc
 50
270.842524503141
 51
0.0
1001
PHOENIX7010
1002
{
1070
    41
1040
1.0
1002
}
  0
ARC
  5
8045
102
{ACAD_REACTORS
330
394C
102
}
330
1F
100
AcDbEntity
  8
0
  6
ACAD_ISO02W100
 62
     5
 48
0.100393000012023
100
AcDbCircle
 10
137.3201842164071
 20
408.7316284153236
 30
0.0
 40
2.0
100
AcDbArc
 50
0.0
 51
89.15747549685899
1001
PHOENIX7010
1002
{
1070
    41
1040
1.0
1002
}
  0
ARC
  5
8046
102
{ACAD_REACTORS
330
394C
102
}
330
1F
100
AcDbEntity
  8
0
  6
Continuous
 62
     7
100
AcDbCircle
 10
141.3201842164072
 20
428.7492384918047
 30
0.0
 40
2.0
100
AcDbArc
 50
0.0000010000079172
 51
89.16362400000247
1001
PHOENIX7010
1002
{
1070
    41
1040
1.0
1002
}
  0
ARC
  5
8047
102
{ACAD_REACTORS
330
394C
102
}
330
1F
100
AcDbEntity
  8
0
  6
ACAD_ISO02W100
 62
     5
 48
0.100393000012023
100
AcDbCircle
 10
137.3201842164071
 20
424.2022166840345
 30
0.0
 40
2.0
100
AcDbArc
 50
0.0
 51
89.15747549685899
1001
PHOENIX7010
1002
{
1070
    41
1040
1.0
1002
}
  0
LINE
  5
8048
330
1F
100
AcDbEntity
  8
0
  6
Continuous
 62
     7
370
    50
100
AcDbLine
 10
73.32018421640714
 20
171.6730213662646
 30
0.0
 11
73.32018421640714
 21
431.6730214500251
 31
0.0
1001
PHOENIX7010
1002
{
1070
    41
1040
1.0
1002
}
  0
LINE
  5
8049
330
1F
100
AcDbEntity
  8
0
  6
Continuous
 62
     7
370
    50
100
AcDbLine
 10
74.82160220953847
 20
431.6730214081448
 30
0.0
 11
74.82160220953847
 21
171.6730214081449
 31
0.0
1001
PHOENIX7010
1002
{
1070
    41
1040
1.0
1002
}
  0
LINE
  5
804A
102
{ACAD_REACTORS
330
394C
102
}
330
1F
100
AcDbEntity
  8
0
  6
Continuous
 62
     7
100
AcDbLine
 10
53.32018421640714
 20
174.1450530135086
 30
0.0
 11
53.32018421640714
 21
429.2009898027812
 31
0.0
1001
PHOENIX7010
1002
{
1070
    41
1040
1.0
1002
}
  0
LINE
  5
804B
102
{ACAD_REACTORS
330
394C
102
}
330
1F
100
AcDbEntity
  8
0
  6
ACAD_ISO02W100
 62
     5
100
AcDbLine
 10
57.32018421640714
 20
179.9349990685156
 30
0.0
 11
57.32018421640714
 21
423.4110437477741
 31
0.0
1001
PHOENIX7010
1002
{
1070
    41
1040
1.0
1002
}
  0
LINE
  5
804C
102
{ACAD_REACTORS
330
394C
102
}
330
1F
100
AcDbEntity
  8
0
  6
ACAD_ISO02W100
 62
     5
 48
0.4845077398450951
100
AcDbLine
 10
58.30273184988619
 20
194.4351514145428
 30
0.0
 11
73.32018421640714
 21
194.1730214081449
 31
0.0
1001
PHOENIX7010
1002
{
1070
    41
1040
1.0
1002
}
  0
LINE
  5
804D
102
{ACAD_REACTORS
330
394C
102
}
330
1F
100
AcDbEntity
  8
0
  6
Continuous
 62
     7
100
AcDbLine
 10
73.32018421640714
 20
171.6730213662646
 30
0.0
 11
55.26783037800464
 21
172.1457383620331
 31
0.0
1001
PHOENIX7010
1002
{
1070
    41
1040
1.0
1002
}
  0
LINE
  5
804E
102
{ACAD_REACTORS
330
394C
102
}
330
1F
100
AcDbEntity
  8
0
  6
ACAD_ISO02W100
 62
     5
 48
0.4845077398450951
100
AcDbLine
 10
58.30273184988619
 20
178.9351513726626
 30
0.0
 11
73.32018421640714
 21
178.6730213662646
 31
0.0
1001
PHOENIX7010
1002
{
1070
    41
1040
1.0
1002
}
  0
LINE
  5
804F
102
{ACAD_REACTORS
330
394C
102
}
330
1F
100
AcDbEntity
  8
0
  6
ACAD_ISO02W100
 62
     5
 48
0.4990512344745465
100
AcDbLine
 10
130.3201842164071
 20
177.0406686747542
 30
0.0
 11
130.3201842164071
 21
192.5112569434652
 31
0.0
1001
PHOENIX7010
1002
{
1070
    41
1040
1.0
1002
}
  0
LINE
  5
8050
102
{ACAD_REACTORS
330
394C
102
}
330
1F
100
AcDbEntity
  8
0
  6
Continuous
 62
     7
100
AcDbLine
 10
74.82018421640714
 20
172.6730213662646
 30
0.0
 11
73.32018421640714
 21
172.6730213662646
 31
0.0
1001
PHOENIX7010
1002
{
1070
    41
1040
1.0
1002
}
  0
ARC
  5
8051
102
{ACAD_REACTORS
330
394C
102
}
330
1F
100
AcDbEntity
  8
0
  6
Continuous
 62
     7
100
AcDbCircle
 10
55.32018421640714
 20
174.1450530135086
 30
0.0
 40
2.0
100
AcDbArc
 50
180.0
 51
268.5000016682649
1001
PHOENIX7010
1002
{
1070
    41
1040
1.0
1002
}
  0
ARC
  5
8052
102
{ACAD_REACTORS
330
394C
102
}
330
1F
100
AcDbEntity
  8
0
  6
ACAD_ISO02W100
 62
     5
 48
0.0501078411031408
100
AcDbCircle
 10
58.32018421640714
 20
179.9349990685156
 30
0.0
 40
1.0
100
AcDbArc
 50
180.0
 51
269.0000022873855
1001
PHOENIX7010
1002
{
1070
    41
1040
1.0
1002
}
  0
ARC
  5
8053
102
{ACAD_REACTORS
330
394C
102
}
330
1F
100
AcDbEntity
  8
0
  6
ACAD_ISO02W100
 62
     5
 48
0.0501078411031408
100
AcDbCircle
 10
58.32018421640714
 20
195.4349991103959
 30
0.0
 40
1.0
100
AcDbArc
 50
180.0
 51
269.0000022873855
1001
PHOENIX7010
1002
{
1070
    41
1040
1.0
1002
}
  0
LINE
  5
8054
102
{ACAD_REACTORS
330
394C
102
}
330
1F
100
AcDbEntity
  8
0
  6
ACAD_ISO02W100
 62
     5
 48
0.4845077398450951
100
AcDbLine
 10
58.3027318914792
 20
408.9108913998145
 30
0.0
 11
73.32018425810179
 21
409.1730214003878
 31
0.0
1001
PHOENIX7010
1002
{
1070
    41
1040
1.0
1002
}
  0
LINE
  5
8055
102
{ACAD_REACTORS
330
394C
102
}
330
1F
100
AcDbEntity
  8
0
  6
ACAD_ISO02W100
 62
     5
 48
0.4845077398450951
100
AcDbLine
 10
58.30273184988619
 20
424.4108914436272
 30
0.0
 11
73.32018421640714
 21
424.6730214500251
 31
0.0
1001
PHOENIX7010
1002
{
1070
    41
1040
1.0
1002
}
  0
LINE
  5
8056
102
{ACAD_REACTORS
330
394C
102
}
330
1F
100
AcDbEntity
  8
0
  6
Continuous
 62
     7
100
AcDbLine
 10
73.32018421640714
 20
431.6730214500251
 30
0.0
 11
55.26783037800464
 21
431.2003044542566
 31
0.0
1001
PHOENIX7010
1002
{
1070
    41
1040
1.0
1002
}
  0
LINE
  5
8057
102
{ACAD_REACTORS
330
394C
102
}
330
1F
100
AcDbEntity
  8
0
  6
ACAD_ISO02W100
 62
     5
 48
0.4990512344745456
100
AcDbLine
 10
130.3201842164071
 20
410.8347858728246
 30
0.0
 11
130.3201842164071
 21
426.3053741415355
 31
0.0
1001
PHOENIX7010
1002
{
1070
    41
1040
1.0
1002
}
  0
LINE
  5
8058
102
{ACAD_REACTORS
330
394C
102
}
330
1F
100
AcDbEntity
  8
0
  6
Continuous
 62
     7
100
AcDbLine
 10
74.82018421640714
 20
430.6730214500251
 30
0.0
 11
73.32018421640714
 21
430.6730214500251
 31
0.0
1001
PHOENIX7010
1002
{
1070
    41
1040
1.0
1002
}
  0
ARC
  5
8059
102
{ACAD_REACTORS
330
394C
102
}
330
1F
100
AcDbEntity
  8
0
  6
ACAD_ISO02W100
 62
     5
 48
0.0501078411031408
100
AcDbCircle
 10
58.32018425761225
 20
407.9110437039546
 30
0.0
 40
1.0
100
AcDbArc
 50
90.99999769039268
 51
179.999999977775
1001
PHOENIX7010
1002
{
1070
    41
1040
1.0
1002
}
  0
ARC
  5
805A
102
{ACAD_REACTORS
330
394C
102
}
330
1F
100
AcDbEntity
  8
0
  6
ACAD_ISO02W100
 62
     5
 48
0.0501078411031408
100
AcDbCircle
 10
58.32018421640714
 20
423.4110437477741
 30
0.0
 40
1.0
100
AcDbArc
 50
90.99999771261455
 51
180.0
1001
PHOENIX7010
1002
{
1070
    41
1040
1.0
1002
}
  0
ARC
  5
805B
102
{ACAD_REACTORS
330
394C
102
}
330
1F
100
AcDbEntity
  8
0
  6
Continuous
 62
     7
100
AcDbCircle
 10
55.32018421640714
 20
429.2009898027812
 30
0.0
 40
2.0
100
AcDbArc
 50
91.49999833173502
 51
180.0
1001
PHOENIX7010
1002
{
1070
    41
1040
1.0
1002
}
  0
LINE
  5
805C
102
{ACAD_REACTORS
330
394C
102
}
330
1F
100
AcDbEntity
  8
0
  6
ACAD_ISO02W100
 62
     5
 48
0.5000000015621048
100
AcDbLine
 10
68.32018421640714
 20
424.5857463250571
 30
0.0
 11
68.32018421640714
 21
409.0857462766319
 31
0.0
1001
PHOENIX7010
1002
{
1070
    41
1040
1.0
1002
}
  0
DIMENSION
  5
9329
102
{ACAD_REACTORS
330
956F
102
}
330
1F
100
AcDbEntity
  8
0
  6
Continuous
 62
     1
370
    35
100
AcDbDimension
  2
*D3
 10
377.3201842164067
 20
171.6730214081449
 30
0.0
 11
373.8196920904224
 21
301.673021408145
 31
0.0
 70
    32
 71
     5
 42
260.0
  3
phoenix
100
AcDbAlignedDimension
 13
353.3201842164067
 23
431.6730214081449
 33
0.0
 14
353.3201842164067
 24
171.6730214081449
 34
0.0
 50
90.0
100
AcDbRotatedDimension
1001
ACAD
1000
DSTYLE
1002
{
1070
   147
1040
1.0
1070
   173
1070
     1
1070
   140
1040
5.0
1002
}
  0
DIMENSION
  5
9A16
102
{ACAD_REACTORS
330
9C38
102
}
330
1F
100
AcDbEntity
  8
0
  6
Continuous
 62
     1
370
    35
100
AcDbDimension
  2
*D4
 10
363.3201842164067
 20
157.6730214081448
 30
0.0
 11
283.3201842164067
 21
161.1730214081449
 31
0.0
 70
    32
 71
     5
 42
160.0
  3
phoenix
100
AcDbAlignedDimension
 13
203.3201842164067
 23
181.6730214081449
 33
0.0
 14
363.3201842164067
 24
181.6730214081449
 34
0.0
100
AcDbRotatedDimension
1001
ACAD
1000
DSTYLE
1002
{
1070
   147
1040
1.0
1070
   173
1070
     1
1070
   140
1040
5.0
1002
}
  0
DIMENSION
  5
9C5D
102
{ACAD_REACTORS
330
9E37
102
}
330
1F
100
AcDbEntity
  8
0
  6
Continuous
 62
     1
370
    35
100
AcDbDimension
  2
*D5
 10
377.3201842164066
 20
51.67302140814513
 30
0.0
 11
373.8196920904224
 21
41.67302140814519
 31
0.0
 70
    32
 71
     5
 42
20.0
  3
phoenix
100
AcDbAlignedDimension
 13
360.8481525272828
 23
31.67302140814513
 33
0.0
 14
363.3201841745267
 24
51.67302140814513
 34
0.0
 50
90.0
100
AcDbRotatedDimension
1001
ACAD
1000
DSTYLE
1002
{
1070
   147
1040
1.0
1070
   173
1070
     1
1070
   140
1040
5.0
1002
}
  0
DIMENSION
  5
A3FA
102
{ACAD_REACTORS
330
A5D4
102
}
330
1F
100
AcDbEntity
  8
0
  6
Continuous
 62
     1
370
    35
100
AcDbDimension
  2
*D6
 10
387.3201842164066
 20
31.67302140814513
 30
0.0
 11
383.8201842164066
 21
76.67302140814519
 31
0.0
 70
    32
 71
     5
 42
90.0
  3
phoenix
100
AcDbAlignedDimension
 13
360.3964013349732
 23
121.6730214081451
 33
0.0
 14
360.8481525272828
 24
31.67302140814513
 34
0.0
 50
90.0
100
AcDbRotatedDimension
1001
ACAD
1000
DSTYLE
1002
{
1070
   147
1040
1.0
1070
   173
1070
     1
1070
   140
1040
5.0
1002
}
  0
LINE
  5
BC51
102
{ACAD_REACTORS
330
394C
102
}
330
1F
100
AcDbEntity
  8
0
  6
Continuous
 62
     7
100
AcDbLine
 10
203.3201842164067
 20
181.6730214081449
 30
0.0
 11
203.3201842164067
 21
421.6730214081449
 31
0.0
1001
PHOENIX7010
1002
{
1070
    41
1040
1.0
1002
}
  0
DIMENSION
  5
CAB1
102
{ACAD_REACTORS
330
D1AC
102
}
330
1F
100
AcDbEntity
  8
0
  6
Continuous
 62
     1
370
    35
100
AcDbDimension
  2
*D14
 10
597.2281303775371
 20
157.6730214081449
 30
0.0
 11
614.0964768342301
 21
161.1730214081449
 31
0.0
 70
    32
  1
6x<>
 71
     5
 42
6.0
  3
phoenix
100
AcDbAlignedDimension
 13
591.2281303775371
 23
186.6730214081447
 33
0.0
 14
597.2281303775371
 24
186.6730214081447
 34
0.0
100
AcDbRotatedDimension
1001
ACAD
1000
DSTYLE
1002
{
1070
   147
1040
1.0
1070
   173
1070
     1
1070
   140
1040
5.0
1070
     3
1000
M<>
1002
}
  0
ARC
  5
D1D1
330
1F
100
AcDbEntity
  8
0
  6
Continuous
 62
     7
370
    50
100
AcDbCircle
 10
702.2281303775371
 20
181.6730214081447
 30
0.0
 40
7.0
100
AcDbArc
 50
240.0
 51
120.0
1001
PHOENIX7010
1002
{
1070
    41
1040
1.0
1002
}
  0
ARC
  5
D1D5
330
1F
100
AcDbEntity
  8
0
  6
Continuous
 62
     7
370
    50
100
AcDbCircle
 10
702.2281303775371
 20
421.6730214081445
 30
0.0
 40
7.0
100
AcDbArc
 50
240.0
 51
120.0
1001
PHOENIX7010
1002
{
1070
    41
1040
1.0
1002
}
  0
ARC
  5
D1D9
330
1F
100
AcDbEntity
  8
0
  6
Continuous
 62
     7
370
    50
100
AcDbCircle
 10
562.2281303775371
 20
421.6730214081446
 30
0.0
 40
7.0
100
AcDbArc
 50
60.0
 51
300.0
1001
PHOENIX7010
1002
{
1070
    41
1040
1.0
1002
}
  0
LINE
  5
E775
102
{ACAD_REACTORS
330
E78C
102
}
330
1F
100
AcDbEntity
  8
0
  6
Continuous
 62
     1
370
    50
100
AcDbLine
 10
835.9999999999995
 20
417.0000000000003
 30
0.0
 11
839.9999999999996
 21
417.0000000000003
 31
0.0
1001
PHOENIX7010
1002
{
1070
    62
1070
     1
1070
    41
1040
1.0
1002
}
  0
LINE
  5
E776
102
{ACAD_REACTORS
330
E78C
102
}
330
1F
100
AcDbEntity
  8
0
  6
Continuous
 62
     1
370
    50
100
AcDbLine
 10
570.9999999999998
 20
5.000000000000113
 30
0.0
 11
570.9999999999998
 21
1.000000000000113
 31
0.0
1001
PHOENIX7010
1002
{
1070
    62
1070
     1
1070
    41
1040
1.0
1002
}
  0
LINE
  5
E777
102
{ACAD_REACTORS
330
E78D
102
}
330
1F
100
AcDbEntity
  8
0
  6
Continuous
 62
     1
370
    50
100
AcDbLine
 10
336.0
 20
1.000000000000113
 30
0.0
 11
336.0
 21
5.000000000000113
 31
0.0
1001
PHOENIX7010
1002
{
1070
    62
1070
     1
1070
    41
1040
1.0
1002
}
  0
LINE
  5
E778
102
{ACAD_REACTORS
330
E78D
102
}
330
1F
100
AcDbEntity
  8
0
  6
Continuous
 62
     3
370
    50
100
AcDbLine
 10
20.0
 20
5.000000000000113
 30
0.0
 11
19.99999999999988
 21
589.0000000000001
 31
0.0
1001
PHOENIX7010
1002
{
1070
    62
1070
     3
1070
    41
1040
1.0
1002
}
  0
LINE
  5
E779
102
{ACAD_REACTORS
330
E78D
102
}
330
1F
100
AcDbEntity
  8
0
  6
Continuous
 62
     1
370
    50
100
AcDbLine
 10
336.0
 20
589.0000000000002
 30
0.0
 11
336.0
 21
593.0000000000002
 31
0.0
1001
PHOENIX7010
1002
{
1070
    62
1070
     1
1070
    41
1040
1.0
1002
}
  0
LINE
  5
E77A
102
{ACAD_REACTORS
330
E78D
102
}
330
1F
100
AcDbEntity
  8
0
  6
Continuous
 62
     1
370
    50
100
AcDbLine
 10
836.0
 20
297.0000000000001
 30
0.0
 11
840.0
 21
297.0000000000001
 31
0.0
1001
PHOENIX7010
1002
{
1070
    62
1070
     1
1070
    41
1040
1.0
1002
}
  0
LINE
  5
E77B
102
{ACAD_REACTORS
330
E78D
102
}
330
1F
100
AcDbEntity
  8
0
  6
Continuous
 62
     1
370
    50
100
AcDbLine
 10
840.0
 20
593.0000000000001
 30
0.0
 11
840.0
 21
1.000000000000113
 31
0.0
1001
PHOENIX7010
1002
{
1070
    62
1070
     1
1070
    41
1040
1.0
1002
}
  0
LINE
  5
E77C
102
{ACAD_REACTORS
330
E78D
102
}
330
1F
100
AcDbEntity
  8
0
  6
Continuous
 62
     1
370
    50
100
AcDbLine
 10
210.9999999999999
 20
589.0000000000001
 30
0.0
 11
210.9999999999999
 21
593.0000000000001
 31
0.0
1001
PHOENIX7010
1002
{
1070
    62
1070
     1
1070
    41
1040
1.0
1002
}
  0
LINE
  5
E77D
102
{ACAD_REACTORS
330
E78D
102
}
330
1F
100
AcDbEntity
  8
0
  6
Continuous
 62
     1
370
    50
100
AcDbLine
 10
1.0
 20
1.000000000000113
 30
0.0
 11
0.9999999999998863
 21
593.0000000000001
 31
0.0
1001
PHOENIX7010
1002
{
1070
    62
1070
     1
1070
    41
1040
1.0
1002
}
  0
LINE
  5
E77E
102
{ACAD_REACTORS
330
E78D
102
}
330
1F
100
AcDbEntity
  8
0
  6
Continuous
 62
     1
370
    50
100
AcDbLine
 10
211.0
 20
5.000000000000113
 30
0.0
 11
211.0
 21
1.000000000000113
 31
0.0
1001
PHOENIX7010
1002
{
1070
    62
1070
     1
1070
    41
1040
1.0
1002
}
  0
LINE
  5
E77F
102
{ACAD_REACTORS
330
E78D
102
}
330
1F
100
AcDbEntity
  8
0
  6
Continuous
 62
     1
370
    50
100
AcDbLine
 10
461.0000000000001
 20
5.000000000000113
 30
0.0
 11
461.0000000000001
 21
1.000000000000113
 31
0.0
1001
PHOENIX7010
1002
{
1070
    62
1070
     1
1070
    41
1040
1.0
1002
}
  0
LINE
  5
E780
102
{ACAD_REACTORS
330
E78D
102
}
330
1F
100
AcDbEntity
  8
0
  6
Continuous
 62
     1
370
    50
100
AcDbLine
 10
651.0000000000001
 20
5.000000000000113
 30
0.0
 11
651.0000000000001
 21
1.000000000000113
 31
0.0
1001
PHOENIX7010
1002
{
1070
    62
1070
     1
1070
    41
1040
1.0
1002
}
  0
LINE
  5
E781
102
{ACAD_REACTORS
330
E78D
102
}
330
1F
100
AcDbEntity
  8
0
  6
Continuous
 62
     1
370
    50
100
AcDbLine
 10
461.0
 20
589.0000000000001
 30
0.0
 11
461.0
 21
593.0000000000001
 31
0.0
1001
PHOENIX7010
1002
{
1070
    62
1070
     1
1070
    41
1040
1.0
1002
}
  0
LINE
  5
E782
102
{ACAD_REACTORS
330
E78D
102
}
330
1F
100
AcDbEntity
  8
0
  6
Continuous
 62
     1
370
    50
100
AcDbLine
 10
651.0
 20
589.0000000000001
 30
0.0
 11
651.0
 21
593.0000000000001
 31
0.0
1001
PHOENIX7010
1002
{
1070
    62
1070
     1
1070
    41
1040
1.0
1002
}
  0
LINE
  5
E783
102
{ACAD_REACTORS
330
E78D
102
}
330
1F
100
AcDbEntity
  8
0
  6
Continuous
 62
     3
370
    50
100
AcDbLine
 10
19.99999999999988
 20
589.0000000000001
 30
0.0
 11
836.0
 21
589.0000000000001
 31
0.0
1001
PHOENIX7010
1002
{
1070
    62
1070
     3
1070
    41
1040
1.0
1002
}
  0
LINE
  5
E784
102
{ACAD_REACTORS
330
E78D
102
}
330
1F
100
AcDbEntity
  8
0
  6
Continuous
 62
     3
370
    50
100
AcDbLine
 10
836.0
 20
589.0000000000001
 30
0.0
 11
836.0
 21
5.000000000000113
 31
0.0
1001
PHOENIX7010
1002
{
1070
    62
1070
     3
1070
    41
1040
1.0
1002
}
  0
LINE
  5
E785
102
{ACAD_REACTORS
330
E78D
102
}
330
1F
100
AcDbEntity
  8
0
  6
Continuous
 62
     3
370
    50
100
AcDbLine
 10
836.0
 20
5.000000000000113
 30
0.0
 11
20.0
 21
5.000000000000113
 31
0.0
1001
PHOENIX7010
1002
{
1070
    62
1070
     3
1070
    41
1040
1.0
1002
}
  0
LINE
  5
E786
102
{ACAD_REACTORS
330
E78D
102
}
330
1F
100
AcDbEntity
  8
0
  6
Continuous
 62
     1
370
    50
100
AcDbLine
 10
0.9999999999998863
 20
593.0000000000001
 30
0.0
 11
840.0
 21
593.0000000000001
 31
0.0
1001
PHOENIX7010
1002
{
1070
    62
1070
     1
1070
    41
1040
1.0
1002
}
  0
LINE
  5
E787
102
{ACAD_REACTORS
330
E78D
102
}
330
1F
100
AcDbEntity
  8
0
  6
Continuous
 62
     1
370
    50
100
AcDbLine
 10
840.0
 20
1.000000000000113
 30
0.0
 11
1.0
 21
1.000000000000113
 31
0.0
1001
PHOENIX7010
1002
{
1070
    62
1070
     1
1070
    41
1040
1.0
1002
}
  0
MTEXT
  5
E788
102
{ACAD_REACTORS
330
E78D
102
}
330
1F
100
AcDbEntity
  8
0
  6
Continuous
 62
     7
370
    50
100
AcDbMText
 10
19.70248718641096
 20
55.39351207913353
 30
0.0
 40
2.0
 41
0.0
 71
     7
 72
     5
  1
{\T1.1;\C1;"Schutzvermerk nach DIN ISO 16016 beachten" \Q20;"Please pay attention to copyright note DIN ISO 16016"}
 11
0.0000000000000002
 21
1.0
 31
0.0
 73
     1
 44
1.0
1001
PHOENIX7010
1002
{
1070
    41
1040
1.0
1002
}
1001
ACAD
1000
MTEXTBEGIN
1070
    73
1070
     1
1070
    44
1040
1.0
1070
    74
1070
     0
1000
MTEXTEND
  0
INSERT
  5
E789
102
{ACAD_REACTORS
330
E78D
102
}
330
1F
100
AcDbEntity
  8
0
  6
Continuous
 62
     1
370
    50
100
AcDbBlockReference
  2
PH_GRPBLK
 10
336.0
 20
1.000000000000113
 30
0.0
1001
PHOENIX7010
1002
{
1070
    41
1040
1.0
1002
}
  0
MTEXT
  5
E833
102
{ACAD_REACTORS
330
394C
102
}
330
1F
100
AcDbEntity
  8
0
  6
Continuous
 62
     5
370
    35
100
AcDbMText
 10
48.1246006814215
 20
438.7420303609402
 30
0.0
 40
5.0
 41
0.0
 71
     7
 72
     5
  1
Seite 2/\P{\Q20;Side 2}
 73
     1
 44
1.0
1001
PHOENIX7010
1002
{
1070
    41
1040
1.0
1002
}
1001
ACAD
1000
MTEXTBEGIN
1070
    73
1070
     1
1070
    44
1040
1.0
1070
    74
1070
     0
1000
MTEXTEND
  0
MTEXT
  5
E834
102
{ACAD_REACTORS
330
394C
102
}
330
1F
100
AcDbEntity
  8
0
  6
Continuous
 62
     5
370
    35
100
AcDbMText
 10
188.1246006814222
 20
438.7420303609402
 30
0.0
 40
5.0
 41
0.0
 71
     7
 72
     5
  1
Seite 6 (Deckel)/\P{\Q20;Side 6 (Lid)}
 73
     1
 44
1.0
1001
PHOENIX7010
1002
{
1070
    41
1040
1.0
1002
}
1001
ACAD
1000
MTEXTBEGIN
1070
    73
1070
     1
1070
    44
1040
1.0
1070
    74
1070
     0
1000
MTEXTEND
  0
MTEXT
  5
E835
102
{ACAD_REACTORS
330
394C
102
}
330
1F
100
AcDbEntity
  8
0
  6
Continuous
 62
     5
370
    35
100
AcDbMText
 10
413.0547413562283
 20
438.1697241141854
 30
0.0
 40
5.0
 41
0.0
 71
     7
 72
     5
  1
Seite 1/\P{\Q20;Side 1}
 73
     1
 44
1.0
1001
PHOENIX7010
1002
{
1070
    41
1040
1.0
1002
}
1001
ACAD
1000
MTEXTBEGIN
1070
    73
1070
     1
1070
    44
1040
1.0
1070
    74
1070
     0
1000
MTEXTEND
  0
MTEXT
  5
E836
102
{ACAD_REACTORS
330
394C
102
}
330
1F
100
AcDbEntity
  8
0
  6
Continuous
 62
     5
370
    35
100
AcDbMText
 10
531.962687517359
 20
438.1697241141854
 30
0.0
 40
5.0
 41
0.0
 71
     7
 72
     5
  1
Seite 5 (Boden)/\P{\Q20;Side 5 (Base)}
 73
     1
 44
1.0
1001
PHOENIX7010
1002
{
1070
    41
1040
1.0
1002
}
1001
ACAD
1000
MTEXTBEGIN
1070
    73
1070
     1
1070
    44
1040
1.0
1070
    74
1070
     0
1000
MTEXTEND
  0
MTEXT
  5
E837
102
{ACAD_REACTORS
330
394C
102
}
330
1F
100
AcDbEntity
  8
0
  6
Continuous
 62
     5
370
    35
100
AcDbMText
 10
178.6637060909092
 20
572.4651130765905
 30
0.0
 40
5.0
 41
0.0
 71
     7
 72
     5
  1
Seite 3/\P{\Q20;Side 3}
 73
     1
 44
1.0
1001
PHOENIX7010
1002
{
1070
    41
1040
1.0
1002
}
1001
ACAD
1000
MTEXTBEGIN
1070
    73
1070
     1
1070
    44
1040
1.0
1070
    74
1070
     0
1000
MTEXTEND
  0
MTEXT
  5
E838
102
{ACAD_REACTORS
330
394C
102
}
330
1F
100
AcDbEntity
  8
0
  6
Continuous
 62
     5
370
    35
100
AcDbMText
 10
191.7031213871419
 20
126.9299471490145
 30
0.0
 40
5.0
 41
0.0
 71
     7
 72
     5
  1
Seite 4/\P{\Q20;Side 4}
 73
     1
 44
1.0
1001
PHOENIX7010
1002
{
1070
    41
1040
1.0
1002
}
1001
ACAD
1000
MTEXTBEGIN
1070
    73
1070
     1
1070
    44
1040
1.0
1070
    74
1070
     0
1000
MTEXTEND
  0
INSERT
  5
E975
102
{ACAD_REACTORS
330
E9DA
102
}
330
1F
100
AcDbEntity
  8
0
  6
Continuous
 62
     1
370
    25
100
AcDbBlockReference
  2
PH_GRPBLK
 10
821.7334749940254
 20
50.3645381139803
 30
0.0
1001
PHOENIX7010
1002
{
1070
    41
1040
1.0
1002
}
  0
LINE
  5
E976
102
{ACAD_REACTORS
330
E9DA
102
}
330
1F
100
AcDbEntity
  8
0
  6
Continuous
 62
     7
370
    50
100
AcDbLine
 10
833.7334749940255
 20
58.16453811398026
 30
0.0
 11
828.4334749940255
 21
51.2645381139804
 31
0.0
1001
PHOENIX7010
1002
{
1070
    41
1040
1.0
1002
}
  0
LINE
  5
E977
102
{ACAD_REACTORS
330
E9DA
102
}
330
1F
100
AcDbEntity
  8
0
  6
Continuous
 62
     7
370
    50
100
AcDbLine
 10
828.4334749940255
 20
58.16453811398026
 30
0.0
 11
821.7334749940254
 21
50.3645381139803
 31
0.0
1001
PHOENIX7010
1002
{
1070
    41
1040
1.0
1002
}
  0
LINE
  5
E978
102
{ACAD_REACTORS
330
E9DA
102
}
330
1F
100
AcDbEntity
  8
0
  6
Continuous
 62
     7
370
    50
100
AcDbLine
 10
828.4334749940255
 20
51.2645381139804
 30
0.0
 11
828.4334749940255
 21
58.16453811398026
 31
0.0
1001
PHOENIX7010
1002
{
1070
    41
1040
1.0
1002
}
  0
LINE
  5
E979
102
{ACAD_REACTORS
330
E9DA
102
}
330
1F
100
AcDbEntity
  8
0
  6
Continuous
 62
     7
370
    50
100
AcDbLine
 10
833.7334749940255
 20
50.3645381139803
 30
0.0
 11
833.7334749940255
 21
58.16453811398026
 31
0.0
1001
PHOENIX7010
1002
{
1070
    41
1040
1.0
1002
}
  0
LINE
  5
E97A
102
{ACAD_REACTORS
330
E9DA
102
}
330
1F
100
AcDbEntity
  8
0
  6
Continuous
 62
     7
370
    50
100
AcDbLine
 10
821.7334749940254
 20
50.3645381139803
 30
0.0
 11
833.7334749940255
 21
50.3645381139803
 31
0.0
1001
PHOENIX7010
1002
{
1070
    41
1040
1.0
1002
}
  0
HATCH
  5
E97B
102
{ACAD_REACTORS
330
E9DA
102
}
330
1F
100
AcDbEntity
  8
0
  6
Continuous
 62
     1
370
    25
100
AcDbHatch
 10
0.0
 20
0.0
 30
0.0
210
0.0
220
0.0
230
1.0
  2
_U
 70
     0
 71
     0
 91
        1
 92
        1
 93
        3
 72
     1
 10
820.8834749940256
 20
50.3645381139803
 11
820.8834749940256
 21
54.51453811398028
 72
     1
 10
820.8834749940256
 20
54.51453811398039
 11
825.0334749940256
 21
54.51453811398039
 72
     2
 10
820.8834749940256
 20
54.51453811398039
 40
4.149999999999977
 50
0.0
 51
270.0
 73
     1
 97
        0
 75
     0
 76
     0
 52
45.0
 41
0.65
 77
     0
 78
     1
 53
45.0
 43
421.0
 44
-9.08885297207064
 45
-0.4596194077712559
 46
0.459619407771256
 79
     0
 98
        1
 10
421.0
 20
-9.08885297207064
1001
PHOENIX7010
1002
{
1070
    41
1040
1.0
1002
}
  0
HATCH
  5
E97C
102
{ACAD_REACTORS
330
E9DA
102
}
330
1F
100
AcDbEntity
  8
0
  6
Continuous
 62
     1
370
    25
100
AcDbHatch
 10
0.0
 20
0.0
 30
0.0
210
0.0
220
0.0
230
1.0
  2
_U
 70
     0
 71
     0
 91
        1
 92
        1
 93
        5
 72
     1
 10
828.4334749940255
 20
58.16453811398048
 11
821.7334749940254
 21
50.36453811398041
 72
     1
 10
821.7334749940254
 20
50.3645381139803
 11
833.7334749940255
 21
50.3645381139803
 72
     1
 10
833.7334749940255
 20
50.3645381139803
 11
833.7334749940255
 21
58.16453811398026
 72
     1
 10
833.7334749940255
 20
58.16453811398026
 11
828.4334749940255
 21
51.2645381139804
 72
     1
 10
828.4334749940255
 20
51.2645381139804
 11
828.4334749940255
 21
58.16453811398037
 97
        0
 75
     0
 76
     0
 52
45.0
 41
0.1
 77
     0
 78
     1
 53
45.0
 43
421.0
 44
-9.08885297207064
 45
-0.0707106781186548
 46
0.0707106781186548
 79
     0
 98
        1
 10
421.0
 20
-9.08885297207064
1001
PHOENIX7010
1002
{
1070
    41
1040
1.0
1002
}
  0
INSERT
  5
E97D
102
{ACAD_REACTORS
330
E9DB
102
}
330
1F
100
AcDbEntity
  8
0
  6
Continuous
 62
     7
370
    50
100
AcDbBlockReference
  2
PH_GRPBLK
 10
821.7334749940254
 20
50.3645381139803
 30
0.0
1001
PHOENIX7010
1002
{
1070
    41
1040
1.0
1002
}
  0
MTEXT
  5
E97E
102
{ACAD_XDICTIONARY
360
EA2D
102
}
102
{ACAD_REACTORS
330
E9DB
102
}
330
1F
100
AcDbEntity
  8
0
  6
Continuous
 62
     7
370
    50
100
AcDbMText
 10
814.5658807175857
 20
44.46517927327739
 30
0.0
 40
3.7
 41
0.0
 71
     7
 72
     5
  1
{\fArial|b1|i0|c0|p34;\W1.1;BOPLA}
 73
     1
 44
1.135135135135135
1001
PHOENIX7010
1002
{
1070
    41
1040
1.0
1002
}
1001
ACAD
1000
MTEXTBEGIN
1070
    73
1070
     1
1070
    44
1040
1.135135135135135
1070
    74
1070
     0
1000
MTEXTEND
  0
MTEXT
  5
E97F
102
{ACAD_REACTORS
330
E9DB
102
}
330
1F
100
AcDbEntity
  8
0
  6
Continuous
 62
     7
370
    50
100
AcDbMText
 10
802.0842366554656
 20
40.8834606000313
 30
0.0
 40
1.6
 41
0.0
 71
     7
 72
     5
  1
{\fArial|b0|i0|c0|p34;\W1.1;\C1;A Phoenix Mecano Company}
 73
     1
 44
1.0
1001
PHOENIX7010
1002
{
1070
    41
1040
1.0
1002
}
1001
ACAD
1000
MTEXTBEGIN
1070
    73
1070
     1
1070
    44
1040
1.0
1070
    74
1070
     0
1000
MTEXTEND
  0
MTEXT
  5
E980
102
{ACAD_REACTORS
330
E9DC
102
}
330
1F
100
AcDbEntity
  8
0
  6
Continuous
 62
     5
370
    35
100
AcDbMText
 10
761.3074630969179
 20
126.1987580068238
 30
0.0
 40
4.0
 41
0.0
 71
     7
 72
     5
  1
{\C7;1:1}
 73
     1
 44
1.0
1001
PHOENIX7010
1002
{
1070
    41
1040
1.0
1002
}
1001
ACAD
1000
MTEXTBEGIN
1070
    73
1070
     1
1070
    44
1040
1.0
1070
    74
1070
     0
1000
MTEXTEND
  0
MTEXT
  5
E981
102
{ACAD_REACTORS
330
E9DC
102
}
330
1F
100
AcDbEntity
  8
0
  6
Continuous
 62
     5
370
    35
100
AcDbMText
 10
740.2942762589884
 20
125.2466907925512
 30
0.0
 40
2.5
 41
0.0
 71
     7
 72
     5
  1
{\C1;Maßstab/\P\Q20;Scale:}
 73
     1
 44
1.0
1001
PHOENIX7010
1002
{
1070
    41
1040
1.0
1002
}
1001
ACAD
1000
MTEXTBEGIN
1070
    73
1070
     1
1070
    44
1040
1.0
1070
    74
1070
     0
1000
MTEXTEND
  0
MTEXT
  5
E982
102
{ACAD_REACTORS
330
E9DC
102
}
330
1F
100
AcDbEntity
  8
0
  6
Continuous
 62
     5
370
    35
100
AcDbMText
 10
740.5702130763931
 20
117.5784617930061
 30
0.0
 40
3.0
 41
0.0
 71
     7
 72
     5
  1
Zeichnungs-Nr. / {\Q20;Drawing-No.:}
 73
     1
 44
1.0
1001
PHOENIX7010
1002
{
1070
    41
1040
1.0
1002
}
1001
ACAD
1000
MTEXTBEGIN
1070
    73
1070
     1
1070
    44
1040
1.0
1070
    74
1070
     0
1000
MTEXTEND
  0
MTEXT
  5
E983
102
{ACAD_REACTORS
330
E9DC
102
}
330
1F
100
AcDbEntity
  8
0
  6
Continuous
 62
     5
370
    35
100
AcDbMText
 10
761.6810942169352
 20
111.4363046740558
 30
0.0
 40
4.0
 41
0.0
 71
     7
 72
     5
  1
{\C7;1G 0130.005.01}
 73
     1
 44
1.0
1001
PHOENIX7010
1002
{
1070
    41
1040
1.0
1002
}
1001
ACAD
1000
MTEXTBEGIN
1070
    73
1070
     1
1070
    44
1040
1.0
1070
    74
1070
     0
1000
MTEXTEND
  0
MTEXT
  5
E984
102
{ACAD_REACTORS
330
E9DC
102
}
330
1F
100
AcDbEntity
  8
0
  6
Continuous
 62
     5
370
    35
100
AcDbMText
 10
739.8800602381664
 20
95.42896167163702
 30
0.0
 40
4.0
 41
0.0
 71
     7
 72
     5
  1
{\C7;Artikel / \Q20;Article:}
 73
     1
 44
1.0
1001
PHOENIX7010
1002
{
1070
    41
1040
1.0
1002
}
1001
ACAD
1000
MTEXTBEGIN
1070
    73
1070
     1
1070
    44
1040
1.0
1070
    74
1070
     0
1000
MTEXTEND
  0
MTEXT
  5
E985
102
{ACAD_REACTORS
330
E9DC
102
}
330
1F
100
AcDbEntity
  8
0
  6
Continuous
 62
     5
370
    35
100
AcDbMText
 10
750.5918340418986
 20
38.32304279191078
 30
0.0
 40
2.0
 41
0.0
 71
     7
 72
     5
  1
{\C1;Datum/\P\Q20;Date:}
 73
     1
 44
1.0
1001
PHOENIX7010
1002
{
1070
    41
1040
1.0
1002
}
1001
ACAD
1000
MTEXTBEGIN
1070
    73
1070
     1
1070
    44
1040
1.0
1070
    74
1070
     0
1000
MTEXTEND
  0
MTEXT
  5
E986
102
{ACAD_REACTORS
330
E9DC
102
}
330
1F
100
AcDbEntity
  8
0
  6
Continuous
 62
     5
370
    35
100
AcDbMText
 10
737.167758256943
 20
38.32303913053613
 30
0.0
 40
2.0
 41
0.0
 71
     7
 72
     5
  1
{\C1;Ä.Nr/\P\Q20;Alt-No.:}
 73
     1
 44
1.0
1001
PHOENIX7010
1002
{
1070
    41
1040
1.0
1002
}
1001
ACAD
1000
MTEXTBEGIN
1070
    73
1070
     1
1070
    44
1040
1.0
1070
    74
1070
     0
1000
MTEXTEND
  0
MTEXT
  5
E987
102
{ACAD_REACTORS
330
E9DC
102
}
330
1F
100
AcDbEntity
  8
0
  6
Continuous
 62
     5
370
    35
100
AcDbMText
 10
737.5289912646938
 20
33.49475527098105
 30
0.0
 40
2.5
 41
0.0
 71
     7
 72
     5
  1
DISK:
 73
     1
 44
1.0
1001
PHOENIX7010
1002
{
1070
    41
1040
1.0
1002
}
1001
ACAD
1000
MTEXTBEGIN
1070
    73
1070
     1
1070
    44
1040
1.0
1070
    74
1070
     0
1000
MTEXTEND
  0
MTEXT
  5
E988
102
{ACAD_REACTORS
330
E9DC
102
}
330
1F
100
AcDbEntity
  8
0
  6
Continuous
 62
     5
370
    35
100
AcDbMText
 10
737.5289912646938
 20
29.24888752318759
 30
0.0
 40
2.5
 41
0.0
 71
     7
 72
     5
  1
Datum/{\Q20;Date:}
 73
     1
 44
1.0
1001
PHOENIX7010
1002
{
1070
    41
1040
1.0
1002
}
1001
ACAD
1000
MTEXTBEGIN
1070
    73
1070
     1
1070
    44
1040
1.0
1070
    74
1070
     0
1000
MTEXTEND
  0
LINE
  5
E989
102
{ACAD_REACTORS
330
E9DC
102
}
330
1F
100
AcDbEntity
  8
0
  6
Continuous
 62
     5
370
    35
100
AcDbLine
 10
735.9999999999997
 20
37.50000000000011
 30
0.0
 11
836.0
 21
37.50000000000011
 31
0.0
1001
PHOENIX7010
1002
{
1070
    41
1040
1.0
1002
}
  0
LINE
  5
E98A
102
{ACAD_REACTORS
330
E9DC
102
}
330
1F
100
AcDbEntity
  8
0
  6
Continuous
 62
     5
100
AcDbLine
 10
826.4999999999997
 20
123.5000000000001
 30
0.0
 11
826.4999999999997
 21
130.5000000000001
 31
0.0
1001
PHOENIX7010
1002
{
1070
    62
1070
     5
1070
    41
1040
1.0
1002
}
  0
LINE
  5
E98B
102
{ACAD_REACTORS
330
E9DC
102
}
330
1F
100
AcDbEntity
  8
0
  6
ACAD_ISO04W100
 62
     1
 48
0.1451612903225806
100
AcDbLine
 10
831.4999999999997
 20
122.5000000000001
 30
0.0
 11
831.4999999999997
 21
131.5000000000001
 31
0.0
1001
PHOENIX7010
1002
{
1070
    62
1070
     1
1070
    41
1040
1.0
1002
}
  0
CIRCLE
  5
E98C
102
{ACAD_REACTORS
330
E9DC
102
}
330
1F
100
AcDbEntity
  8
0
  6
Continuous
 62
     5
100
AcDbCircle
 10
831.4999999999997
 20
127.0000000000001
 30
0.0
 40
1.75
1001
PHOENIX7010
1002
{
1070
    62
1070
     5
1070
    41
1040
1.0
1002
}
  0
CIRCLE
  5
E98D
102
{ACAD_REACTORS
330
E9DC
102
}
330
1F
100
AcDbEntity
  8
0
  6
Continuous
 62
     5
100
AcDbCircle
 10
831.4999999999997
 20
127.0000000000001
 30
0.0
 40
3.5
1001
PHOENIX7010
1002
{
1070
    62
1070
     5
1070
    41
1040
1.0
1002
}
  0
LINE
  5
E98E
102
{ACAD_REACTORS
330
E9DC
102
}
330
1F
100
AcDbEntity
  8
0
  6
Continuous
 62
     5
100
AcDbLine
 10
819.4999999999998
 20
125.2500000000001
 30
0.0
 11
819.4999999999998
 21
128.7500000000001
 31
0.0
1001
PHOENIX7010
1002
{
1070
    62
1070
     5
1070
    41
1040
1.0
1002
}
  0
LINE
  5
E98F
102
{ACAD_REACTORS
330
E9DC
102
}
330
1F
100
AcDbEntity
  8
0
  6
ACAD_ISO04W100
 62
     1
 48
0.282258064516129
100
AcDbLine
 10
835.9999999999997
 20
127.0000000000001
 30
0.0
 11
818.4999999999998
 21
127.0000000000001
 31
0.0
1001
PHOENIX7010
1002
{
1070
    62
1070
     1
1070
    41
1040
1.0
1002
}
  0
LINE
  5
E990
102
{ACAD_REACTORS
330
E9DC
102
}
330
1F
100
AcDbEntity
  8
0
  6
Continuous
 62
     5
100
AcDbLine
 10
826.4999999999997
 20
123.5000000000001
 30
0.0
 11
819.4999999999998
 21
125.2500000000001
 31
0.0
1001
PHOENIX7010
1002
{
1070
    62
1070
     5
1070
    41
1040
1.0
1002
}
  0
LINE
  5
E991
102
{ACAD_REACTORS
330
E9DC
102
}
330
1F
100
AcDbEntity
  8
0
  6
Continuous
 62
     5
100
AcDbLine
 10
826.4999999999997
 20
130.5000000000001
 30
0.0
 11
819.4999999999998
 21
128.7500000000001
 31
0.0
1001
PHOENIX7010
1002
{
1070
    62
1070
     5
1070
    41
1040
1.0
1002
}
  0
ARC
  5
E992
102
{ACAD_REACTORS
330
E9DC
102
}
330
1F
100
AcDbEntity
  8
0
  6
Continuous
 62
     5
100
AcDbCircle
 10
738.4999999999998
 20
120.0000000000001
 30
0.0
 40
2.5
100
AcDbArc
 50
90.0
 51
180.0
1001
PHOENIX7010
1002
{
1070
    62
1070
     5
1070
    41
1040
1.0
1002
}
  0
LINE
  5
E993
102
{ACAD_REACTORS
330
E9DC
102
}
330
1F
100
AcDbEntity
  8
0
  6
Continuous
 62
     5
100
AcDbLine
 10
836.0
 20
122.5000000000001
 30
0.0
 11
738.4999999999998
 21
122.5000000000001
 31
0.0
1001
PHOENIX7010
1002
{
1070
    62
1070
     5
1070
    41
1040
1.0
1002
}
  0
LINE
  5
E994
102
{ACAD_REACTORS
330
E9DC
102
}
330
1F
100
AcDbEntity
  8
0
  6
Continuous
 62
     1
370
    25
100
AcDbLine
 10
795.0
 20
28.00000000000011
 30
0.0
 11
795.0
 21
5.000000000000113
 31
0.0
1001
PHOENIX7010
1002
{
1070
    62
1070
     5
1070
    41
1040
1.0
1002
}
  0
TEXT
  5
E995
102
{ACAD_REACTORS
330
E9DC
102
}
330
1F
100
AcDbEntity
  8
0
  6
Continuous
 62
     1
100
AcDbText
 10
749.9999996997323
 20
65.74999981501367
 30
0.0
 40
2.0
  1
-
 41
1.5
100
AcDbText
1001
PHOENIX7010
1002
{
1070
    62
1070
     1
1070
    41
1040
1.0
1002
}
  0
TEXT
  5
E996
102
{ACAD_REACTORS
330
E9DC
102
}
330
1F
100
AcDbEntity
  8
0
  6
Continuous
 62
     1
100
AcDbText
 10
749.9999996997323
 20
63.24999981501367
 30
0.0
 40
2.0
  1
-
 41
1.5
100
AcDbText
1001
PHOENIX7010
1002
{
1070
    62
1070
     1
1070
    41
1040
1.0
1002
}
  0
TEXT
  5
E997
102
{ACAD_REACTORS
330
E9DC
102
}
330
1F
100
AcDbEntity
  8
0
  6
Continuous
 62
     1
100
AcDbText
 10
749.9999996997323
 20
68.24999981501367
 30
0.0
 40
2.0
  1
-
 41
1.5
100
AcDbText
1001
PHOENIX7010
1002
{
1070
    62
1070
     1
1070
    41
1040
1.0
1002
}
  0
TEXT
  5
E998
102
{ACAD_REACTORS
330
E9DC
102
}
330
1F
100
AcDbEntity
  8
0
  6
Continuous
 62
     1
100
AcDbText
 10
736.9999996997323
 20
65.74999981501367
 30
0.0
 40
2.0
  1
-
 41
1.5
100
AcDbText
1001
PHOENIX7010
1002
{
1070
    62
1070
     1
1070
    41
1040
1.0
1002
}
  0
TEXT
  5
E999
102
{ACAD_REACTORS
330
E9DC
102
}
330
1F
100
AcDbEntity
  8
0
  6
Continuous
 62
     1
100
AcDbText
 10
736.9999996997323
 20
63.24999981501367
 30
0.0
 40
2.0
  1
-
 41
1.5
100
AcDbText
1001
PHOENIX7010
1002
{
1070
    62
1070
     1
1070
    41
1040
1.0
1002
}
  0
TEXT
  5
E99A
102
{ACAD_REACTORS
330
E9DC
102
}
330
1F
100
AcDbEntity
  8
0
  6
Continuous
 62
     1
100
AcDbText
 10
736.9999996997323
 20
68.24999981501367
 30
0.0
 40
2.0
  1
-
 41
1.5
100
AcDbText
1001
PHOENIX7010
1002
{
1070
    62
1070
     1
1070
    41
1040
1.0
1002
}
  0
ARC
  5
E99B
102
{ACAD_REACTORS
330
E9DC
102
}
330
1F
100
AcDbEntity
  8
0
  6
Continuous
 62
     5
100
AcDbCircle
 10
738.4999999999998
 20
68.50000000000012
 30
0.0
 40
2.5
100
AcDbArc
 50
90.0
 51
180.0
1001
PHOENIX7010
1002
{
1070
    62
1070
     5
1070
    41
1040
1.0
1002
}
  0
ARC
  5
E99C
102
{ACAD_REACTORS
330
E9DC
102
}
330
1F
100
AcDbEntity
  8
0
  6
Continuous
 62
     5
100
AcDbCircle
 10
738.4999999999998
 20
99.00000000000012
 30
0.0
 40
2.5
100
AcDbArc
 50
90.0
 51
180.0
1001
PHOENIX7010
1002
{
1070
    62
1070
     5
1070
    41
1040
1.0
1002
}
  0
TEXT
  5
E99D
102
{ACAD_REACTORS
330
E9DC
102
}
330
1F
100
AcDbEntity
  8
0
  6
Continuous
 62
     1
100
AcDbText
 10
749.9999996997323
 20
48.24999981501367
 30
0.0
 40
2.0
  1
-
 41
1.5
100
AcDbText
1001
PHOENIX7010
1002
{
1070
    62
1070
     1
1070
    41
1040
1.0
1002
}
  0
TEXT
  5
E99E
102
{ACAD_REACTORS
330
E9DC
102
}
330
1F
100
AcDbEntity
  8
0
  6
Continuous
 62
     1
100
AcDbText
 10
749.9999996997323
 20
45.74999981501366
 30
0.0
 40
2.0
  1
-
 41
1.5
100
AcDbText
1001
PHOENIX7010
1002
{
1070
    62
1070
     1
1070
    41
1040
1.0
1002
}
  0
TEXT
  5
E99F
102
{ACAD_REACTORS
330
E9DC
102
}
330
1F
100
AcDbEntity
  8
0
  6
Continuous
 62
     1
100
AcDbText
 10
749.9999996997323
 20
53.24999981501367
 30
0.0
 40
2.0
  1
-
 41
1.5
100
AcDbText
1001
PHOENIX7010
1002
{
1070
    62
1070
     1
1070
    41
1040
1.0
1002
}
  0
TEXT
  5
E9A0
102
{ACAD_REACTORS
330
E9DC
102
}
330
1F
100
AcDbEntity
  8
0
  6
Continuous
 62
     1
100
AcDbText
 10
749.9999996997323
 20
50.74999981501367
 30
0.0
 40
2.0
  1
-
 41
1.5
100
AcDbText
1001
PHOENIX7010
1002
{
1070
    62
1070
     1
1070
    41
1040
1.0
1002
}
  0
TEXT
  5
E9A1
102
{ACAD_REACTORS
330
E9DC
102
}
330
1F
100
AcDbEntity
  8
0
  6
Continuous
 62
     1
100
AcDbText
 10
749.9999996997323
 20
55.74999981501367
 30
0.0
 40
2.0
  1
-
 41
1.5
100
AcDbText
1001
PHOENIX7010
1002
{
1070
    62
1070
     1
1070
    41
1040
1.0
1002
}
  0
TEXT
  5
E9A2
102
{ACAD_REACTORS
330
E9DC
102
}
330
1F
100
AcDbEntity
  8
0
  6
Continuous
 62
     1
100
AcDbText
 10
749.9999996997323
 20
58.24999981501367
 30
0.0
 40
2.0
  1
-
 41
1.5
100
AcDbText
1001
PHOENIX7010
1002
{
1070
    62
1070
     1
1070
    41
1040
1.0
1002
}
  0
TEXT
  5
E9A3
102
{ACAD_REACTORS
330
E9DC
102
}
330
1F
100
AcDbEntity
  8
0
  6
Continuous
 62
     1
100
AcDbText
 10
749.9999996997323
 20
60.74999981501367
 30
0.0
 40
2.0
  1
-
 41
1.5
100
AcDbText
1001
PHOENIX7010
1002
{
1070
    62
1070
     1
1070
    41
1040
1.0
1002
}
  0
TEXT
  5
E9A4
102
{ACAD_REACTORS
330
E9DC
102
}
330
1F
100
AcDbEntity
  8
0
  6
Continuous
 62
     1
100
AcDbText
 10
736.9999996997323
 20
48.24999981501367
 30
0.0
 40
2.0
  1
-
 41
1.5
100
AcDbText
1001
PHOENIX7010
1002
{
1070
    62
1070
     1
1070
    41
1040
1.0
1002
}
  0
TEXT
  5
E9A5
102
{ACAD_REACTORS
330
E9DC
102
}
330
1F
100
AcDbEntity
  8
0
  6
Continuous
 62
     1
100
AcDbText
 10
736.9999996997323
 20
45.74999981501366
 30
0.0
 40
2.0
  1
-
 41
1.5
100
AcDbText
1001
PHOENIX7010
1002
{
1070
    62
1070
     1
1070
    41
1040
1.0
1002
}
  0
TEXT
  5
E9A6
102
{ACAD_REACTORS
330
E9DC
102
}
330
1F
100
AcDbEntity
  8
0
  6
Continuous
 62
     1
100
AcDbText
 10
736.9999996997323
 20
53.24999981501367
 30
0.0
 40
2.0
  1
-
 41
1.5
100
AcDbText
1001
PHOENIX7010
1002
{
1070
    62
1070
     1
1070
    41
1040
1.0
1002
}
  0
TEXT
  5
E9A7
102
{ACAD_REACTORS
330
E9DC
102
}
330
1F
100
AcDbEntity
  8
0
  6
Continuous
 62
     1
100
AcDbText
 10
736.9999996997323
 20
50.74999981501367
 30
0.0
 40
2.0
  1
-
 41
1.5
100
AcDbText
1001
PHOENIX7010
1002
{
1070
    62
1070
     1
1070
    41
1040
1.0
1002
}
  0
TEXT
  5
E9A8
102
{ACAD_REACTORS
330
E9DC
102
}
330
1F
100
AcDbEntity
  8
0
  6
Continuous
 62
     1
100
AcDbText
 10
736.9999996997323
 20
55.74999981501367
 30
0.0
 40
2.0
  1
-
 41
1.5
100
AcDbText
1001
PHOENIX7010
1002
{
1070
    62
1070
     1
1070
    41
1040
1.0
1002
}
  0
TEXT
  5
E9A9
102
{ACAD_REACTORS
330
E9DC
102
}
330
1F
100
AcDbEntity
  8
0
  6
Continuous
 62
     1
100
AcDbText
 10
736.9999996997323
 20
58.24999981501367
 30
0.0
 40
2.0
  1
-
 41
1.5
100
AcDbText
1001
PHOENIX7010
1002
{
1070
    62
1070
     1
1070
    41
1040
1.0
1002
}
  0
TEXT
  5
E9AA
102
{ACAD_REACTORS
330
E9DC
102
}
330
1F
100
AcDbEntity
  8
0
  6
Continuous
 62
     1
100
AcDbText
 10
736.9999996997323
 20
60.74999981501367
 30
0.0
 40
2.0
  1
-
 41
1.5
100
AcDbText
1001
PHOENIX7010
1002
{
1070
    62
1070
     1
1070
    41
1040
1.0
1002
}
  0
LINE
  5
E9AB
102
{ACAD_REACTORS
330
E9DC
102
}
330
1F
100
AcDbEntity
  8
0
  6
Continuous
 62
     1
100
AcDbLine
 10
748.9999999999997
 20
71.00000000000012
 30
0.0
 11
748.9999999999997
 21
37.50000000000011
 31
0.0
1001
PHOENIX7010
1002
{
1070
    62
1070
     1
1070
    41
1040
1.0
1002
}
  0
LINE
  5
E9AC
102
{ACAD_REACTORS
330
E9DC
102
}
330
1F
100
AcDbEntity
  8
0
  6
Continuous
 62
     1
100
AcDbLine
 10
735.9999999999997
 20
44.50000000000011
 30
0.0
 11
771.0
 21
44.50000000000011
 31
0.0
1001
PHOENIX7010
1002
{
1070
    62
1070
     1
1070
    41
1040
1.0
1002
}
  0
LINE
  5
E9AD
102
{ACAD_REACTORS
330
E9DC
102
}
330
1F
100
AcDbEntity
  8
0
  6
Continuous
 62
     5
100
AcDbLine
 10
836.0
 20
101.5000000000001
 30
0.0
 11
738.4999999999998
 21
101.5000000000001
 31
0.0
1001
PHOENIX7010
1002
{
1070
    62
1070
     5
1070
    41
1040
1.0
1002
}
  0
LINE
  5
E9AE
102
{ACAD_REACTORS
330
E9DC
102
}
330
1F
100
AcDbEntity
  8
0
  6
Continuous
 62
     5
100
AcDbLine
 10
836.0
 20
71.00000000000012
 30
0.0
 11
738.4999999999998
 21
71.00000000000012
 31
0.0
1001
PHOENIX7010
1002
{
1070
    62
1070
     5
1070
    41
1040
1.0
1002
}
  0
LINE
  5
E9AF
102
{ACAD_REACTORS
330
E9DC
102
}
330
1F
100
AcDbEntity
  8
0
  6
Continuous
 62
     5
100
AcDbLine
 10
735.9999999999997
 20
178.0000000000001
 30
0.0
 11
735.9999999999997
 21
5.000000000000113
 31
0.0
1001
PHOENIX7010
1002
{
1070
    62
1070
     5
1070
    41
1040
1.0
1002
}
  0
LINE
  5
E9B0
102
{ACAD_REACTORS
330
E9DC
102
}
330
1F
100
AcDbEntity
  8
0
  6
Continuous
 62
     5
370
    35
100
AcDbLine
 10
735.9999999999997
 20
28.00000000000011
 30
0.0
 11
836.0
 21
28.00000000000011
 31
0.0
1001
PHOENIX7010
1002
{
1070
    41
1040
1.0
1002
}
  0
LINE
  5
E9B1
102
{ACAD_REACTORS
330
E9DC
102
}
330
1F
100
AcDbEntity
  8
0
  6
Continuous
 62
     5
370
    35
100
AcDbLine
 10
735.9999999999997
 20
23.00000000000011
 30
0.0
 11
836.0
 21
23.00000000000011
 31
0.0
1001
PHOENIX7010
1002
{
1070
    41
1040
1.0
1002
}
  0
LINE
  5
E9B2
102
{ACAD_REACTORS
330
E9DC
102
}
330
1F
100
AcDbEntity
  8
0
  6
Continuous
 62
     5
370
    35
100
AcDbLine
 10
735.9999999999997
 20
23.00000000000011
 30
0.0
 11
836.0
 21
23.00000000000011
 31
0.0
1001
PHOENIX7010
1002
{
1070
    41
1040
1.0
1002
}
  0
LINE
  5
E9B3
102
{ACAD_REACTORS
330
E9DC
102
}
330
1F
100
AcDbEntity
  8
0
  6
Continuous
 62
     1
370
    25
100
AcDbLine
 10
735.9999999999997
 20
14.00000000000011
 30
0.0
 11
836.0
 21
14.00000000000011
 31
0.0
1001
PHOENIX7010
1002
{
1070
    41
1040
1.0
1002
}
  0
LINE
  5
E9B4
102
{ACAD_REACTORS
330
E9DC
102
}
330
1F
100
AcDbEntity
  8
0
  6
Continuous
 62
     5
100
AcDbLine
 10
771.0
 20
71.00000000000012
 30
0.0
 11
771.0
 21
37.50000000000011
 31
0.0
1001
PHOENIX7010
1002
{
1070
    62
1070
     5
1070
    41
1040
1.0
1002
}
  0
LINE
  5
E9B5
102
{ACAD_REACTORS
330
E9DC
102
}
330
1F
100
AcDbEntity
  8
0
  6
Continuous
 62
     5
100
AcDbLine
 10
771.0
 20
28.00000000000011
 30
0.0
 11
771.0
 21
5.000000000000113
 31
0.0
1001
PHOENIX7010
1002
{
1070
    62
1070
     5
1070
    41
1040
1.0
1002
}
  0
MTEXT
  5
E9B6
102
{ACAD_REACTORS
330
E9DC
102
}
330
1F
100
AcDbEntity
  8
0
  6
Continuous
 62
     5
370
    35
100
AcDbMText
 10
793.1764856757657
 20
29.24888752318759
 30
0.0
 40
2.5
 41
0.0
 71
     7
 72
     5
  1
Blatt/{\Q20;Sheet:   }1   /   1
 73
     1
 44
1.0
1001
PHOENIX7010
1002
{
1070
    41
1040
1.0
1002
}
1001
ACAD
1000
MTEXTBEGIN
1070
    73
1070
     1
1070
    44
1040
1.0
1070
    74
1070
     0
1000
MTEXTEND
  0
MTEXT
  5
E9B7
102
{ACAD_REACTORS
330
E9DC
102
}
330
1F
100
AcDbEntity
  8
0
  6
Continuous
 62
     5
370
    35
100
AcDbMText
 10
772.528991264694
 20
24.52073237545153
 30
0.0
 40
2.5
 41
0.0
 71
     7
 72
     5
  1
Datum/{\Q20;Date}
 73
     1
 44
1.0
1001
PHOENIX7010
1002
{
1070
    41
1040
1.0
1002
}
1001
ACAD
1000
MTEXTBEGIN
1070
    73
1070
     1
1070
    44
1040
1.0
1070
    74
1070
     0
1000
MTEXTEND
  0
MTEXT
  5
E9B8
102
{ACAD_REACTORS
330
E9DC
102
}
330
1F
100
AcDbEntity
  8
0
  6
Continuous
 62
     5
370
    35
100
AcDbMText
 10
796.528991264694
 20
23.72415732371144
 30
0.0
 40
2.5
 41
0.0
 71
     7
 72
     5
  1
{\T0.9;Unterschrift/\Q20;Signature}
 73
     1
 44
1.0
1001
PHOENIX7010
1002
{
1070
    41
1040
1.0
1002
}
1001
ACAD
1000
MTEXTBEGIN
1070
    73
1070
     1
1070
    44
1040
1.0
1070
    74
1070
     0
1000
MTEXTEND
  0
MTEXT
  5
E9B9
102
{ACAD_REACTORS
330
E9DC
102
}
330
1F
100
AcDbEntity
  8
0
  6
Continuous
 62
     5
370
    35
100
AcDbMText
 10
737.5289912646938
 20
15.24888752318759
 30
0.0
 40
2.5
 41
0.0
 71
     7
 72
     5
  1
geprüft/\P{\Q20;checked}
 73
     1
 44
1.0
1001
PHOENIX7010
1002
{
1070
    41
1040
1.0
1002
}
1001
ACAD
1000
MTEXTBEGIN
1070
    73
1070
     1
1070
    44
1040
1.0
1070
    74
1070
     0
1000
MTEXTEND
  0
MTEXT
  5
E9BA
102
{ACAD_REACTORS
330
E9DC
102
}
330
1F
100
AcDbEntity
  8
0
  6
Continuous
 62
     5
370
    35
100
AcDbMText
 10
737.5289912646938
 20
6.24888752318759
 30
0.0
 40
2.5
 41
0.0
 71
     7
 72
     5
  1
{\T0.9;Fertigungsfreigabe/\P\Q20;Production release}
 73
     1
 44
1.0
1001
PHOENIX7010
1002
{
1070
    41
1040
1.0
1002
}
1001
ACAD
1000
MTEXTBEGIN
1070
    73
1070
     1
1070
    44
1040
1.0
1070
    74
1070
     0
1000
MTEXTEND
  0
MTEXT
  5
E9BB
102
{ACAD_REACTORS
330
E9DC
102
}
330
1F
100
AcDbEntity
  8
0
  6
Continuous
 62
     5
370
    35
100
AcDbMText
 10
763.2178658257173
 20
33.60592166613912
 30
0.0
 40
2.5
 41
0.0
 71
     7
 72
     5
  1
2 400 045
 73
     1
 44
1.0
1001
PHOENIX7010
1002
{
1070
    41
1040
1.0
1002
}
1001
ACAD
1000
MTEXTBEGIN
1070
    73
1070
     1
1070
    44
1040
1.0
1070
    74
1070
     0
1000
MTEXTEND
  0
MTEXT
  5
E9BC
102
{ACAD_REACTORS
330
E9DC
102
}
330
1F
100
AcDbEntity
  8
0
  6
Continuous
 62
     5
370
    35
100
AcDbMText
 10
763.2178658257173
 20
29.24888752318759
 30
0.0
 40
2.5
 41
0.0
 71
     7
 72
     5
  1
05.08.2003 NK
 73
     1
 44
1.0
1001
PHOENIX7010
1002
{
1070
    41
1040
1.0
1002
}
1001
ACAD
1000
MTEXTBEGIN
1070
    73
1070
     1
1070
    44
1040
1.0
1070
    74
1070
     0
1000
MTEXTEND
  0
LINE
  5
E9BD
102
{ACAD_REACTORS
330
E9DC
102
}
330
1F
100
AcDbEntity
  8
0
  6
Continuous
 62
     5
100
AcDbLine
 10
836.0
 20
149.5000000000001
 30
0.0
 11
738.4999999999998
 21
149.5000000000001
 31
0.0
1001
PHOENIX7010
1002
{
1070
    41
1040
1.0
1002
}
  0
LINE
  5
E9BE
102
{ACAD_REACTORS
330
E9DC
102
}
330
1F
100
AcDbEntity
  8
0
  6
Continuous
 62
     5
370
    35
100
AcDbLine
 10
836.0
 20
169.5000000000001
 30
0.0
 11
738.4999999999998
 21
169.5000000000001
 31
0.0
1001
PHOENIX7010
1002
{
1070
    41
1040
1.0
1002
}
  0
LINE
  5
E9BF
102
{ACAD_REACTORS
330
E9DC
102
}
330
1F
100
AcDbEntity
  8
0
  6
Continuous
 62
     5
370
    35
100
AcDbLine
 10
836.0
 20
180.5000000000001
 30
0.0
 11
738.4999999999998
 21
180.5000000000001
 31
0.0
1001
PHOENIX7010
1002
{
1070
    41
1040
1.0
1002
}
  0
ARC
  5
E9C0
102
{ACAD_REACTORS
330
E9DC
102
}
330
1F
100
AcDbEntity
  8
0
  6
Continuous
 62
     5
100
AcDbCircle
 10
738.4999999999998
 20
147.0000000000001
 30
0.0
 40
2.5
100
AcDbArc
 50
90.0
 51
180.0
1001
PHOENIX7010
1002
{
1070
    41
1040
1.0
1002
}
  0
ARC
  5
E9C1
102
{ACAD_REACTORS
330
E9DC
102
}
330
1F
100
AcDbEntity
  8
0
  6
Continuous
 62
     5
100
AcDbCircle
 10
738.4999999999998
 20
167.0000000000001
 30
0.0
 40
2.5
100
AcDbArc
 50
90.0
 51
180.0
1001
PHOENIX7010
1002
{
1070
    41
1040
1.0
1002
}
  0
ARC
  5
E9C2
102
{ACAD_REACTORS
330
E9DC
102
}
330
1F
100
AcDbEntity
  8
0
  6
Continuous
 62
     5
100
AcDbCircle
 10
738.4999999999998
 20
178.0000000000001
 30
0.0
 40
2.5
100
AcDbArc
 50
90.0
 51
180.0
1001
PHOENIX7010
1002
{
1070
    41
1040
1.0
1002
}
  0
MTEXT
  5
E9C3
102
{ACAD_REACTORS
330
E9DC
102
}
330
1F
100
AcDbEntity
  8
0
  6
Continuous
 62
     5
370
    35
100
AcDbMText
 10
738.4904144324186
 20
106.1420006354827
 30
0.0
 40
2.0
 41
0.0
 71
     7
 72
     5
  1
{\C1;Bem.: Erstellt nach Vorlage / \Q20;Dim.: constructed by specification:}
 73
     1
 44
1.0
1001
PHOENIX7010
1002
{
1070
    41
1040
1.0
1002
}
1001
ACAD
1000
MTEXTBEGIN
1070
    73
1070
     1
1070
    44
1040
1.0
1070
    74
1070
     0
1000
MTEXTEND
  0
MTEXT
  5
E9C4
102
{ACAD_REACTORS
330
E9DC
102
}
330
1F
100
AcDbEntity
  8
0
  6
Continuous
 62
     5
370
    35
100
AcDbMText
 10
739.2310194173415
 20
103.0621268735634
 30
0.0
 40
2.0
 41
0.0
 71
     7
 72
     5
  1
{\C1;-}
 73
     1
 44
1.0
1001
PHOENIX7010
1002
{
1070
    41
1040
1.0
1002
}
1001
ACAD
1000
MTEXTBEGIN
1070
    73
1070
     1
1070
    44
1040
1.0
1070
    74
1070
     0
1000
MTEXTEND
  0
MTEXT
  5
E9C5
102
{ACAD_REACTORS
330
E9DC
102
}
330
1F
100
AcDbEntity
  8
0
  6
Continuous
 62
     5
370
    35
100
AcDbMText
 10
740.2942762589884
 20
144.7604021928945
 30
0.0
 40
2.5
 41
0.0
 71
     7
 72
     5
  1
{\C1;Allg.Tol.:}
 73
     1
 44
1.0
1001
PHOENIX7010
1002
{
1070
    41
1040
1.0
1002
}
1001
ACAD
1000
MTEXTBEGIN
1070
    73
1070
     1
1070
    44
1040
1.0
1070
    74
1070
     0
1000
MTEXTEND
  0
MTEXT
  5
E9C6
102
{ACAD_REACTORS
330
E9DC
102
}
330
1F
100
AcDbEntity
  8
0
  6
Continuous
 62
     5
370
    35
100
AcDbMText
 10
760.7913305013807
 20
145.7387216645192
 30
0.0
 40
2.5
 41
0.0
 71
     7
 72
     5
  1
DIN 1688 Bl.4 für Druckgussteil
 73
     1
 44
1.0
1001
PHOENIX7010
1002
{
1070
    41
1040
1.0
1002
}
1001
ACAD
1000
MTEXTBEGIN
1070
    73
1070
     1
1070
    44
1040
1.0
1070
    74
1070
     0
1000
MTEXTEND
  0
MTEXT
  5
E9C7
102
{ACAD_REACTORS
330
E9DC
102
}
330
1F
100
AcDbEntity
  8
0
  6
Continuous
 62
     5
370
    35
100
AcDbMText
 10
760.7913305013807
 20
141.4898652776518
 30
0.0
 40
2.5
 41
0.0
 71
     7
 72
     5
  1
DIN ISO 2768-mk für Bearbeitung
 73
     1
 44
1.0
1001
PHOENIX7010
1002
{
1070
    41
1040
1.0
1002
}
1001
ACAD
1000
MTEXTBEGIN
1070
    73
1070
     1
1070
    44
1040
1.0
1070
    74
1070
     0
1000
MTEXTEND
  0
MTEXT
  5
E9C8
102
{ACAD_REACTORS
330
E9DC
102
}
330
1F
100
AcDbEntity
  8
0
  6
Continuous
 62
     5
370
    35
100
AcDbMText
 10
760.7913305013807
 20
133.1355030484363
 30
0.0
 40
2.5
 41
0.0
 71
     7
 72
     5
  1
{\Q20;DIN ISO 2768-mk for machining}
 73
     1
 44
1.0
1001
PHOENIX7010
1002
{
1070
    41
1040
1.0
1002
}
1001
ACAD
1000
MTEXTBEGIN
1070
    73
1070
     1
1070
    44
1040
1.0
1070
    74
1070
     0
1000
MTEXTEND
  0
MTEXT
  5
E9C9
102
{ACAD_REACTORS
330
E9DC
102
}
330
1F
100
AcDbEntity
  8
0
  6
Continuous
 62
     5
370
    35
100
AcDbMText
 10
760.7913305013807
 20
137.3843594353037
 30
0.0
 40
2.5
 41
0.0
 71
     7
 72
     5
  1
{\Q20;die-cast part acc. DIN 1688 Bl.4}
 73
     1
 44
1.0
1001
PHOENIX7010
1002
{
1070
    41
1040
1.0
1002
}
1001
ACAD
1000
MTEXTBEGIN
1070
    73
1070
     1
1070
    44
1040
1.0
1070
    74
1070
     0
1000
MTEXTEND
  0
MTEXT
  5
E9CA
102
{ACAD_REACTORS
330
E9DC
102
}
330
1F
100
AcDbEntity
  8
0
  6
Continuous
 62
     5
370
    35
100
AcDbMText
 10
740.2942762589884
 20
136.406039963679
 30
0.0
 40
2.5
 41
0.0
 71
     7
 72
     5
  1
{\Q20;\C1;Gen.Tol.:}
 73
     1
 44
1.0
1001
PHOENIX7010
1002
{
1070
    41
1040
1.0
1002
}
1001
ACAD
1000
MTEXTBEGIN
1070
    73
1070
     1
1070
    44
1040
1.0
1070
    74
1070
     0
1000
MTEXTEND
  0
MTEXT
  5
E9CB
102
{ACAD_REACTORS
330
E9DC
102
}
330
1F
100
AcDbEntity
  8
0
  6
Continuous
 62
     5
370
    35
100
AcDbMText
 10
740.2942762589884
 20
164.7604021928945
 30
0.0
 40
2.5
 41
0.0
 71
     7
 72
     5
  1
{\C1;Werkstoff:}
 73
     1
 44
1.0
1001
PHOENIX7010
1002
{
1070
    41
1040
1.0
1002
}
1001
ACAD
1000
MTEXTBEGIN
1070
    73
1070
     1
1070
    44
1040
1.0
1070
    74
1070
     0
1000
MTEXTEND
  0
MTEXT
  5
E9CC
102
{ACAD_REACTORS
330
E9DC
102
}
330
1F
100
AcDbEntity
  8
0
  6
Continuous
 62
     5
370
    35
100
AcDbMText
 10
760.7913305013807
 20
164.8027118382896
 30
0.0
 40
2.5
 41
0.0
 71
     7
 72
     5
  1
AL
 73
     1
 44
1.0
1001
PHOENIX7010
1002
{
1070
    41
1040
1.0
1002
}
1001
ACAD
1000
MTEXTBEGIN
1070
    73
1070
     1
1070
    44
1040
1.0
1070
    74
1070
     0
1000
MTEXTEND
  0
MTEXT
  5
E9CD
102
{ACAD_REACTORS
330
E9DC
102
}
330
1F
100
AcDbEntity
  8
0
  6
Continuous
 62
     5
370
    35
100
AcDbMText
 10
740.971247442415
 20
160.5538554514222
 30
0.0
 40
2.5
 41
0.0
 71
     7
 72
     5
  1
-
 73
     1
 44
1.0
1001
PHOENIX7010
1002
{
1070
    41
1040
1.0
1002
}
1001
ACAD
1000
MTEXTBEGIN
1070
    73
1070
     1
1070
    44
1040
1.0
1070
    74
1070
     0
1000
MTEXTEND
  0
MTEXT
  5
E9CE
102
{ACAD_REACTORS
330
E9DC
102
}
330
1F
100
AcDbEntity
  8
0
  6
Continuous
 62
     5
370
    35
100
AcDbMText
 10
760.7913305013807
 20
156.4483496090741
 30
0.0
 40
2.5
 41
0.0
 71
     7
 72
     5
  1
{\Q20;AL}
 73
     1
 44
1.0
1001
PHOENIX7010
1002
{
1070
    41
1040
1.0
1002
}
1001
ACAD
1000
MTEXTBEGIN
1070
    73
1070
     1
1070
    44
1040
1.0
1070
    74
1070
     0
1000
MTEXTEND
  0
MTEXT
  5
E9CF
102
{ACAD_REACTORS
330
E9DC
102
}
330
1F
100
AcDbEntity
  8
0
  6
Continuous
 62
     5
370
    35
100
AcDbMText
 10
740.971247442415
 20
152.1994932222068
 30
0.0
 40
2.5
 41
0.0
 71
     7
 72
     5
  1
{\Q20;-}
 73
     1
 44
1.0
1001
PHOENIX7010
1002
{
1070
    41
1040
1.0
1002
}
1001
ACAD
1000
MTEXTBEGIN
1070
    73
1070
     1
1070
    44
1040
1.0
1070
    74
1070
     0
1000
MTEXTEND
  0
MTEXT
  5
E9D0
102
{ACAD_REACTORS
330
E9DC
102
}
330
1F
100
AcDbEntity
  8
0
  6
Continuous
 62
     5
370
    35
100
AcDbMText
 10
740.2942762589884
 20
156.406039963679
 30
0.0
 40
2.5
 41
0.0
 71
     7
 72
     5
  1
{\Q20;\C1;Material:}
 73
     1
 44
1.0
1001
PHOENIX7010
1002
{
1070
    41
1040
1.0
1002
}
1001
ACAD
1000
MTEXTBEGIN
1070
    73
1070
     1
1070
    44
1040
1.0
1070
    74
1070
     0
1000
MTEXTEND
  0
MTEXT
  5
E9D1
102
{ACAD_REACTORS
330
E9DC
102
}
330
1F
100
AcDbEntity
  8
0
  6
Continuous
 62
     5
370
    35
100
AcDbMText
 10
740.2942762589884
 20
172.2466907925512
 30
0.0
 40
2.5
 41
0.0
 71
     7
 72
     5
  1
{\C1;Artikel-Nr./\P\Q20;Art-No.:}
 73
     1
 44
1.0
1001
PHOENIX7010
1002
{
1070
    41
1040
1.0
1002
}
1001
ACAD
1000
MTEXTBEGIN
1070
    73
1070
     1
1070
    44
1040
1.0
1070
    74
1070
     0
1000
MTEXTEND
  0
MTEXT
  5
E9D2
102
{ACAD_REACTORS
330
E9DC
102
}
330
1F
100
AcDbEntity
  8
0
  6
Continuous
 62
     5
370
    35
100
AcDbMText
 10
764.8410013521215
 20
172.4665922501284
 30
0.0
 40
5.0
 41
0.0
 71
     7
 72
     5
  1
{\C7;-}
 73
     1
 44
1.0
1001
PHOENIX7010
1002
{
1070
    41
1040
1.0
1002
}
1001
ACAD
1000
MTEXTBEGIN
1070
    73
1070
     1
1070
    44
1040
1.0
1070
    74
1070
     0
1000
MTEXTEND
  0
INSERT
  5
E9D3
102
{ACAD_REACTORS
330
E9DC
102
}
330
1F
100
AcDbEntity
  8
0
  6
Continuous
 62
     5
370
    35
100
AcDbBlockReference
  2
PH_GRPBLK
 10
735.9999999999997
 20
37.50000000000011
 30
0.0
1001
PHOENIX7010
1002
{
1070
    41
1040
1.0
1002
}
  0
MTEXT
  5
E9D4
102
{ACAD_REACTORS
330
E9DC
102
}
330
1F
100
AcDbEntity
  8
0
  6
Continuous
 62
     5
370
    35
100
AcDbMText
 10
739.9304981780733
 20
89.18090043987115
 30
0.0
 40
4.0
 41
0.0
 71
     7
 72
     5
  1
{\C7;A 130}
 73
     1
 44
1.0
1001
PHOENIX7010
1002
{
1070
    41
1040
1.0
1002
}
1001
ACAD
1000
MTEXTBEGIN
1070
    73
1070
     1
1070
    44
1040
1.0
1070
    74
1070
     0
1000
MTEXTEND
  0
MTEXT
  5
E9D5
102
{ACAD_REACTORS
330
E9DC
102
}
330
1F
100
AcDbEntity
  8
0
  6
Continuous
 62
     5
370
    35
100
AcDbMText
 10
739.9304981780733
 20
82.18090043987116
 30
0.0
 40
4.0
 41
0.0
 71
     7
 72
     5
  1
{\C7;GRUNDZEICHNUNG/\Q20;Basic drawing}
 73
     1
 44
1.0
1001
PHOENIX7010
1002
{
1070
    41
1040
1.0
1002
}
1001
ACAD
1000
MTEXTBEGIN
1070
    73
1070
     1
1070
    44
1040
1.0
1070
    74
1070
     0
1000
MTEXTEND
  0
MTEXT
  5
E9D6
102
{ACAD_REACTORS
330
E9DC
102
}
330
1F
100
AcDbEntity
  8
0
  6
Continuous
 62
     5
370
    35
100
AcDbMText
 10
739.9304981780733
 20
75.18090043987115
 30
0.0
 40
4.0
 41
0.0
 71
     7
 72
     5
  1
{\C7;-}
 73
     1
 44
1.0
1001
PHOENIX7010
1002
{
1070
    41
1040
1.0
1002
}
1001
ACAD
1000
MTEXTBEGIN
1070
    73
1070
     1
1070
    44
1040
1.0
1070
    74
1070
     0
1000
MTEXTEND
  0
ENDSEC
  0
SECTION
  2
OBJECTS
  0
DICTIONARY
  5
C
330
0
100
AcDbDictionary
281
     1
  3
ACAD_COLOR
350
C26B
  3
ACAD_GROUP
350
D
  3
ACAD_LAYOUT
350
1A
  3
ACAD_MATERIAL
350
C26A
  3
ACAD_MLEADERSTYLE
350
E770
  3
ACAD_MLINESTYLE
350
17
  3
ACAD_PLOTSETTINGS
350
19
  3
ACAD_PLOTSTYLENAME
350
E
  3
ACAD_SCALELIST
350
E75E
  3
ACAD_TABLESTYLE
350
C44D
  3
ACAD_VISUALSTYLE
350
E686
  3
ACDB_RECOMPOSE_DATA
350
EA2F
  3
AcDbVariableDictionary
350
3761
  3
DWGPROPS
350
EA30
  3
PH_OBJREACTOR_DICT
350
49
  3
PH_ROOTGROUP_DICT
350
4A
  3
PH_VARS
350
4B
  0
DICTIONARY
  5
E65A
330
2
100
AcDbDictionary
280
     1
281
     1
  3
ACAD_LAYERFILTERS
360
E65C
  3
ACAD_LAYERSTATES
360
E832
  3
ACLYDICTIONARY
360
E65B
  0
DICTIONARY
  5
E9E2
330
10
100
AcDbDictionary
280
     1
281
     1
  3
ADSK_XREC_LAYER_RECONCILED
360
E9E3
  0
DICTIONARY
  5
E9E4
330
E658
100
AcDbDictionary
280
     1
281
     1
  3
ADSK_XREC_LAYER_RECONCILED
360
E9E5
  0
DICTIONARY
  5
E9E6
330
E6B6
100
AcDbDictionary
280
     1
281
     1
  3
ADSK_XREC_LAYER_RECONCILED
360
E9E7
  0
DICTIONARY
  5
E635
330
1F
100
AcDbDictionary
280
     1
281
     1
  3
ACAD_SORTENTS
360
E636
  0
DICTIONARY
  5
EA2D
330
E97E
100
AcDbDictionary
280
     1
281
     1
  3
ACAD_MTEXT_2008_RT
360
EA2E
  0
DICTIONARY
  5
C26B
102
{ACAD_REACTORS
330
C
102
}
330
C
100
AcDbDictionary
281
     1
  0
DICTIONARY
  5
D
102
{ACAD_REACTORS
330
C
102
}
330
C
100
AcDbDictionary
281
     1
  3
*A1
350
9D8
  3
*A2
350
25B3
  3
*A3
350
4553
  3
*A4
350
82F4
  3
*A5
350
843D
  0
DICTIONARY
  5
1A
102
{ACAD_REACTORS
330
C
102
}
330
C
100
AcDbDictionary
281
     1
  3
Layout1
350
1E
  3
Layout2
350
26
  3
Model
350
22
  0
DICTIONARY
  5
C26A
102
{ACAD_REACTORS
330
C
102
}
330
C
100
AcDbDictionary
281
     1
  3
ByBlock
350
E684
  3
ByLayer
350
E683
  3
Global
350
E685
  0
DICTIONARY
  5
E770
102
{ACAD_REACTORS
330
C
102
}
330
C
100
AcDbDictionary
281
     1
  3
Standard
350
E771
  0
DICTIONARY
  5
17
102
{ACAD_REACTORS
330
C
102
}
330
C
100
AcDbDictionary
281
     1
  3
Standard
350
18
  0
DICTIONARY
  5
19
102
{ACAD_REACTORS
330
C
102
}
330
C
100
AcDbDictionary
281
     1
  0
ACDBDICTIONARYWDFLT
  5
E
102
{ACAD_REACTORS
330
C
102
}
330
C
100
AcDbDictionary
281
     1
  3
Normal
350
F
100
AcDbDictionaryWithDefault
340
F
  0
DICTIONARY
  5
E75E
102
{ACAD_REACTORS
330
C
102
}
330
C
100
AcDbDictionary
281
     1
  3
A0
350
E75F
  3
A1
350
E760
  3
A2
350
E761
  3
A3
350
E762
  3
A4
350
E763
  3
A5
350
E764
  3
A6
350
E765
  3
A7
350
E766
  3
A8
350
E767
  3
A9
350
E768
  3
B0
350
E769
  3
B1
350
E76A
  3
B2
350
E76B
  3
B3
350
E76C
  3
B4
350
E76D
  3
B5
350
E76E
  3
B6
350
E76F
  0
DICTIONARY
  5
C44D
102
{ACAD_REACTORS
330
C
102
}
330
C
100
AcDbDictionary
281
     1
  3
Standard
350
C44E
  0
DICTIONARY
  5
E686
102
{ACAD_REACTORS
330
C
102
}
330
C
100
AcDbDictionary
281
     1
  3
2dWireframe
350
E68C
  3
3D Hidden
350
E68E
  3
3dWireframe
350
E68D
  3
Basic
350
E68B
  3
Brighten
350
E692
  3
ColorChange
350
E696
  3
Conceptual
350
E68F
  3
Dim
350
E691
  3
EdgeColorOff
350
E75D
  3
Facepattern
350
E695
  3
Flat
350
E687
  3
FlatWithEdges
350
E688
  3
Gouraud
350
E689
  3
GouraudWithEdges
350
E68A
  3
JitterOff
350
E75B
  3
Linepattern
350
E694
  3
OverhangOff
350
E75C
  3
Realistic
350
E690
  3
Thicken
350
E693
  0
XRECORD
  5
EA2F
102
{ACAD_REACTORS
330
C
102
}
330
C
100
AcDbXrecord
280
     1
 90
        1
330
C44E
330
E97E
  0
DICTIONARY
  5
3761
102
{ACAD_REACTORS
330
C
102
}
330
C
100
AcDbDictionary
281
     1
  3
CANNOSCALE
350
EA1F
  3
CMLEADERSTYLE
350
EA1D
  3
CTABLESTYLE
350
C6F3
  3
DIMASSOC
350
3762
  3
INDEXCTL
350
EA2A
  3
LAYEREVAL
350
EA21
  3
LAYERNOTIFY
350
EA22
  3
LIGHTINGUNITS
350
EA20
  3
MSLTSCALE
350
EA1E
  3
PROJECTNAME
350
C44B
  3
SORTENTS
350
EA29
  3
XCLIPFRAME
350
EA2B
  0
XRECORD
  5
EA30
102
{ACAD_REACTORS
330
C
102
}
330
C
100
AcDbXrecord
280
     1
  1
DWGPROPS COOKIE
  2

  3

  4

  6

  7

  8
nowak
  9

300
=
301
=
302
=
303
=
304
=
305
=
306
=
307
=
308
=
309
=
 40
0.9167224421296296
 41
2452842.567244873
 42
2455905.372018727
  1

 90
        0
  0
DICTIONARY
  5
49
102
{ACAD_REACTORS
330
C
102
}
330
C
100
AcDbDictionary
281
     1
  3
*A1
350
9C38
  3
*A10
350
A5D4
  3
*A11
350
956D
  3
*A12
350
9E35
  3
*A13
350
956E
  3
*A2
350
956F
  3
*A3
350
A5D2
  3
*A4
350
D1AB
  3
*A5
350
D1AC
  3
*A6
350
9C37
  3
*A7
350
A5D3
  3
*A8
350
9E36
  3
*A9
350
9E37
  0
DICTIONARY
  5
4A
102
{ACAD_REACTORS
330
C
102
}
330
C
100
AcDbDictionary
281
     1
  3
$PH$AAAM1-2
350
7F20
  3
$PH$AACD1H
350
E78A
  3
$PH$AACJSchriftfeld-Grund-Bearb
350
E9D7
  3
PH_GRPMEMBERS
350
394C
  0
PH_VARS
  5
4B
102
{ACAD_REACTORS
330
C
102
}
330
C
  0
DICTIONARY
  5
E65C
102
{ACAD_REACTORS
330
E65A
102
}
330
E65A
100
AcDbDictionary
281
     1
  0
DICTIONARY
  5
E832
102
{ACAD_REACTORS
330
E65A
102
}
330
E65A
100
AcDbDictionary
281
     1
  0
DICTIONARY
  5
E65B
102
{ACAD_REACTORS
330
E65A
102
}
330
E65A
100
AcDbDictionary
281
     1
1001
ACAD
1000
<All
  0
XRECORD
  5
E9E3
102
{ACAD_REACTORS
330
E9E2
102
}
330
E9E2
100
AcDbXrecord
280
     1
290
     1
  0
XRECORD
  5
E9E5
102
{ACAD_REACTORS
330
E9E4
102
}
330
E9E4
100
AcDbXrecord
280
     1
290
     1
  0
XRECORD
  5
E9E7
102
{ACAD_REACTORS
330
E9E6
102
}
330
E9E6
100
AcDbXrecord
280
     1
290
     1
  0
SORTENTSTABLE
  5
E636
102
{ACAD_REACTORS
330
E635
102
}
330
E635
100
AcDbSortentsTable
330
1F
331
805C
  5
9C5D
331
7DEC
  5
7DED
331
8058
  5
805B
331
7DAD
  5
7DAE
331
7CEE
  5
7CEF
331
8054
  5
8057
331
8019
  5
801C
331
7DA9
  5
7DAA
331
7CEA
  5
7CEB
331
7DE4
  5
7DE6
331
8050
  5
8053
331
7FD6
  5
7FDB
331
8015
  5
8018
331
7F1F
  5
7FA8
331
7CE6
  5
7CE7
331
7DA5
  5
7DA6
331
804C
  5
804F
331
8011
  5
8014
331
7CE2
  5
7CE3
331
7DA1
  5
7DA2
331
8048
  5
804B
331
8009
  5
800C
331
7CDE
  5
7CDF
331
7D9D
  5
7D9E
331
8044
  5
8047
331
7FCA
  5
7FCC
331
7CDA
  5
7CDA
331
7E13
  5
7E14
331
A3FA
  5
C6FA
331
8040
  5
8043
331
8005
  5
8008
331
7E0F
  5
7E10
331
7CD6
  5
7CD6
331
803C
  5
803F
331
8001
  5
8004
331
7D91
  5
7D92
331
7CD2
  5
7CD2
331
7E0B
  5
7E0C
331
7FFD
  5
8000
331
7D8D
  5
7D8E
331
7E07
  5
7E08
331
7DC8
  5
7DC9
331
7CCE
  5
7CCE
331
8034
  5
8037
331
7FF9
  5
7FFC
331
7D89
  5
7D8A
331
7CCA
  5
7CCA
331
7E03
  5
7E04
331
7DC4
  5
7DC5
331
8030
  5
8035
331
7DC0
  5
7DC1
331
7FB6
  5
7FB8
331
7FF5
  5
7FF8
331
7FF1
  5
7FF4
331
7D85
  5
7D89
331
802C
  5
802F
331
7FB2
  5
7FB3
331
7FED
  5
7FEF
331
7FAE
  5
7FAF
331
7DBC
  5
7DBD
331
7DFB
  5
7DFC
331
8028
  5
802C
331
7FE9
  5
7FEB
331
7DB8
  5
7DB9
331
7DF7
  5
7DF8
331
8024
  5
8027
331
7FAA
  5
7FAC
331
7D79
  5
7D84
331
8020
  5
8023
331
7DB0
  5
7DB7
331
BC51
  5
C6FB
331
7DEF
  5
7DF0
331
805B
  5
9A16
331
7FE1
  5
7FE8
331
801C
  5
8021
331
7FDD
  5
7FE1
331
7DEB
  5
7DEC
331
8057
  5
805A
331
7DAC
  5
7DAD
331
8053
  5
8056
331
8018
  5
801B
331
7CE9
  5
7CEA
331
7DA8
  5
7DA9
331
8014
  5
8017
331
7FD5
  5
7FD7
331
9A16
  5
BC51
331
804F
  5
8052
331
7DA4
  5
7DA5
331
7F1E
  5
7F1F
331
7DDF
  5
7DE1
331
7CE5
  5
7CE6
331
804B
  5
804E
331
8010
  5
8013
331
800C
  5
8010
331
7DA0
  5
7DA1
331
7CE1
  5
7CE2
331
8047
  5
804A
331
7D9C
  5
7D9D
331
7CDD
  5
7CDD
331
8043
  5
8046
331
7FC9
  5
7FCA
331
8008
  5
800B
331
7D98
  5
7D9B
331
7CD9
  5
7CD9
331
7E12
  5
7E13
331
7DD3
  5
7DD5
331
7FC5
  5
7FC7
331
803F
  5
8042
331
8004
  5
8007
331
7E0E
  5
7E0F
331
7CD5
  5
7CD5
331
7D94
  5
7D96
331
803B
  5
803E
331
8000
  5
8003
331
D1D9
  5
E638
331
7FFC
  5
7FFF
331
7D90
  5
7D91
331
7DCB
  5
7DD3
331
8037
  5
803B
331
7DC7
  5
7DC8
331
7CCD
  5
7CCD
331
7D8C
  5
7D8D
331
7FF8
  5
7FFB
331
7CC9
  5
7CC9
331
7E02
  5
7E03
331
7DC3
  5
7DC4
331
9C5D
  5
C6F9
331
D1D5
  5
E637
331
D1D1
  5
E634
331
7FF4
  5
7FF7
331
7FB5
  5
7FB6
331
802F
  5
8034
331
7D84
  5
7D85
331
7DFE
  5
7E01
331
7DBF
  5
7DC0
331
7CC5
  5
7CC5
331
802B
  5
802E
331
7FF0
  5
7FF3
331
7FAD
  5
7FAE
331
7DFA
  5
7DFB
331
7DBB
  5
7DBC
331
8027
  5
802B
331
7FEC
  5
7FEE
331
7DB7
  5
7DB8
331
8023
  5
8026
331
7FA9
  5
7FAA
331
7FE8
  5
7FEA
331
7D78
  5
7D79
331
7DF2
  5
7DF5
331
805A
  5
9329
331
801F
  5
8022
331
CAB1
  5
D1D9
331
7DEE
  5
7DEF
331
7FDC
  5
7FDF
331
8056
  5
8059
331
801B
  5
8020
331
7DAF
  5
7DB0
331
7DEA
  5
7DEB
331
8052
  5
8055
331
7DE6
  5
7DE9
331
7DAB
  5
7DAC
331
7CE8
  5
7CE9
331
7DE2
  5
7DE3
331
8017
  5
801A
331
8013
  5
8016
331
7FD4
  5
7FD6
331
804E
  5
8051
331
7DA7
  5
7DA8
331
804A
  5
804D
331
800F
  5
8012
331
7CE4
  5
7CE5
331
7DA3
  5
7DA4
331
800B
  5
800F
331
7FCC
  5
7FD4
331
8046
  5
8049
331
7CE0
  5
7CE1
331
7D9F
  5
7DA0
331
8042
  5
8045
331
7FC8
  5
7FC9
331
7D9B
  5
7D9C
331
7CDC
  5
7CDC
331
7E11
  5
7E12
331
8007
  5
800A
331
8003
  5
8006
331
803E
  5
8041
331
7D97
  5
7D98
331
803A
  5
803D
331
7FFF
  5
8002
331
7D93
  5
7D94
331
7E0D
  5
7E0E
331
7CD4
  5
7CD4
331
7FBC
  5
7FBF
331
8036
  5
803A
331
7FFB
  5
7FFE
331
7D8F
  5
7D90
331
7E09
  5
7E0A
331
7DCA
  5
7DCB
331
9329
  5
A3FA
331
8032
  5
8036
331
7FB8
  5
7FBC
331
7D8B
  5
7D8C
331
7E05
  5
7E07
331
7DC6
  5
7DC7
331
7CCC
  5
7CCC
331
7CC8
  5
7CC8
331
7E01
  5
7E02
331
7DC2
  5
7DC3
331
7FF7
  5
7FFA
331
7FF3
  5
7FF6
331
802E
  5
8032
331
7FEF
  5
7FF2
331
7DBE
  5
7DBF
331
7DFD
  5
7DFE
331
7CC4
  5
7CC4
331
7FEB
  5
7FED
331
7FAC
  5
7FAD
331
8026
  5
8029
331
8022
  5
8025
331
7FA8
  5
7FA9
331
7DF5
  5
7DF6
331
7DF1
  5
7DF2
331
7D77
  5
7D78
331
7FE3
  5
7FE9
331
7DED
  5
7DEE
331
8059
  5
805C
331
7FDF
  5
7FE3
331
801A
  5
801F
331
7FDB
  5
7FDD
331
7CEF
  5
7D77
331
7DE9
  5
7DEA
331
7DAE
  5
7DAF
331
8055
  5
8058
331
7CEB
  5
7CEE
331
7DAA
  5
7DAB
331
8051
  5
8054
331
7DE1
  5
7DE2
331
8016
  5
8019
331
7FD7
  5
7FDC
331
8012
  5
8015
331
7DA6
  5
7DA7
331
7CE7
  5
7CE8
331
804D
  5
8050
331
7DA2
  5
7DA3
331
7CE3
  5
7CE4
331
8049
  5
804C
331
7FCF
  5
7FD5
331
800E
  5
8011
331
7FCB
  5
7FCF
331
7D9E
  5
7D9F
331
7CDF
  5
7CE0
331
8045
  5
8048
331
800A
  5
800E
331
7E14
  5
7F1E
331
7DD5
  5
7DDF
331
7CDB
  5
7CDB
331
8041
  5
8044
331
7E10
  5
7E11
331
7FC7
  5
7FC8
331
8006
  5
8009
331
8002
  5
8005
331
7CD7
  5
7CD7
331
7D96
  5
7D97
331
803D
  5
8040
331
7FFE
  5
8001
331
7CD3
  5
7CD3
331
7D92
  5
7D93
331
8039
  5
803C
331
7FBF
  5
7FC5
331
7FFA
  5
7FFD
331
7CCF
  5
7CCF
331
7DC9
  5
7DCA
331
7E08
  5
7E09
331
7D8E
  5
7D8F
331
8035
  5
8039
331
7D8A
  5
7D8B
331
7DC5
  5
7DC6
331
7E04
  5
7E05
331
7CCB
  5
7CCB
331
7DC1
  5
7DC2
331
7FF6
  5
7FF9
331
7FF2
  5
7FF5
331
7FB3
  5
7FB5
331
802D
  5
8030
331
7FEE
  5
7FF0
331
7DFC
  5
7DFD
331
7DBD
  5
7DBE
331
7CC3
  5
7CC3
331
8029
  5
802D
331
7FAF
  5
7FB2
331
7FEA
  5
7FEC
331
7DF8
  5
7DFA
331
7DB9
  5
7DBB
331
8025
  5
8028
331
8021
  5
8024
331
7DF0
  5
7DF1
  0
XRECORD
  5
EA2E
102
{ACAD_REACTORS
330
EA2D
102
}
330
EA2D
100
AcDbXrecord
280
     1
 40
46997.0
  1
\pxql;{\fArial|b1|i0|c0|p34;\W1.1;BOPLA}
  0
GROUP
  5
9D8
102
{ACAD_REACTORS
330
D
102
}
330
D
100
AcDbGroup
300

 70
     0
 71
     0
  0
GROUP
  5
25B3
102
{ACAD_REACTORS
330
D
102
}
330
D
100
AcDbGroup
300

 70
     0
 71
     0
  0
GROUP
  5
4553
102
{ACAD_REACTORS
330
D
102
}
330
D
100
AcDbGroup
300

 70
     0
 71
     0
  0
GROUP
  5
82F4
102
{ACAD_REACTORS
330
D
102
}
330
D
100
AcDbGroup
300

 70
     0
 71
     0
  0
GROUP
  5
843D
102
{ACAD_REACTORS
330
D
102
}
330
D
100
AcDbGroup
300

 70
     0
 71
     0
  0
LAYOUT
  5
1E
102
{ACAD_XDICTIONARY
360
EA31
102
}
102
{ACAD_REACTORS
330
1A
102
}
330
1A
100
AcDbPlotSettings
  1

  2

  4

  6

 40
0.0
 41
0.0
 42
0.0
 43
0.0
 44
0.0
 45
0.0
 46
0.0
 47
0.0
 48
0.0
 49
0.0
140
0.0
141
0.0
142
1.0
143
1.0
 70
   688
 72
     0
 73
     0
 74
     5
  7
HP_SW.ctb
 75
    16
147
1.0
148
0.0
149
0.0
100
AcDbLayout
  1
Layout1
 70
     1
 71
     1
 10
0.0
 20
0.0
 11
420.0
 21
297.0
 12
0.0
 22
0.0
 32
0.0
 14
1.000000000000000E+20
 24
1.000000000000000E+20
 34
1.000000000000000E+20
 15
-1.000000000000000E+20
 25
-1.000000000000000E+20
 35
-1.000000000000000E+20
146
0.0
 13
0.0
 23
0.0
 33
0.0
 16
1.0
 26
0.0
 36
0.0
 17
0.0
 27
1.0
 37
0.0
 76
     0
330
1B
  0
LAYOUT
  5
26
102
{ACAD_XDICTIONARY
360
EA34
102
}
102
{ACAD_REACTORS
330
1A
102
}
330
1A
100
AcDbPlotSettings
  1

  2

  4

  6

 40
0.0
 41
0.0
 42
0.0
 43
0.0
 44
0.0
 45
0.0
 46
0.0
 47
0.0
 48
0.0
 49
0.0
140
0.0
141
0.0
142
1.0
143
1.0
 70
   688
 72
     0
 73
     0
 74
     5
  7
HP_SW.ctb
 75
    16
147
1.0
148
0.0
149
0.0
100
AcDbLayout
  1
Layout2
 70
     1
 71
     2
 10
0.0
 20
0.0
 11
12.0
 21
9.0
 12
0.0
 22
0.0
 32
0.0
 14
0.0
 24
0.0
 34
0.0
 15
0.0
 25
0.0
 35
0.0
146
0.0
 13
0.0
 23
0.0
 33
0.0
 16
1.0
 26
0.0
 36
0.0
 17
0.0
 27
1.0
 37
0.0
 76
     0
330
23
  0
LAYOUT
  5
22
102
{ACAD_XDICTIONARY
360
E9EF
102
}
102
{ACAD_REACTORS
330
1A
102
}
330
1A
100
AcDbPlotSettings
  1

  2
HP 500
  4
User1644
  6

 40
0.0
 41
0.0
 42
0.0
 43
0.0
 44
594.0
 45
420.0
 46
0.0
 47
0.2282996432818152
 48
0.0
 49
0.0
140
0.0
141
0.0
142
1.0
143
1.415824915824915
 70
 11956
 72
     1
 73
     0
 74
     2
  7
HP_SW.ctb
 75
     0
147
0.7063020214030916
148
0.0
149
0.0
100
AcDbLayout
  1
Model
 70
     1
 71
     0
 10
0.0
 20
0.0
 11
12.0
 21
9.0
 12
0.0
 22
0.0
 32
0.0
 14
0.0
 24
0.0
 34
0.0
 15
0.0
 25
0.0
 35
0.0
146
0.0
 13
0.0
 23
0.0
 33
0.0
 16
1.0
 26
0.0
 36
0.0
 17
0.0
 27
1.0
 37
0.0
 76
     0
330
1F
331
E681
1001
ACAD_PSEXT
1000
HP 500
1000
HP DesignJet 500 42+HPGL2 Card
1000
IP_194.175.253.141
1000

1070
     0
  0
MATERIAL
  5
E684
102
{ACAD_XDICTIONARY
360
EA39
102
}
102
{ACAD_REACTORS
330
C26A
102
}
330
C26A
100
AcDbMaterial
  1
ByBlock
 73
     1
 78
     1
172
     1
176
     1
270
     1
274
     1
  0
MATERIAL
  5
E683
102
{ACAD_XDICTIONARY
360
EA37
102
}
102
{ACAD_REACTORS
330
C26A
102
}
330
C26A
100
AcDbMaterial
  1
ByLayer
 73
     1
 78
     1
172
     1
176
     1
270
     1
274
     1
  0
MATERIAL
  5
E685
102
{ACAD_XDICTIONARY
360
EA3B
102
}
102
{ACAD_REACTORS
330
C26A
102
}
330
C26A
100
AcDbMaterial
  1
Global
 73
     1
 78
     1
172
     1
176
     1
270
     1
274
     1
  0
MLEADERSTYLE
  5
E771
102
{ACAD_REACTORS
330
E770
102
}
330
E770
100
AcDbMLeaderStyle
170
     2
171
     1
172
     0
 90
        2
 40
0.0
 41
0.0
173
     1
 91
-1056964608
340
14
 92
       -2
290
     1
 42
2.0
291
     1
 43
0.36
  3
Standard
 44
4.0
300

342
11
174
     1
178
     6
175
     1
176
     0
 93
-1056964608
 45
4.0
292
     0
297
     0
 46
4.0
 94
-1056964608
 47
1.0
 49
1.0
140
1.0
293
     1
141
0.0
294
     1
177
     0
142
1.0
295
     0
296
     0
143
0.125
1001
ACAD_MLEADERVER
1070
     2
  0
MLINESTYLE
  5
18
102
{ACAD_REACTORS
330
17
102
}
330
17
100
AcDbMlineStyle
  2
STANDARD
 70
     0
  3

 62
   256
 51
90.0
 52
90.0
 71
     2
 49
0.5
 62
   256
  6
BYLAYER
 49
-0.5
 62
   256
  6
BYLAYER
  0
ACDBPLACEHOLDER
  5
F
102
{ACAD_REACTORS
330
E
102
}
330
E
  0
SCALE
  5
E75F
102
{ACAD_REACTORS
330
E75E
102
}
330
E75E
100
AcDbScale
 70
     0
300
1:1
140
1.0
141
1.0
290
     1
  0
SCALE
  5
E760
102
{ACAD_REACTORS
330
E75E
102
}
330
E75E
100
AcDbScale
 70
     0
300
1:2
140
1.0
141
2.0
290
     0
  0
SCALE
  5
E761
102
{ACAD_REACTORS
330
E75E
102
}
330
E75E
100
AcDbScale
 70
     0
300
1:4
140
1.0
141
4.0
290
     0
  0
SCALE
  5
E762
102
{ACAD_REACTORS
330
E75E
102
}
330
E75E
100
AcDbScale
 70
     0
300
1:5
140
1.0
141
5.0
290
     0
  0
SCALE
  5
E763
102
{ACAD_REACTORS
330
E75E
102
}
330
E75E
100
AcDbScale
 70
     0
300
1:8
140
1.0
141
8.0
290
     0
  0
SCALE
  5
E764
102
{ACAD_REACTORS
330
E75E
102
}
330
E75E
100
AcDbScale
 70
     0
300
1:10
140
1.0
141
10.0
290
     0
  0
SCALE
  5
E765
102
{ACAD_REACTORS
330
E75E
102
}
330
E75E
100
AcDbScale
 70
     0
300
1:16
140
1.0
141
16.0
290
     0
  0
SCALE
  5
E766
102
{ACAD_REACTORS
330
E75E
102
}
330
E75E
100
AcDbScale
 70
     0
300
1:20
140
1.0
141
20.0
290
     0
  0
SCALE
  5
E767
102
{ACAD_REACTORS
330
E75E
102
}
330
E75E
100
AcDbScale
 70
     0
300
1:30
140
1.0
141
30.0
290
     0
  0
SCALE
  5
E768
102
{ACAD_REACTORS
330
E75E
102
}
330
E75E
100
AcDbScale
 70
     0
300
1:40
140
1.0
141
40.0
290
     0
  0
SCALE
  5
E769
102
{ACAD_REACTORS
330
E75E
102
}
330
E75E
100
AcDbScale
 70
     0
300
1:50
140
1.0
141
50.0
290
     0
  0
SCALE
  5
E76A
102
{ACAD_REACTORS
330
E75E
102
}
330
E75E
100
AcDbScale
 70
     0
300
1:100
140
1.0
141
100.0
290
     0
  0
SCALE
  5
E76B
102
{ACAD_REACTORS
330
E75E
102
}
330
E75E
100
AcDbScale
 70
     0
300
2:1
140
2.0
141
1.0
290
     0
  0
SCALE
  5
E76C
102
{ACAD_REACTORS
330
E75E
102
}
330
E75E
100
AcDbScale
 70
     0
300
4:1
140
4.0
141
1.0
290
     0
  0
SCALE
  5
E76D
102
{ACAD_REACTORS
330
E75E
102
}
330
E75E
100
AcDbScale
 70
     0
300
8:1
140
8.0
141
1.0
290
     0
  0
SCALE
  5
E76E
102
{ACAD_REACTORS
330
E75E
102
}
330
E75E
100
AcDbScale
 70
     0
300
10:1
140
10.0
141
1.0
290
     0
  0
SCALE
  5
E76F
102
{ACAD_REACTORS
330
E75E
102
}
330
E75E
100
AcDbScale
 70
     0
300
100:1
140
100.0
141
1.0
290
     0
  0
TABLESTYLE
  5
C44E
102
{ACAD_XDICTIONARY
360
E9F1
102
}
102
{ACAD_REACTORS
330
C44D
102
}
330
C44D
100
AcDbTableStyle
  3
Standard
 70
     0
 71
     0
 40
1.5
 41
1.5
280
     0
281
     0
  7
Standard
140
4.5
170
     2
 62
     0
 63
     7
283
     0
274
    -2
284
     1
 64
     0
275
    -2
285
     1
 65
     0
276
    -2
286
     1
 66
     0
277
    -2
287
     1
 67
     0
278
    -2
288
     1
 68
     0
279
    -2
289
     1
 69
     0
  7
Standard
140
6.0
170
     5
 62
     0
 63
     7
283
     0
274
    -2
284
     1
 64
     0
275
    -2
285
     1
 65
     0
276
    -2
286
     1
 66
     0
277
    -2
287
     1
 67
     0
278
    -2
288
     1
 68
     0
279
    -2
289
     1
 69
     0
  7
Standard
140
4.5
170
     5
 62
     0
 63
     7
283
     0
274
    -2
284
     1
 64
     0
275
    -2
285
     1
 65
     0
276
    -2
286
     1
 66
     0
277
    -2
287
     1
 67
     0
278
    -2
288
     1
 68
     0
279
    -2
289
     1
 69
     0
  0
VISUALSTYLE
  5
E68C
102
{ACAD_XDICTIONARY
360
EA47
102
}
102
{ACAD_REACTORS
330
E686
102
}
330
E686
100
AcDbVisualStyle
  2
2dWireframe
 70
     4
 71
     0
 72
     2
 73
     0
 90
        0
 40
-0.6
 41
-30.0
 62
     5
 63
     7
 74
     1
 91
        4
 64
     7
 65
   257
 75
     1
175
     1
 42
1.0
 92
        0
 66
   257
 43
1.0
 76
     1
 77
     6
 78
     2
 67
     7
 79
     5
170
     0
171
     0
290
     0
174
     0
 93
        1
 44
0.0
173
     0
291
     0
 45
0.0
1001
ACAD
1000
AcDbSavedByObjectVersion
1070
     0
  0
VISUALSTYLE
  5
E68E
102
{ACAD_XDICTIONARY
360
EA4B
102
}
102
{ACAD_REACTORS
330
E686
102
}
330
E686
100
AcDbVisualStyle
  2
3D Hidden
 70
     6
 71
     1
 72
     2
 73
     2
 90
        0
 40
-0.6
 41
-30.0
 62
     5
 63
     7
 74
     2
 91
        2
 64
     7
 65
   257
 75
     2
175
     1
 42
40.0
 92
        0
 66
   257
 43
1.0
 76
     1
 77
     6
 78
     2
 67
     7
 79
     3
170
     0
171
     0
290
     0
174
     0
 93
        1
 44
0.0
173
     0
291
     0
 45
0.0
1001
ACAD
1000
AcDbSavedByObjectVersion
1070
     0
  0
VISUALSTYLE
  5
E68D
102
{ACAD_XDICTIONARY
360
EA49
102
}
102
{ACAD_REACTORS
330
E686
102
}
330
E686
100
AcDbVisualStyle
  2
3dWireframe
 70
     5
 71
     0
 72
     2
 73
     0
 90
        0
 40
-0.6
 41
-30.0
 62
     5
 63
     7
 74
     1
 91
        4
 64
     7
 65
   257
 75
     1
175
     1
 42
1.0
 92
        0
 66
   257
 43
1.0
 76
     1
 77
     6
 78
     2
 67
     7
 79
     5
170
     0
171
     0
290
     0
174
     0
 93
        1
 44
0.0
173
     0
291
     0
 45
0.0
1001
ACAD
1000
AcDbSavedByObjectVersion
1070
     0
  0
VISUALSTYLE
  5
E68B
102
{ACAD_XDICTIONARY
360
EA45
102
}
102
{ACAD_REACTORS
330
E686
102
}
330
E686
100
AcDbVisualStyle
  2
Basic
 70
     7
 71
     1
 72
     0
 73
     1
 90
        0
 40
-0.6
 41
-30.0
 62
     5
 63
     7
 74
     0
 91
        4
 64
     7
 65
   257
 75
     1
175
     1
 42
1.0
 92
        8
 66
     7
 43
1.0
 76
     1
 77
     6
 78
     2
 67
     7
 79
     5
170
     0
171
     0
290
     0
174
     0
 93
        1
 44
0.0
173
     0
291
     1
 45
0.0
1001
ACAD
1000
AcDbSavedByObjectVersion
1070
     0
  0
VISUALSTYLE
  5
E692
102
{ACAD_XDICTIONARY
360
EA53
102
}
102
{ACAD_REACTORS
330
E686
102
}
330
E686
100
AcDbVisualStyle
  2
Brighten
 70
    12
 71
     2
 72
     2
 73
     0
 90
        0
 40
-0.6
 41
-30.0
 62
     5
 63
     7
 74
     1
 91
        4
 64
     7
 65
   257
 75
     1
175
     1
 42
1.0
 92
        8
 66
     7
 43
1.0
 76
     1
 77
     6
 78
     2
 67
     7
 79
     5
170
     0
171
     0
290
     0
174
     0
 93
        1
 44
50.0
173
     0
291
     1
 45
0.0
1001
ACAD
1000
AcDbSavedByObjectVersion
1070
     0
  0
VISUALSTYLE
  5
E696
102
{ACAD_XDICTIONARY
360
EA5B
102
}
102
{ACAD_REACTORS
330
E686
102
}
330
E686
100
AcDbVisualStyle
  2
ColorChange
 70
    16
 71
     2
 72
     2
 73
     3
 90
        0
 40
-0.6
 41
-30.0
 62
     5
 63
     8
 74
     1
 91
        4
 64
     7
 65
   257
 75
     1
175
     1
 42
1.0
 92
        8
 66
     8
 43
1.0
 76
     1
 77
     6
 78
     2
 67
     7
 79
     5
170
     0
171
     0
290
     0
174
     0
 93
        1
 44
0.0
173
     0
291
     1
 45
0.0
1001
ACAD
1000
AcDbSavedByObjectVersion
1070
     0
  0
VISUALSTYLE
  5
E68F
102
{ACAD_XDICTIONARY
360
EA4D
102
}
102
{ACAD_REACTORS
330
E686
102
}
330
E686
100
AcDbVisualStyle
  2
Conceptual
 70
     9
 71
     3
 72
     2
 73
     0
 90
        0
 40
-0.6
 41
-30.0
 62
     5
 63
     7
 74
     2
 91
        2
 64
     7
 65
   257
 75
     1
175
     1
 42
40.0
 92
        8
 66
     7
 43
1.0
 76
     1
 77
     6
 78
     2
 67
     7
 79
     3
170
     0
171
     0
290
     0
174
     0
 93
        1
 44
0.0
173
     0
291
     0
 45
0.0
1001
ACAD
1000
AcDbSavedByObjectVersion
1070
     0
  0
VISUALSTYLE
  5
E691
102
{ACAD_XDICTIONARY
360
EA51
102
}
102
{ACAD_REACTORS
330
E686
102
}
330
E686
100
AcDbVisualStyle
  2
Dim
 70
    11
 71
     2
 72
     2
 73
     0
 90
        0
 40
-0.6
 41
-30.0
 62
     5
 63
     7
 74
     1
 91
        4
 64
     7
 65
   257
 75
     1
175
     1
 42
1.0
 92
        8
 66
     7
 43
1.0
 76
     1
 77
     6
 78
     2
 67
     7
 79
     5
170
     0
171
     0
290
     0
174
     0
 93
        1
 44
-50.0
173
     0
291
     1
 45
0.0
1001
ACAD
1000
AcDbSavedByObjectVersion
1070
     0
  0
VISUALSTYLE
  5
E75D
102
{ACAD_XDICTIONARY
360
EA61
102
}
102
{ACAD_REACTORS
330
E686
102
}
330
E686
100
AcDbVisualStyle
  2
EdgeColorOff
 70
    22
 71
     2
 72
     2
 73
     0
 90
        0
 40
-0.6
 41
-30.0
 62
     5
 63
     7
 74
     1
 91
        4
 64
     7
 65
   257
 75
     1
175
     1
 42
1.0
 92
        8
 66
     7
 43
1.0
 76
     1
 77
     6
 78
     2
 67
     7
 79
     5
170
     0
171
     0
290
     0
174
     0
 93
        1
 44
0.0
173
     0
291
     1
 45
0.0
1001
ACAD
1000
AcDbSavedByObjectVersion
1070
     0
  0
VISUALSTYLE
  5
E695
102
{ACAD_XDICTIONARY
360
EA59
102
}
102
{ACAD_REACTORS
330
E686
102
}
330
E686
100
AcDbVisualStyle
  2
Facepattern
 70
    15
 71
     2
 72
     2
 73
     0
 90
        0
 40
-0.6
 41
-30.0
 62
     5
 63
     7
 74
     1
 91
        4
 64
     7
 65
   257
 75
     1
175
     1
 42
1.0
 92
        8
 66
     7
 43
1.0
 76
     1
 77
     6
 78
     2
 67
     7
 79
     5
170
     0
171
     0
290
     0
174
     0
 93
        1
 44
0.0
173
     0
291
     1
 45
0.0
1001
ACAD
1000
AcDbSavedByObjectVersion
1070
     0
  0
VISUALSTYLE
  5
E687
102
{ACAD_XDICTIONARY
360
EA3D
102
}
102
{ACAD_REACTORS
330
E686
102
}
330
E686
100
AcDbVisualStyle
  2
Flat
 70
     0
 71
     2
 72
     1
 73
     1
 90
        2
 40
-0.6
 41
30.0
 62
     5
 63
     7
 74
     0
 91
        4
 64
     7
 65
   257
 75
     1
175
     1
 42
1.0
 92
        8
 66
     7
 43
1.0
 76
     1
 77
     6
 78
     2
 67
     7
 79
     5
170
     0
171
     0
290
     0
174
     0
 93
       13
 44
0.0
173
     0
291
     1
 45
0.0
1001
ACAD
1000
AcDbSavedByObjectVersion
1070
     0
  0
VISUALSTYLE
  5
E688
102
{ACAD_XDICTIONARY
360
EA3F
102
}
102
{ACAD_REACTORS
330
E686
102
}
330
E686
100
AcDbVisualStyle
  2
FlatWithEdges
 70
     1
 71
     2
 72
     1
 73
     1
 90
        2
 40
-0.6
 41
30.0
 62
     5
 63
     7
 74
     1
 91
        4
 64
     7
 65
   257
 75
     1
175
     1
 42
1.0
 92
        0
 66
   257
 43
1.0
 76
     1
 77
     6
 78
     2
 67
     7
 79
     5
170
     0
171
     0
290
     0
174
     0
 93
       13
 44
0.0
173
     0
291
     1
 45
0.0
1001
ACAD
1000
AcDbSavedByObjectVersion
1070
     0
  0
VISUALSTYLE
  5
E689
102
{ACAD_XDICTIONARY
360
EA41
102
}
102
{ACAD_REACTORS
330
E686
102
}
330
E686
100
AcDbVisualStyle
  2
Gouraud
 70
     2
 71
     2
 72
     2
 73
     1
 90
        2
 40
-0.6
 41
30.0
 62
     5
 63
     7
 74
     0
 91
        4
 64
     7
 65
   257
 75
     1
175
     1
 42
1.0
 92
        0
 66
     7
 43
1.0
 76
     1
 77
     6
 78
     2
 67
     7
 79
     5
170
     0
171
     0
290
     0
174
     0
 93
       13
 44
0.0
173
     0
291
     1
 45
0.0
1001
ACAD
1000
AcDbSavedByObjectVersion
1070
     0
  0
VISUALSTYLE
  5
E68A
102
{ACAD_XDICTIONARY
360
EA43
102
}
102
{ACAD_REACTORS
330
E686
102
}
330
E686
100
AcDbVisualStyle
  2
GouraudWithEdges
 70
     3
 71
     2
 72
     2
 73
     1
 90
        2
 40
-0.6
 41
30.0
 62
     5
 63
     7
 74
     1
 91
        4
 64
     7
 65
   257
 75
     1
175
     1
 42
1.0
 92
        0
 66
   257
 43
1.0
 76
     1
 77
     6
 78
     2
 67
     7
 79
     5
170
     0
171
     0
290
     0
174
     0
 93
       13
 44
0.0
173
     0
291
     1
 45
0.0
1001
ACAD
1000
AcDbSavedByObjectVersion
1070
     0
  0
VISUALSTYLE
  5
E75B
102
{ACAD_XDICTIONARY
360
EA5D
102
}
102
{ACAD_REACTORS
330
E686
102
}
330
E686
100
AcDbVisualStyle
  2
JitterOff
 70
    20
 71
     2
 72
     2
 73
     0
 90
        0
 40
-0.6
 41
-30.0
 62
     5
 63
     7
 74
     1
 91
        4
 64
     7
 65
   257
 75
     1
175
     1
 42
1.0
 92
       10
 66
     7
 43
1.0
 76
     1
 77
     6
 78
     2
 67
     7
 79
     5
170
     0
171
     0
290
     0
174
     0
 93
        1
 44
0.0
173
     0
291
     1
 45
0.0
1001
ACAD
1000
AcDbSavedByObjectVersion
1070
     0
  0
VISUALSTYLE
  5
E694
102
{ACAD_XDICTIONARY
360
EA57
102
}
102
{ACAD_REACTORS
330
E686
102
}
330
E686
100
AcDbVisualStyle
  2
Linepattern
 70
    14
 71
     2
 72
     2
 73
     0
 90
        0
 40
-0.6
 41
-30.0
 62
     5
 63
     7
 74
     1
 91
        4
 64
     7
 65
   257
 75
     7
175
     7
 42
1.0
 92
        8
 66
     7
 43
1.0
 76
     1
 77
     6
 78
     2
 67
     7
 79
     5
170
     0
171
     0
290
     0
174
     0
 93
        1
 44
0.0
173
     0
291
     1
 45
0.0
1001
ACAD
1000
AcDbSavedByObjectVersion
1070
     0
  0
VISUALSTYLE
  5
E75C
102
{ACAD_XDICTIONARY
360
EA5F
102
}
102
{ACAD_REACTORS
330
E686
102
}
330
E686
100
AcDbVisualStyle
  2
OverhangOff
 70
    21
 71
     2
 72
     2
 73
     0
 90
        0
 40
-0.6
 41
-30.0
 62
     5
 63
     7
 74
     1
 91
        4
 64
     7
 65
   257
 75
     1
175
     1
 42
1.0
 92
        9
 66
     7
 43
1.0
 76
     1
 77
     6
 78
     2
 67
     7
 79
     5
170
     0
171
     0
290
     0
174
     0
 93
        1
 44
0.0
173
     0
291
     1
 45
0.0
1001
ACAD
1000
AcDbSavedByObjectVersion
1070
     0
  0
VISUALSTYLE
  5
E690
102
{ACAD_XDICTIONARY
360
EA4F
102
}
102
{ACAD_REACTORS
330
E686
102
}
330
E686
100
AcDbVisualStyle
  2
Realistic
 70
     8
 71
     2
 72
     2
 73
     0
 90
        0
 40
-0.6
 41
-30.0
 62
     5
 63
     7
 74
     1
 91
        0
 64
     7
 65
   257
 75
     1
175
     1
 42
1.0
 92
        8
 66
     8
 43
1.0
 76
     1
 77
     6
 78
     2
 67
     7
 79
     5
170
     0
171
     0
290
     0
174
     0
 93
       13
 44
0.0
173
     0
291
     0
 45
0.0
1001
ACAD
1000
AcDbSavedByObjectVersion
1070
     0
  0
VISUALSTYLE
  5
E693
102
{ACAD_XDICTIONARY
360
EA55
102
}
102
{ACAD_REACTORS
330
E686
102
}
330
E686
100
AcDbVisualStyle
  2
Thicken
 70
    13
 71
     2
 72
     2
 73
     0
 90
        0
 40
-0.6
 41
-30.0
 62
     5
 63
     7
 74
     1
 91
        4
 64
     7
 65
   257
 75
     1
175
     1
 42
1.0
 92
       12
 66
     7
 43
1.0
 76
     1
 77
     6
 78
     2
 67
     7
 79
     5
170
     0
171
     0
290
     0
174
     0
 93
        1
 44
0.0
173
     0
291
     1
 45
0.0
1001
ACAD
1000
AcDbSavedByObjectVersion
1070
     0
  0
DICTIONARYVAR
  5
EA1F
102
{ACAD_REACTORS
330
3761
102
}
330
3761
100
DictionaryVariables
280
     0
  1
1:1
  0
DICTIONARYVAR
  5
EA1D
102
{ACAD_REACTORS
330
3761
102
}
330
3761
100
DictionaryVariables
280
     0
  1
STANDARD
  0
DICTIONARYVAR
  5
C6F3
102
{ACAD_REACTORS
330
3761
102
}
330
3761
100
DictionaryVariables
280
     0
  1
STANDARD
  0
DICTIONARYVAR
  5
3762
102
{ACAD_REACTORS
330
3761
102
}
330
3761
100
DictionaryVariables
280
     0
  1
1
  0
DICTIONARYVAR
  5
EA2A
102
{ACAD_REACTORS
330
3761
102
}
330
3761
100
DictionaryVariables
280
     0
  1
0
  0
DICTIONARYVAR
  5
EA21
102
{ACAD_REACTORS
330
3761
102
}
330
3761
100
DictionaryVariables
280
     0
  1
1
  0
DICTIONARYVAR
  5
EA22
102
{ACAD_REACTORS
330
3761
102
}
330
3761
100
DictionaryVariables
280
     0
  1
15
  0
DICTIONARYVAR
  5
EA20
102
{ACAD_REACTORS
330
3761
102
}
330
3761
100
DictionaryVariables
280
     0
  1
0
  0
DICTIONARYVAR
  5
EA1E
102
{ACAD_REACTORS
330
3761
102
}
330
3761
100
DictionaryVariables
280
     0
  1
0
  0
DICTIONARYVAR
  5
C44B
102
{ACAD_REACTORS
330
3761
102
}
330
3761
100
DictionaryVariables
280
     0
  1

  0
DICTIONARYVAR
  5
EA29
102
{ACAD_REACTORS
330
3761
102
}
330
3761
100
DictionaryVariables
280
     0
  1
127
  0
DICTIONARYVAR
  5
EA2B
102
{ACAD_REACTORS
330
3761
102
}
330
3761
100
DictionaryVariables
280
     0
  1
0
  0
PH_DIMENTREACTOR
  5
9C38
102
{ACAD_REACTORS
330
49
102
}
330
49
  0
PH_DIMENTREACTOR
  5
A5D4
102
{ACAD_REACTORS
330
49
102
}
330
49
  0
PH_ENTDIMREACTOR
  5
956D
102
{ACAD_REACTORS
330
49
102
}
330
49
  0
PH_ENTDIMREACTOR
  5
9E35
102
{ACAD_REACTORS
330
49
102
}
330
49
  0
PH_ENTDIMREACTOR
  5
956E
102
{ACAD_REACTORS
330
49
102
}
330
49
  0
PH_DIMENTREACTOR
  5
956F
102
{ACAD_REACTORS
330
49
102
}
330
49
  0
PH_ENTDIMREACTOR
  5
A5D2
102
{ACAD_REACTORS
330
49
102
}
330
49
  0
PH_ENTDIMREACTOR
  5
D1AB
102
{ACAD_REACTORS
330
49
102
}
330
49
  0
PH_DIMENTREACTOR
  5
D1AC
102
{ACAD_REACTORS
330
49
102
}
330
49
  0
PH_ENTDIMREACTOR
  5
9C37
102
{ACAD_REACTORS
330
49
102
}
330
49
  0
PH_ENTDIMREACTOR
  5
A5D3
102
{ACAD_REACTORS
330
49
102
}
330
49
  0
PH_ENTDIMREACTOR
  5
9E36
102
{ACAD_REACTORS
330
49
102
}
330
49
  0
PH_DIMENTREACTOR
  5
9E37
102
{ACAD_REACTORS
330
49
102
}
330
49
  0
DICTIONARY
  5
7F20
102
{ACAD_REACTORS
330
4A
102
}
330
4A
100
AcDbDictionary
281
     1
  3
PH_GRPMEMBERS
350
7F22
  0
DICTIONARY
  5
E78A
102
{ACAD_REACTORS
330
4A
102
}
330
4A
100
AcDbDictionary
281
     1
  3
$PH$AAAA1-2
350
E78B
  3
PH_GRPMEMBERS
350
E78D
  0
DICTIONARY
  5
E9D7
102
{ACAD_REACTORS
330
4A
102
}
330
4A
100
AcDbDictionary
280
     1
281
     1
  3
$PH$AAAA
360
E9D8
  3
PH_GRPMEMBERS
360
E9DC
  0
PH_GROUP
  5
394C
102
{ACAD_REACTORS
330
4A
102
}
330
4A
  0
DICTIONARY
  5
EA31
330
1E
100
AcDbDictionary
280
     1
281
     1
  3
ACAD_XREC_ROUNDTRIP
360
EA32
  0
DICTIONARY
  5
EA34
330
26
100
AcDbDictionary
280
     1
281
     1
  3
ACAD_XREC_ROUNDTRIP
360
EA35
  0
DICTIONARY
  5
E9EF
330
22
100
AcDbDictionary
280
     1
281
     1
  3
ACAD_XREC_ROUNDTRIP
360
EA33
  3
ADSK_XREC_LAYOUTTHUMBNAIL
360
E9F0
  0
DICTIONARY
  5
EA39
330
E684
100
AcDbDictionary
280
     1
281
     1
  3
ACAD_XREC_ROUNDTRIP
360
EA3A
  0
DICTIONARY
  5
EA37
330
E683
100
AcDbDictionary
280
     1
281
     1
  3
ACAD_XREC_ROUNDTRIP
360
EA38
  0
DICTIONARY
  5
EA3B
330
E685
100
AcDbDictionary
280
     1
281
     1
  3
ACAD_XREC_ROUNDTRIP
360
EA3C
  0
DICTIONARY
  5
E9F1
330
C44E
100
AcDbDictionary
280
     1
281
     1
  3
ACAD_ROUNDTRIP_2008_TABLESTYLE_CELLSTYLEMAP
360
EA2C
  3
ACAD_XREC_ROUNDTRIP
360
EA36
  0
DICTIONARY
  5
EA47
330
E68C
100
AcDbDictionary
280
     1
281
     1
  3
ACAD_XREC_ROUNDTRIP
360
EA48
  0
DICTIONARY
  5
EA4B
330
E68E
100
AcDbDictionary
280
     1
281
     1
  3
ACAD_XREC_ROUNDTRIP
360
EA4C
  0
DICTIONARY
  5
EA49
330
E68D
100
AcDbDictionary
280
     1
281
     1
  3
ACAD_XREC_ROUNDTRIP
360
EA4A
  0
DICTIONARY
  5
EA45
330
E68B
100
AcDbDictionary
280
     1
281
     1
  3
ACAD_XREC_ROUNDTRIP
360
EA46
  0
DICTIONARY
  5
EA53
330
E692
100
AcDbDictionary
280
     1
281
     1
  3
ACAD_XREC_ROUNDTRIP
360
EA54
  0
DICTIONARY
  5
EA5B
330
E696
100
AcDbDictionary
280
     1
281
     1
  3
ACAD_XREC_ROUNDTRIP
360
EA5C
  0
DICTIONARY
  5
EA4D
330
E68F
100
AcDbDictionary
280
     1
281
     1
  3
ACAD_XREC_ROUNDTRIP
360
EA4E
  0
DICTIONARY
  5
EA51
330
E691
100
AcDbDictionary
280
     1
281
     1
  3
ACAD_XREC_ROUNDTRIP
360
EA52
  0
DICTIONARY
  5
EA61
330
E75D
100
AcDbDictionary
280
     1
281
     1
  3
ACAD_XREC_ROUNDTRIP
360
EA62
  0
DICTIONARY
  5
EA59
330
E695
100
AcDbDictionary
280
     1
281
     1
  3
ACAD_XREC_ROUNDTRIP
360
EA5A
  0
DICTIONARY
  5
EA3D
330
E687
100
AcDbDictionary
280
     1
281
     1
  3
ACAD_XREC_ROUNDTRIP
360
EA3E
  0
DICTIONARY
  5
EA3F
330
E688
100
AcDbDictionary
280
     1
281
     1
  3
ACAD_XREC_ROUNDTRIP
360
EA40
  0
DICTIONARY
  5
EA41
330
E689
100
AcDbDictionary
280
     1
281
     1
  3
ACAD_XREC_ROUNDTRIP
360
EA42
  0
DICTIONARY
  5
EA43
330
E68A
100
AcDbDictionary
280
     1
281
     1
  3
ACAD_XREC_ROUNDTRIP
360
EA44
  0
DICTIONARY
  5
EA5D
330
E75B
100
AcDbDictionary
280
     1
281
     1
  3
ACAD_XREC_ROUNDTRIP
360
EA5E
  0
DICTIONARY
  5
EA57
330
E694
100
AcDbDictionary
280
     1
281
     1
  3
ACAD_XREC_ROUNDTRIP
360
EA58
  0
DICTIONARY
  5
EA5F
330
E75C
100
AcDbDictionary
280
     1
281
     1
  3
ACAD_XREC_ROUNDTRIP
360
EA60
  0
DICTIONARY
  5
EA4F
330
E690
100
AcDbDictionary
280
     1
281
     1
  3
ACAD_XREC_ROUNDTRIP
360
EA50
  0
DICTIONARY
  5
EA55
330
E693
100
AcDbDictionary
280
     1
281
     1
  3
ACAD_XREC_ROUNDTRIP
360
EA56
  0
PH_GROUP
  5
7F22
102
{ACAD_REACTORS
330
7F20
102
}
330
7F20
  0
DICTIONARY
  5
E78B
102
{ACAD_REACTORS
330
E78A
102
}
330
E78A
100
AcDbDictionary
281
     1
  3
PH_GRPMEMBERS
350
E78C
  0
PH_GROUP
  5
E78D
102
{ACAD_REACTORS
330
E78A
102
}
330
E78A
  0
DICTIONARY
  5
E9D8
102
{ACAD_REACTORS
330
E9D7
102
}
330
E9D7
100
AcDbDictionary
280
     1
281
     1
  3
$PH$AAAA
360
E9D9
  3
PH_GRPMEMBERS
360
E9DB
  0
PH_GROUP
  5
E9DC
102
{ACAD_REACTORS
330
E9D7
102
}
330
E9D7
  0
XRECORD
  5
EA32
102
{ACAD_REACTORS
330
EA31
102
}
330
EA31
100
AcDbXrecord
280
     1
102
SHADEPLOT
 70
     0
102
SHADEPLOTRESLEVEL
 70
     2
102
SHADEPLOTCUSTOMDPI
 70
   300
  0
XRECORD
  5
EA35
102
{ACAD_REACTORS
330
EA34
102
}
330
EA34
100
AcDbXrecord
280
     1
102
SHADEPLOT
 70
     0
102
SHADEPLOTRESLEVEL
 70
     2
102
SHADEPLOTCUSTOMDPI
 70
   300
  0
XRECORD
  5
EA33
102
{ACAD_REACTORS
330
E9EF
102
}
330
E9EF
100
AcDbXrecord
280
     1
102
SHADEPLOT
 70
     0
102
SHADEPLOTRESLEVEL
 70
     2
102
SHADEPLOTCUSTOMDPI
 70
   300
  0
XRECORD
  5
E9F0
102
{ACAD_REACTORS
330
E9EF
102
}
330
E9EF
100
AcDbXrecord
280
     1
310
28000000000100007600000001000800000000000076000000000000000000000001000000000000F0FCFE0000000000FFFFFF000000000000000000000000000000000000000000000000000000000000000000330000006600000099000000CC000000FF00000000330000333300006633000099330000CC330000FF3300
310
0000660000336600006666000099660000CC660000FF66000000990000339900006699000099990000CC990000FF99000000CC000033CC000066CC000099CC0000CCCC0000FFCC000000FF000033FF000066FF000099FF0000CCFF0000FFFF000000003300330033006600330099003300CC003300FF003300003333003333
310
33006633330099333300CC333300FF33330000663300336633006666330099663300CC663300FF66330000993300339933006699330099993300CC993300FF99330000CC330033CC330066CC330099CC3300CCCC3300FFCC330000FF330033FF330066FF330099FF3300CCFF3300FFFF330000006600330066006600660099
310
006600CC006600FF00660000336600333366006633660099336600CC336600FF33660000666600336666006666660099666600CC666600FF66660000996600339966006699660099996600CC996600FF99660000CC660033CC660066CC660099CC6600CCCC6600FFCC660000FF660033FF660066FF660099FF6600CCFF6600
310
FFFF660000009900330099006600990099009900CC009900FF00990000339900333399006633990099339900CC339900FF33990000669900336699006666990099669900CC669900FF66990000999900339999006699990099999900CC999900FF99990000CC990033CC990066CC990099CC9900CCCC9900FFCC990000FF99
310
0033FF990066FF990099FF9900CCFF9900FFFF99000000CC003300CC006600CC009900CC00CC00CC00FF00CC000033CC003333CC006633CC009933CC00CC33CC00FF33CC000066CC003366CC006666CC009966CC00CC66CC00FF66CC000099CC003399CC006699CC009999CC00CC99CC00FF99CC0000CCCC0033CCCC0066CC
310
CC0099CCCC00CCCCCC00FFCCCC0000FFCC0033FFCC0066FFCC0099FFCC00CCFFCC00FFFFCC000000FF003300FF006600FF009900FF00CC00FF00FF00FF000033FF003333FF006633FF009933FF00CC33FF00FF33FF000066FF003366FF006666FF009966FF00CC66FF00FF66FF000099FF003399FF006699FF009999FF00CC
310
99FF00FF99FF0000CCFF0033CCFF0066CCFF0099CCFF00CCCCFF00FFCCFF0000FFFF0033FFFF0066FFFF0099FFFF00CCFFFF00FFFFFF00000000000D0D0D001A1A1A00282828003535350043434300505050005D5D5D006B6B6B00787878008686860093939300A1A1A100AEAEAE00BBBBBB00C9C9C900D6D6D600E4E4E400
310
F1F1F100FFFFFF0000000000000000000000000000000000000000000000000000000000000000000000000000000000E1E1E1E1E1E1E1E1E1E1E1E1E1E1E1E1E1E1E1E1E1E1E1E1E1E1E1E1E1E1E1E1E1E1E1E1E1E1E1E1E1E1E1E1E1BEBEBEBEBEBEBEBEBEBEBEBEBEBEBEBEBEBEBEBEBEBEBEBEBEBEBEBEBEBEBEBEBEBE
310
BEBEBEBEBEBEBEBEBEBEBEBEBEBEBEBEBEBEBEBEBEBEBEBEBEBEBEBEBEBEBEBEBEBEBEBEBEBEBEBEBEBEBEBEBEBEBEBEBEBEBEBEBEBEBEBEBEBEBEBEBEBEBEBEBEBEBEBEBEBEBEBEBEBEBEBEBEBEBEBEBEBEBEBEBEBEBEBEBEBEBEBEBEBEBEBEBEBEBEBEBEBEBEBEBEBEBEBEBEBEBEBEBEBEBEBEBEBEBEBEBEBEBEBEBEBEBE
310
BEBEBEBEBEE1E1E1E1E1E1E1E1E1E1E1E1E1E1E1E1E1E1E1E1E1E1E1E1E1E1E1E1E1E1E1E1E1E1E1E1E1E1E1E1E1E1E1E1E1E1E1E1E1E1E1E1E1E1E1E1E1E1E1E1E1E1E1E1E1E1E1E1E1E1E1E1E1E1E1E1E1E1E1E1E1E1E1E1E1E1E1E1E1E1BEE1E12828282828282828282828282828282828282828282828282828282828
310
28282828282828282828282828282828282828282828282828282828282828282828282828282828282828282828282828282828282828282828282828282828282828282828282828282828282828282828282828282828282828282828282828282828282828282828282828282828280F0F0F0F0F0F0F0F282828BE2828
310
282828282828BEE1E1E1E1E1E1E1E1E1E1E1E1E1E1E1E1E1E1E1E1E1E1E1E1E1E1E1E1E1E1E1E1E1E1E1E1E1E1E1E1E1E1E1E1E1E1E1E1E1E1E1E1E1E1E1E1E1E1E1E1E1E1E1E1E1E1E1E1E1E1E1E1E1E1E1E1E1E1E1E1E1E1E1E1E1E1E1E1E1E1BEE1E128E1E1E1E1E1E1E1E1E1E1E1E1E1E1E1E1E1E1E1E1E1E1E1E1E1E1
310
E1E1E1E1E1E1E1E1E1E1E1E1E1E1E1E1E1E1E1E1E1E1E1E1E1E1E1E1E1E1E1E1E1E1E1E1E1E1E1E1E1E1E1E1E1E1E1E1E1E1E1E1E1E1E1E1E1E1E1E1E1E1E1E1E1E1E1E1E1E1E1E1E1E1E1E1E1E1E1E1E1E1E1E1E1E1E1E1E1E1E1E1E1E1E1E1E1E1E1E1E1E1E1E1E1E1E1E1E1E1E1E1E1E1E10F0F0F0F0F0F0F0FE1E1E1BE
310
E1E1E1E1E1E1E128BEE1E1E1E1E1E1E1E1E1E1E1E1E1E1E1E1E1E1E1E1E1E1E1E1E1E1E1E1E1E1E1E1E1E1E1E1E1E1E1E1E1E1E1E1E1E1E1E1E1E1E1E1E1E1E1E1E1E1E1E1E1E1E1E1E1E1E1E1E1E1E1E1E1E1E1E1E1E1E1E1E1E1E1E1E1E1E1E1E1E1BEE1E128E1E1E1E1E1E1E1E1E1E1E1E1E1E1E1E1E1E1E1E1E1E1E1E1
310
E1E1E1E1E1E1E1E1E1E1E1E1E1E1E1E1E1E1E1E1E1E1E1E1E1E1E1E1E1E1E1E1E1E1E1E1E1E1E1E1E1E1E1E1E1E1E1E1E1E1E1E1E1E1E1E1E1E1E1E1E1E1E1E1E1E1E1E1E1E1E1E1E1E1E1E1E1E1E1E1E1E1E1E1E1E1E1E1E1E1E1E1E1E1E1E1E1E1E1E1E1E1E1E1E1E1E1E1E1E1E1E1E1E1E1E1E10F0F0F0F0F0F0F0FBEBE
310
BEBEBEBEBEBEBEBEBEBEBEE1E1E1E1E1E1E1E1E1E1E1E1E1E1E1E1E1E1E1E1E1E1E1E1E1E1E1E1E1E1E1E1E1E1E1E1E1E1E1E1E1E1E1E1E1E1E1E1E1E1E1E1E1E1E1E1E1E1E1E1E1E1E1E1E1E1E1E1E1E1E1E1E1E1E1E1E1E1E1E1E1E1E1E1E1E1E1E1E1E1BEE1E128E1E1E1E1E1E1E1E1E1E1E1E1E1E1E1E1E1E1E1E1E1E1
310
E1E1E1E1E1E1E1E1E1E1E1E1E1E1E1E1E1E1E1E1E1E1E1E1E1E1E1E1E1E1E1E1E1E1E1E1E1E1E1E1E1E1E1E1E1E1E1E1E1E1E1E1E1E1E1E1E1E1E1E1E1E1E1E1E1E1E1E1E1E1E1E1E1E1E1E1E1E1E1E1E1E1E1E1E1E1E1E1E1E1E1E1E1E1E1E1E1E1E1E1E1E1E1E1E1E1E1E1E1E1E1E1E1E1E1E1E1E1E10F0F0F0FE1E1E10F
310
E1E1E1BEE1E1E1E1E1E1E128BEE1E1E1E1E1E1E1E1E1E1E1E1E1E1E1E1E1E1E1E1E1E1E1E1E1E1E1E1E1E1E1E1E1E1E1E1E1E1E1E1E1E1E1E1E1E1E1E1E1E1E1E1E1E1E1E1E1E1E1E1E1E1E1E1E1E1E1E1E1E1E1E1E1E1E1E1E1E1E1E1E1E1E1E1E1E1E1E1E1E1BEE1E128E1E1E1E1E1E1E1E1E1E1E1E1E1E1E1E1E1E1E1E1
310
E1E1E1E1E1E1E1E1E1E1E1E1E1E1E1E1E1E1E1E1E1E1E1E1E1E1E1E1E1E1E1E1E1E1E1E1E1E1E1E1E1E1E1E1E1E1E1E1E1E1E1E1E1E1E1E1E1E1E1E1E1E1E1E1E1E1E1E1E1E1E1E1E1E1E1E1E1E1E1E1E1E1E1E1E1E1E1E1E1E1E1E1E1E1E1E1E1E1E1E1E1E1E1E1E1E1E1E1E1E1E1E1E1E1E1E1E1E1E1E1E10F0F0F0F0F0F
310
0F0F0F0F0F0F0F0F0F0F0F0F0F0FBEE1E1E1E1E1E1E1E1E1E1E1E1E1E1E1E1E1E1E1E1E1E1E1E1E1E1E1E1E1E1E1E1E1E1E1E1E1E1E1E1E1E1E1E1E1E1E1E1E1E1E1E1E1E1E1E1E1E1E1E1E1E1E1E1E1E1E1E1E1E1E1E1E1E1E1E1E1E1E1E1E1E1E1E1E1E1E1E1E1E1BEE1E128E1E1E1E1E1E1E1E1E1E1E1E1E1E1E1E1E1E1
310
E1E1E1E1E1E1E1E1E1E1E1E1E1E1E1E1E1E1E2E2E2E2E2E2E2E2E2E2E2E2E2E2E2BEE2E2E2E2E2E2E2E2E2E2E2E2E2E2E2BEBEBEBEBEBEE1E1E1E1E1E1E1E1E1E1E1E1E1E1E1E1E1E1E1E1E1E1E1E1E1E1E1E1E1E1E1E1E1E1E1E1E1E1E1E1E1E1E1E1E1E1E1E1E1E1E1E1E1E1E1E1E1E1E1E1E1E1E1E1E1E1E1E10F0F0F0F
310
0F0F0F0F0F0F0F0F0F0F0F0F0F0F0F0FBEE1E1E1E1E1E1E1E1E1E1E1E1E1E1E1E1E1E1E1E1E1E1E1E1E1E1E1E1E1E1E1E1E1E1E1E1E1E1E1E1E1E1E1E1E1E1E1E1E1E1E1E1E1E1E1E1E1E1E1E1E1E1E1E1E1E1E1E1E1E1E1E1E1E1E1E1E1E1E1E1E1E1E1E1E1E1E1E1E1E1BEE1E128E1E1E1E1E1E1E1E1E1E1E1E1E1E1E1E1
310
E1E1E1E1E1E1E1E1E1E1E1E1E1E1E1E1E1E1E1E1E20F0F0F0F0F0F0F0F0F0F0F0F0F0FBE0F0F0F0F0F0F0F0F0F0F0F0F0F0F0FE2E1E1BEE1BEE1E1E1E1E1E1E1E1E1E1E1E1E1E1E1E1E1E1E1E1E1E1E1E1E1E1E1E1E1E1E1E1E1E1E1E1E1E1E1E1E1E1E1E1E1E1E1E1E1E1E1E1E1E1E1E1E1E1E1E1E1E1E1E1E1E1E1E10F0F
310
0FE1E10F0F0F0FE1E1E1E1E1E1E1E1E1E128BEE1E1E1E1E1E1E1E1E1E1E1E1E1E1E1E1E1E1E1E1E1E1E1E1E1E1E1E1E1E1E1E1E1E1E1E1E1E1E1E1E1E1E1E1E1E1E1E1E1E1E1E1E1E1E1E1E1E1E1E1E1E1E1E1E1E1E1E1E1E1E1E1E1E1E1E1E1E1E1E1E1E1E1E1E1E1E1E1E1E1BEE1E128E1E1E1E1E1E1E1E1E1E1E1E1E1E1
310
E1E1E1E1E1E1E1E1E1E1E1E1E1E1E1E1E1E1E1E1E1E1E20FE1E1E1E1E10FE1E1E1E1E1E1E1BEE1E1E1E1E10FE1E1E1E1E1E1E1E10FE2E10F0FE1BEE1E1E1E1E1E1E1E1E1E1E1E1E1E1E1E1E1E1E1E1E1E1E1E1E1E1E1E1E1E1E1E1E1E1E1E1E1E1E1E1E1E1E1E1E1E1E1E1E1E1E1E1E1E1E1E1E1E1E1E1E1E1E1E1E1E1E1E1
310
0F0FBE0F0F0F0F0F0F0F0F0F0F0F0F0F0F0F0F0FBEE1E1E1E1E1E1E1E1E1E1E1E1E1E1E1E1E1E1E1E1E1E1E1E1E1E1E1E1E1E1E1E1E1E1E1E1E1E1E1E1E1E1E1E1E1E1E1E1E1E1E1E1E1E1E1E1E1E1E1E1E1E1E1E1E1E1E1E1E1E1E1E1E1E1E1E1E1E1E1E1E1E1E1E1E1E1E1E1E1E1BEE1E128E1E1E1E1E1E1E1E1E1E1E1E1
310
E1E1E1E1E1E1E1E1E1E1E1E1E1E1E1E1E1E1E1E1E1E1E1E1E20FE1E1E1E1E10FE1E1E1E1E1E1E1BEE1E1E1E1E10F0F0F0F0F0FE1E1E10FE2E10F0FE1BEE1E1E1E1E1E1E1E1E1E1E1E1E1E1E1E1E1E1E1E1E1E1E1E1E1E1E1E1E1E1E1E1E1E1E1E1E1E1E1E1E1E1E1E1E1E1E1E1E1E1E1E1E1E1E1E1E1E1E1E1E1E1E1E1E1E1
310
E1E10FBEBEBEBEBEBE0FE1E1E1E1E1E1E1E2E2E2E228BEE1E1E1E1E1E1E1E1E1E1E1E1E1E1E1E1E1E1E1E1E1E1E1E1E1E1E1E1E1E1E1E1E1E1E1E1E1E1E1E1E1E1E1E1E1E1E1E1E1E1E1E1E1E1E1E1E1E1E1E1E1E1E1E1E1E1E1E1E1E1E1E1E1E1E1E1E1E1E1E1E1E1E1E1E1E1E1E1E1E1BEE1E128E1E1E1E1E1E1E1E1E1E1
310
E1E1E1E1E1E1E1E1E1E1E1E1E1E1E1E1E1E1E1E1E1E1E1E1E1E1E20FE2E2E2E20F0FE2E2E2E2E2E2E2BEE2E2E2E2E2E2E2E20FE2E2E2E2E20FBEBEBEBEE1BEE1E1E1E1E1E1E1E1E1E1E1E1E1E1E1E1E1E1E1E1E1E1E1E1E1E1E1E1E1E1E1E1E1E1E1E1E1E1E1E1E1E1E1E1E1E1E1E1E1E1E1E1E1E1E1E1E1E1E1E1E1E1E1E1
310
E1E1E1E10FE1BEBEE1E1E10FE1E1E1E1E1E1E1E1BEE2BEBEBEE1E1E1E1E1E1E1E1E1E1E1E1E1E1E1E1E1E1E1E1E1E1E1E1E1E1E1E1E1E1E1E1E1E1E1E1E1E1E1E1E1E1E1E1E1E1E1E1E1E1E1E1E1E1E1E1E1E1E1E1E1E1E1E1E1E1E1E1E1E1E1E1E1E1E1E1E1E1E1E1E1E1E1E1E1E1E1E1E1E1BEE1E1BEE1E1E1E1E1E1E1E1
310
E1E1E1E1E1E1E1E1E1E1E1E1E1E1E1E1E1E1E1E1E1E1E1E1E1E1E1E1E2E2E2E2E2E20FE2E2E2E2E2E2E2E2BEE2E2E2E2E2E2E2E20FE2E2E2E2E20FE2E1E1E1E1BEE1E1E1E1E1E1E1E1E1E1E1E1E1E1E1E1E1E1E1E1E1E1E1E1E1E1E1E1E1E1E1E1E1E1E1E1E1E1E1E1E1E1E1E1E1E1E1E1E1E1E1E1E1E1E1E1E1E1E1E1E1E1
310
E1E1E1E1E1E10FE1BEBEE1E1E10FE1E1E1E1E1E1E1E1BEBEBEBEBEE1E1E1E1E1E1E1E1E1E1E1E1E1E1E1E1E1E1E1E1E1E1E1E1E1E1E1E1E1E1E1E1E1E1E1E1E1E1E1E1E1E1E1E1E1E1E1E1E1E1E1E1E1E1E1E1E1E1E1E1E1E1E1E1E1E1E1E1E1E1E1E1E1E1E1E1E1E1E1E1E1E1E1E1E1E1E1E1E1E1BEE1E1BEE1E1E1E1E1E1
310
E1E1E1E1E1E1E1E1E1E1E1E1E1E1E1E1E1E1E1E1E1E1E1E1E1E1E1E1E1E1E2E1E1E1E1E10FE1E1E1E1E1E1E1E1BEE1E1E1E1E1E1E1E10FE1E1E1E1E10FE2E1E1E1E1BEE1E1E1E1E1E1E1E1E1E1E1E1E1E1E1E1E1E1E1E1E1E1E1E1E1E1E1E1E1E1E1E1E1E1E1E1E1E1E1E1E1E1E1E1E1E1E1E1E1E1E1E1E1E1E1E1E1E1E1E1
310
E1E1E1E1E1E1E1E10FE1BEBEE1E1E10FE1E1E1E1E1E1E1E1BEBEBEBEBEE1E1E1E1E1E1E1E1E1E1E1E1E1E1E1E1E1E1E1E1E1E1E1E1E1E1E1E1E1E1E1E1E1E1E1E1E1E1E1E1E1E1E1E1E1E1E1E1E1E1E1E1E1E1E1E1E1E1E1E1E1E1E1E1E1E1E1E1E1E1E1E1E1E1E1E1E1E1E1E1E1E1E1E1E1E1E1E1E1E1BEE1E1BEE1E1E1E1
310
E1E1E1E1E1E1E1E1E1E1E1E1E1E1E1E1E1E1E1E1E1E1E1E1E1E1E1E1E1E1E1E1E2E1E1E1E1E10FE1E1E1E1E1E1E1E1BEE1E1E1E1E1E1E1E10FE1E1E1E1E10FE2E1E1E1E1BEE1E1E1E1E1E1E1E1E1E1E1E1E1E1E1E1E1E1E1E1E1E1E1E1E1E1E1E1E1E1E1E1E1E1E1E1E1E1E1E1E1E1E1E1E1E1E1E1E1E1E1E1E1E1E1E1E1E1
310
E1E1E1E1E1E1E1E1E1E10FE1BEBEE1E1E10FE1E1E1E1E1E1E1E1E1E1E128BEE1E1E1E1E1E1E1E1E1E1E1E1E1E1E1E1E1E1E1E1E1E1E1E1E1E1E1E1E1E1E1E1E1E1E1E1E1E1E1E1E1E1E1E1E1E1E1E1E1E1E1E1E1E1E1E1E1E1E1E1E1E1E1E1E1E1E1E1E1E1E1E1E1E1E1E1E1E1E1E1E1E1E1E1E1E1E1E1E1E1BEE1E1BEE1E1
310
E1E1E1E1E1E1E1E1E1E1E1E1E1E1E1E1E1E1E1E1E1E1E1E1E1E1E1E1E1E1E1E1E1E1E2E1E1E1E1E10FE1E1E1E1E1E1E1E1BEE1E1E1E1E1E1E1E10FE1E1E1E1E10FE2E1E1E1E1BEE1E1E1E1E1E1E1E1E1E1E1E1E1E1E1E1E1E1E1E1E1E1E1E1E1E1E1E1E1E1E1E1E1E1E1E1E1E1E1E1E1E1E1E1E1E1E1E1E1E1E1E1E1E1E1E1
310
E1E1E1E1E1E1E1E1E1E1E1E10F0F0F0F0F0F0F0F0F0F0F0F0F0F0F0F0F0F0F0FBEE1E1E1E1E1E1E1E1E1E1E1E1E1E1E1E1E1E1E1E1E1E1E1E1E1E1E1E1E1E1E1E1E1E1E1E1E1E1E1E1E1E1E1E1E1E1E1E1E1E1E1E1E1E1E1E1E1E1E1E1E1E1E1E1E1E1E1E1E1E1E1E1E1E1E1E1E1E1E1E1E1E1E1E1E1E1E1E1E1E1BEE1E1BE
310
E1E1E1E1E1E1E1E1E1E1E1E1E1E1E1E1E1E1E1E1E1E1E1E1E1E1E1E1E1E1E1E1E1E1E1E1E2E1E1E1E1E10FE1E1E1E1E1E1E1E1BEE1E1E1E1E1E1E1E10FE1E1E1E1E10FE2E1E1E10F0FE1E1E1E1E1E1E1E1E1E1E1E1E1E1E1E1E1E1E1E1E1E1E1E1E1E1E1E1E1E1E1E1E1E1E1E1E1E1E1E1E1E1E1E1E1E1E1E1E1E1E1E1E1E1
310
E1E1E1E1E1E1E1E1E1E1E1E1E1E1E2E2E1E1E1E1E1E1E1E1E1E1E1E1E1E1E1E1E128BEE1E1E1E1E1E1E1E1E1E1E1E1E1E1E1E1E1E1E1E1E1E1E1E1E1E1E1E1E1E1E1E1E1E1E1E1E1E1E1E1E1E1E1E1E1E1E1E1E1E1E1E1E1E1E1E1E1E1E1E1E1E1E1E1E1E1E1E1E1E1E1E1E1E1E1E1E1E1E1E1E1E1E1E1E1E1E1E1E1E1BEE1
310
E1BEE1E1E1E1E1E1E1E1E1E1E1E1E1E1E1E1E1E1E1E1E1E1E1E1E1E1E1E1E1E1E1E1E1E1E1E1E2E1E1E1E1E10FE1E1E1E1E1E1E1E1BEE1E1E1E1E1E1E1E10FE1E1E1E1E10FE2E1E1E10F0FE1E1E1E1E1E1E1E1E1E1E1E1E1E1E1E1E1E1E1E1E1E1E1E1E1E1E1E1E1E1E1E1E1E1E1E1E1E1E1E1E1E1E1E1E1E1E1E1E1E1E1E1
310
E1E1E1E1E1E1E1E1E1E1E1E1E1E1E1E10FE1E1E1E1E1E1E1E1E1E1E1E1E1E1E1E1E1E228BEE1E1E1E1E1E1E1E1E1E1E1E1E1E1E1E1E1E1E1E1E1E1E1E1E1E1E1E1E1E1E1E1E1E1E1E1E1E1E1E1E1E1E1E1E1E1E1E1E1E1E1E1E1E1E1E1E1E1E1E1E1E1E1E1E1E1E1E1E1E1E1E1E1E1E1E1E1E1E1E1E1E1E1E1E1E1E1E1E1E1
310
BEE1E1BEE1E1E1E1E1E1E1E1E1E1E1E1E1E1E1E1E1E1E1E1E1E1E1E1E1E1E1E1E1E1E1E1E1E1E1E1E20FE1E1E1E10FE1E1E1E1E1E1E1E1BEE1E1E1E1E1E1E1E10FE1E1E1E1E10FE2E1E1E1E1BEE1E1E1E1E1E1E1E1E1E1E1E1E1E1E1E1E1E1E1E1E1E1E1E1E1E1E1E1E1E1E1E1E1E1E1E1E1E1E1E1E1E1E1E1E1E1E1E1E1E1
310
E1E1E1E1E1E1E1E1E1E1E1E1E1E1E1E1E1E10FE2E2E2E2E2E2E2E2E2E2E2E2E2E2E2E2E2E2E2BEE1E1E1E1E1E1E1E1E1E1E1E1E1E1E1E1E1E1E1E1E1E1E1E1E1E1E1E1E1E1E1E1E1E1E1E1E1E1E1E1E1E1E1E1E1E1E1E1E1E1E1E1E1E1E1E1E1E1E1E1E1E1E1E1E1E1E1E1E1E1E1E1E1E1E1E1E1E1E1E1E1E1E1E1E1E1E1E1
310
E1E1BEE1E1BEE1E1E1E1E1E1E1E1E1E1E1E1E1E1E1E1E1E1E1E1E1E1E1E1E1E1E1E1E1E1E1E1E1E1E1E1E20FE1E1E1E10FE1E1E1E1E1E1E1E1BEE1E1E1E1E1E1E1E10FE1E1E1E1E10FE2E1E1E1E1BEE1E1E1E1E1E1E1E1E1E1E1E1E1E1E1E1E1E1E1E1E1E1E1E1E1E1E1E1E1E1E1E1E1E1E1E1E1E1E1E1E1E1E1E1E1E1E1E1
310
E1E1E1E1E1E1E1E1E1E1E1E1E1E1E1E1E1E1E1E1E2E2E2E2E1E1E1E1E1E1E1E1E1E1E1E1E1E1E128BEE1E1E1E1E1E1E1E1E1E1E1E1E1E1E1E1E1E1E1E1E1E1E1E1E1E1E1E1E1E1E1E1E1E1E1E1E1E1E1E1E1E1E1E1E1E1E1E1E1E1E1E1E1E1E1E1E1E1E1E1E1E1E1E1E1E1E1E1E1E1E1E1E1E1E1E1E1E1E1E1E1E1E1E1E1E1
310
E1E1E1E1BEE1E1BEE1E1E1E1E1E1E1E1E1E1E1E1E1E1E1E1E1E1E1E1E1E1E1E1E1E1E1E1E1E1E1E1E1E1E1E1E20FE1E1E1E10FE1E1E1E1E1E1E1E1BEE1E1E1E1E1E1E1E10FE1E1E1E1E10FE2E1E1E1E1BEE1E1E1E1E1E1E1E1E1E1E1E1E1E1E1E1E1E1E1E1E1E1E1E1E1E1E1E1E1E1E1E1E1E1E1E1E1E1E1E1E1E1E1E1E1E1
310
E1E1E1E1E1E1E1E1E1E1E1E1E1E1E1E1E1E1E1E1E1E10FE2E2E2E2E2E2E2E2E2E2E1E1E1E1E1E1E1E128BEE1E1E1E1E1E1E1E1E1E1E1E1E1E1E1E1E1E1E1E1E1E1E1E1E1E1E1E1E1E1E1E1E1E1E1E1E1E1E1E1E1E1E1E1E1E1E1E1E1E1E1E1E1E1E1E1E1E1E1E1E1E1E1E1E1E1E1E1E1E1E1E1E1E1E1E1E1E1E1E1E1E1E1E1
310
E1E1E1E1E1E1BEE1E1BEE1E1E1E1E1E1E1E1E1E1E1E1E1E1E1E1E1E1E1E1E1E1E1E1E1E1E1E1E1E1E1E1E1E1E1E1E20FE1E1E1E10FE1E1E1E1E1E1E1E1BEE1E1E1E1E1E1E1E10FE1E1E1E1E10FE2E1E1E1E1BEE1E1E1E1E1E1E1E1E1E1E1E1E1E1E1E1E1E1E1E1E1E1E1E1E1E1E1E1E1E1E1E1E1E1E1E1E1E1E1E1E1E1E1E1
310
E1E1E1E1E1E1E1E1E1E1E1E1E1E1E1E1E1E1E1E1E1E1E1E10F0F0F0F0F0F0F0F0F0F0F0F0F0F0F0F0F0F0F0FBEE1E1E1E1E1E1E1E1E1E1E1E1E1E1E1E1E1E1E1E1E1E1E1E1E1E1E1E1E1E1E1E1E1E1E1E1E1E1E1E1E1E1E1E1E1E1E1E1E1E1E1E1E1E1E1E1E1E1E1E1E1E1E1E1E1E1E1E1E1E1E1E1E1E1E1E1E1E1E1E1E1E1
310
E1E1E1E1E1E1E1E1BEE1E1BEE1E1E1E1E1E1E1E1E1E1E1E1E1E1E1E1E1E1E1E1E1E1E1E1E1E1E1E1E1E1E1E1E1E1E1E1E20FE1E1E1E10F0FE1E1E1E1E1E1E1BEE1E1E1E1E1E1E1E10FE1E1E1E1E10FE2E1E1E1E1BEE1E1E1E1E1E1E1E1E1E1E1E1E1E1E1E1E1E1E1E1E1E1E1E1E1E1E1E1E1E1E1E1E1E1E1E1E1E1E1E1E1E1
310
E1E1E1E1E1E1E1E1E1E1E1E1E1E1E1E1E1E1E1E1E1E1E1E1E1E1BEBEBEBEBEBEBEBEBEBEBEBEBEBEBEBEBEBEBE28BEE1E1E1E1E1E1E1E1E1E1E1E1E1E1E1E1E1E1E1E1E1E1E1E1E1E1E1E1E1E1E1E1E1E1E1E1E1E1E1E1E1E1E1E1E1E1E1E1E1E1E1E1E1E1E1E1E1E1E1E1E1E1E1E1E1E1E1E1E1E1E1E1E1E1E1E1E1E1E1E1
310
E1E1E1E1E1E1E1E1E1E1BEE1E1BEE1E1E1E1E1E1E1E1E1E1E1E1E1E1E1E1E1E1E1E1E1E1E1E1E1E1E1E1E1E1E1E1E1E1E1E1E20FE1E10F0F0F0F0F0F0F0F0F0F0FBE0F0F0F0F0F0F0F0F0F0F0FE1E1E10FE2E1E1E1E1BEE1E1E1E1E1E1E1E1E1E1E1E1E1E1E1E1E1E1E1E1E1E1E1E1E1E1E1E1E1E1E1E1E1E1E1E1E1E1E1E1
310
E1E1E1E1E1E1E1E1E1E1E1E1E1E1E1E1E1E1E1E1E1E1E1E1E1E1E1E1BEE1BEBEBEBEBEBEBEBEE2E2BEBEBEE1BEBEE128BEE1E1E1E1E1E1E1E1E1E1E1E1E1E1E1E1E1E1E1E1E1E1E1E1E1E1E1E1E1E1E1E1E1E1E1E1E1E1E1E1E1E1E1E1E1E1E1E1E1E1E1E1E1E1E1E1E1E1E1E1E1E1E1E1E1E1E1E1E1E1E1E1E1E1E1E1E1E1
310
E1E1E1E1E1E1E1E1E1E1E1E1BEE1E1BEE1E1E1E1E1E1E1E1E1E1E1E1E1E1E1E1E1E1E1E1E1E1E1E1E1E1E1E1E1E1E1E1E1E1E1E1E20F0F0F0F0F0F0F0F0F0F0F0F0F0FBE0F0F0F0F0F0F0F0F0F0F0F0F0F0F0FE2E1E1E1E1BEE1E1E1E1E1E1E1E1E1E1E1E1E1E1E1E1E1E1E1E1E1E1E1E1E1E1E1E1E1E1E1E1E1E1E1E1E1E1
310
E1E1E1E1E1E1E1E1E1E1E1E1E1E1E1E1E1E1E1E1E1E1E1E1E1E1E1E1E1E10F0F0F0F0FE2E2E2E2E2E2E2E20FE1E1E1E1E128BEE1E1E1E1E1E1E1E1E1E1E1E1E1E1E1E1E1E1E1E1E1E1E1E1E1E1E1E1E1E1E1E1E1E1E1E1E1E1E1E1E1E1E1E1E1E1E1E1E1E1E1E1E1E1E1E1E1E1E1E1E1E1E1E1E1E1E1E1E1E1E1E1E1E1E1E1
310
E1E1E1E1E1E1E1E1E1E1E1E1E1E1BEE1E1BEE1E1E1E1E1E1E1E1E1E1E1E1E1E1E1E1E1E1E1E1E1E1E1E1E1E1E1E1E1E1E1E1E1E1E1E1E2E2E2E2E2E2E2E2E2E2E2E2E2E2E2BEE2E2E2E2E2E2E2E2E2E2E2E2E2E2E2BEBEBEBEBEBEE1E1E1E1E1E1E1E1E1E1E1E1E1E1E1E1E1E1E1E1E1E1E1E1E1E1E1E1E1E1E1E1E1E1E1E1
310
E1E1E1E1E1E1E1E1E1E1E1E1E1E1E1E1E1E1E1E1E1E1E1E1E1E1E1E1E1E1E1E10F0F0F0F0F0F0F0F0F0F0F0F0F0F0F0F0F0F0F0FBEE1E1E1E1E1E1E1E1E1E1E1E1E1E1E1E1E1E1E1E1E1E1E1E1E1E1E1E1E1E1E1E1E1E1E1E1E1E1E1E1E1E1E1E1E1E1E1E1E1E1E1E1E1E1E1E1E1E1E1E1E1E1E1E1E1E1E1E1E1E1E1E1E1E1
310
E1E1E1E1E1E1E1E1E1E1E1E1E1E1E1E1BEE1E1BEE1E1E1E1E1E1E1E1E1E1E1E1E1E1E1E1E1E1E1E1E1E1E1E1E1E1E1E1E1E1E1E1E10F0F0F0F0FE1E1E1E1E1E1E1E1E1E1E1E1E1E1E1E1E1E1E1E1E1E1E1E1E1E1E1E1E1E1E1E1E1E1E1E1E1E1E1E1E1E1E1E1E1E1E1E1E1E1E1E1E1E1E1E1E1E1E1E1E1E1E1E1E1E1E1E1E1
310
E1E1E1E1E1E1E1E1E1E1E1E1E1E1E1E1E1E1E1E1E1E1E1E1E1E1E1E1E1E1E1E1E1E10FBEBEBEE1E2E2E1E1E1E1E1E1E1E1E10F0FBEBEBEE1E1E1E1E1E1E1E1E1E1E1E1E1E1E1E1E1E1E1E1E1E1E1E1E1E1E1E1E1E1E1E1E1E1E1E1E1E1E1E1E1E1E1E1E1E1E1E1E1E1E1E1E1E1E1E1E1E1E1E1E1E1E1E1E1E1E1E1E1E1E1E1
310
E1E1E1E1E1E1E1E1E1E1E1E1E1E1E1E1E1E1BEE1E1BEE1E1E1E1E1E1E1E1E1E1E1E1E1E1E1E1E1E1E1E1E1E1E1E1E1E1E1E1E1E1E1E1E10F0F0F0F0FE1E1E1E1E1E1E1E1E1E1E1E1E1E1E1E1E1E1E1E1E1E1E1E1E1E1E1E1E1E1E1E1E1E1E1E1E1E1E1E1E1E1E1E1E1E1E1E1E1E1E1E1E1E1E1E1E1E1E1E1E1E1E1E1E1E1E1
310
E1E1E1E1E1E1E1E1E1E1E1E1E1E1E1E1E1E1E1E1E1E1E1E1E1E1E1E1E1E1E1E1E1E1E1E10FBEBEBEBEE2E2E1E1E1E1E1E1E1E10FE10F0F0FBEE1E1E1E1E1E1E1E1E1E1E1E1E1E1E1E1E1E1E1E1E1E1E1E1E1E1E1E1E1E1E1E1E1E1E1E1E1E1E1E1E1E1E1E1E1E1E1E1E1E1E1E1E1E1E1E1E1E1E1E1E1E1E1E1E1E1E1E1E1E1
310
E1E1E1E1E1E1E1E1E1E1E1E1E1E1E1E1E1E1E1E1BEE1E1BEE1E1E1E1E1E1E1E1E1E1E1E1E1E1E1E1E1E1E1E1E1E1E1E1E1E1E1E1E1E1E1E1E10F0F0F0F0F0FE1E1E1E1E1E1E1E1E1E1E1E1E1E1E1E1E1E1E1E1E1E1E1E1E1E1E1E1E1E1E1E1E1E1E1E1E1E1E1E1E1E1E1E1E1E1E1E1E1E1E1E1E1E1E1E1E1E1E1E1E1E1E1E1
310
E1E1E1E1E1E1E1E1E1E1E1E1E1E1E1E1E1E1E1E1E1E1E1E1E1E1E1E1E1E1E1E1E1E1E1E1E1E10FBEBEBEE10F0F0F0F0F0F0F0F0F0F0FE1E1E128BEE1E1E1E1E1E1E1E1E1E1E1E1E1E1E1E1E1E1E1E1E1E1E1E1E1E1E1E1E1E1E1E1E1E1E1E1E1E1E1E1E1E1E1E1E1E1E1E1E1E1E1E1E1E1E1E1E1E1E1E1E1E1E1E1E1E1E1E1
310
E1E1E1E1E1E1E1E1E1E1E1E1E1E1E1E1E1E1E1E1E1E1BEE1E1BEE1E1E1E1E1E1E1E1E1E1E1E1E1E1E1E1E1E1E1E1E1E1E1E1E1E1E1E1E1E1E1E1E10F0F0F0FE10F0FE1E1E1E1E1E1E1E1E1E1E1E1E1E1E1E1E1E1E1E1E1E1E1E1E1E1E1E1E1E1E1E1E1E1E1E1E1E1E1E1E1E1E1E1E1E1E1E1E1E1E1E1E1E1E1E1E1E1E1E1E1
310
E1E1E1E1E1E1E1E1E1E1E1E1E1E1E1E1E1E1E1E1E1E1E1E1E1E1E1E1E1E1E1E1E1E1E1E1E1E1E1E10FE1E1E1E10F0F0F0F0F0F0F0F0F0F0F0FE1E128BEE1E1E1E1E1E1E1E1E1E1E1E1E1E1E1E1E1E1E1E1E1E1E1E1E1E1E1E1E1E1E1E1E1E1E1E1E1E1E1E1E1E1E1E1E1E1E1E1E1E1E1E1E1E1E1E1E1E1E1E1E1E1E1E1E1E1
310
E1E1E1E1E1E1E1E1E1E1E1E1E1E1E1E1E1E1E1E1E1E1E1E1BEE1E1BEE1E1E1E1E1E1E1E1E1E1E1E1E1E1E1E1E1E1E1E1E1E1E1E1E1E1E1E1E1E1E1E1E1E1E1E1E1E1E1E1E1E1E1E1E1E1E1E1E1E1E1E1E1E1E1E1E1E1E1E1E1E1E1E1E1E1E1E1E1E1E1E1E1E1E1E1E1E1E1E1E1E1E1E1E1E1E1E1E1E1E1E1E1E1E1E1E1E1E1
310
E1E1E1E1E1E1E1E1E1E1E1E1E1E1E1E1E1E1E1E1E1E1E1E1E1E1E1E1E1E1E1E1E1E1E1E1E1E1E1E1E1E10FBEBEBEE10F0F0F0F0F0F0F0F0F0F0FE1E1E128BEE1E1E1E1E1E1E1E1E1E1E1E1E1E1E1E1E1E1E1E1E1E1E1E1E1E1E1E1E1E1E1E1E1E1E1E1E1E1E1E1E1E1E1E1E1E1E1E1E1E1E1E1E1E1E1E1E1E1E1E1E1E1E1E1
310
E1E1E1E1E1E1E1E1E1E1E1E1E1E1E1E1E1E1E1E1E1E1E1E1E1E1BEE1E1BEE1E1E1E1E1E1E1E1E1E1E1E1E1E1E1E1E1E1E1E1E1E1E1E1E1E1E1E1E1E1E1E1E1E1E1E1E1E1E1E1E1E1E1E1E1E1E1E1E1E1E1E1E1E1E1E1E1E1E1E1E1E1E1E1E1E1E1E1E1E1E1E1E1E1E1E1E1E1E1E1E1E1E1E1E1E1E1E1E1E1E1E1E1E1E1E1E1
310
E1E1E1E1E1E1E1E1E1E1E1E1E1E1E1E1E1E1E1E1E1E1E1E1E1E1E1E1E1E1E1E1E1E1E1E1E1E1E1E1E1E1E1E10F0F0F0F0F0F0F0F0F0F0F0F0F0F0F0F0F0F0F0FBEE1E1E1E1E1E1E1E1E1E1E1E1E1E1E1E1E1E1E1E1E1E1E1E1E1E1E1E1E1E1E1E1E1E1E1E1E1E1E1E1E1E1E1E1E1E1E1E1E1E1E1E1E1E1E1E1E1E1E1E1E1E1
310
E1E1E1E1E1E1E1E1E1E1E1E1E1E1E1E1E1E1E1E1E1E1E1E1E1E1E1E1BEE1E1BEE1E1E1E1E1E1E1E1E1E1E1E1E1E1E1E1E1E1E1E1E1E1E1E1E1E1E1E1E1E1E1E1E1E1E1E1BEBEBEBEBEBEBEBEBEBEBEBEBEBEBE0F0FBEBEBEBEBEBEBEBEBEBEBEBEBEBEBEE1E1E1E1E1E1E1E1E1E1E1E1E1E1E1E1E1E1E1E1E1E1E1E1E1E1E1
310
E1E1E1E1E1E1E1E1E1E1E1E1E1E1E1E1BEBEBEBE0F0F0F0FBEE1E1E1E1E1E1E1E1E1E1E1E1E1E1E1E1E1E1E1E1E10FBEBEBEBE0FE1E1E1E1E1E1E1E1E1E1E1E1E128BEE1E1E1E1E1E1E1E1E1E1E1E1E1E1E1E1E1E1E1E1E1E1E1E1E1E1E1E1E1E1E1E1E1E1E1E1E1E1E1E1E1E1E1E1E1E1E1E1E1E1E1E1E1E1E1E1E1E1E1E1
310
E1E1E1E1E1E1E1E1E1E1E1E1E1E1E1E1E1E1E1E1E1E1E1E1E1E1E1E1E1E1BEE1E1BEE1E1E1E1E1E1E1E1E1E1E1E1E1E1E1E1E1E1E1E1E1E1E1E1E1E1E1E1E1E1E1E1E1E1E1E1BEE1E1E1E1E1E1E1E1E1E1E1E1E10F0F0FE1E1E1E1E1E1E1E1E1E1E1E1E1E1BEE1E1E1E1E1E1E1E1E1E1E1E1E1E1E1E1E1E1E1E1E1E1E1E1E1
310
E1E1E1E1E1E1E1E1E1E1E1E1E1E1E1E1E1E1E1BEBEE10F0F0F0FE1E1E1E1E1E1E1E1E1E1E1E1E1E1E1E1E1E1E1E1E1E10F0FE1E1E1E1E1E1E1E1E1E1E1E1E1E1E1E1E128BEE1E1E1E1E1E1E1E1E1E1E1E1E1E1E1E1E1E1E1E1E1E1E1E1E1E1E1E1E1E1E1E1E1E1E1E1E1E1E1E1E1E1E1E1E1E1E1E1E1E1E1E1E1E1E1E1E1E1
310
E1E1E1E1E1E1E1E1E1E1E1E1E1E1E1E1E1E1E1E1E1E1E1E1E1E1E1E1E1E1E1E1BEE1E1BEE1E1E1E1E1E1E1E1E1E1E1E1E1E1E1E1E1E1E1E1E1E1E1E1E1E1E1E1E1E1E1E1E1E1E1E1BEE1E1E1E1E1E1E1E1E1E1E1E1E1E1E1E1E1E1E1E1E1E1E1E1E1E1E1E1E1E1BEE1E1E1E1E1E1E1E1E1E1E1E1E1E1E1E1E1E1E1E1E1E1E1
310
E1E1E1E1E1E1E1E1E1E1E1E1E1E1E1E1E1E1E1E1E1BEBEE1E1E1E1E1E1E1E1E1E1E1E1E1E1E1E1E1E1E1E1E1E1E1E1E1E1E10FBEBEBEBE0F0F0F0F0F0F0F0F0F0F0F0F0F0F0FBEE1E1E1E1E1E1E1E1E1E1E1E1E1E1E1E1E1E1E1E1E1E1E1E1E1E1E1E1E1E1E1E1E1E1E1E1E1E1E1E1E1E1E1E1E1E1E1E1E1E1E1E1E1E1E1E1
310
E1E1E1E1E1E1E1E1E1E1E1E1E1E1E1E1E1E1E1E1E1E1E1E1E1E1E1E1E1E1E1E1E1E1BEE1E1BEE1E1E1E1E1E1E2E2E2E2E2E2E2E2E2E2E2E2E2E2E2E2E2E2E2E1E1E1E1E1E1E1E1E1E1E1BEBEE2E2E2E2E2E2E2E2E2E2E2E2E2BEE2E2E2E2E2E2E2E2E2E2E2E2E2BEBEBEBEBEBEE1E1E1E1E1E1E1E1E2E2E2E2E2E2E2E2E2E2
310
E2E2E2E2E2E2E2E2E2E1E1E1E1E1E1E1E2BEE2E2BEE2E2BEBEE2E2E2E2E2E2BEE2E2E2E2E2E2E2E2E2E2BEE2E2E2E2E1E1E1E1E10FBEBEBEE1E2E2E1E1E1E1E1E1E1E1E1E1E1E128BEE1E1E1E1E1E1E1E1E1E1E1E1E1E1E1E1E1E1E1E1E1E1E1E1E1E1E1E1E1E1E1E1E1E1E1E1E1E1E1E1E1E1E1E1E1E1E1E1E1E1E1E1E1E1
310
E1E1E1E1E1E1E1E1E1E1E1E1E1E1E1E1E1E1E1E1E1E1E1E1E1E1E1E1E1E1E1E1E1E1E1E1BEE1E1BEE1E1E1E1E1E1E20F0F0F0F0F0F0F0F0F0F0F0F0F0F0F0F0FE2E1E1E1E1E1E1E1E1E1E1E1BEBEE2E1E1E1E10F0F0F0F0F0F0F0FBE0F0F0F0F0F0F0F0F0FE1E1E1E2BEE2BEE1E1BEE1E1E1E1E1E1E1E1E20F0F0F0F0F0F0F
310
0F0F0F0F0FE2E20F0F0FE2E1E1E1E1E1E1E1E2BEE2E1BEE20FBEBE0F0F0F0F0F0FBE0F0F0F0F0F0F0F0F0F0F0F0FE2BEE2E2E1E1E1E10FBEBEBEBEBEE1E1E1E1E1E1E1E1E1E1E1E1E128BEE1E1E1E1E1E1E1E1E1E1E1E1E1E1E1E1E1E1E1E1E1E1E1E1E1E1E1E1E1E1E1E1E1E1E1E1E1E1E1E1E1E1E1E1E1E1E1E1E1E1E1E1
310
E1E1E1E1E1E1E1E1E1E1E1E1E1E1E1E1E1E1E1E1E1E1E1E1E1E1E1E1E1E1E1E1E1E1E1E1E1E1BEE1E1BEE1E1E1E1E1E1E20FE1E1E2E1E1E1E1E1E1E1E1E1E10FE10FE2E1E1E1E1E1E1E1E1E1E1E1E2BEBEBEE1E1E10FE1E1E1E1E1E1E1BEE1E1E1E1E1E1E1E10FE1E1E1BEBEBEBEE1E1BEE1E1E1E1E1E1E1E1E20FE10FE1E1
310
E1E1E1E1E1E1E1E2E2E1E10FE2E1E1E1E1E1E1E2E2BEE20FBEE2BEBEBEE1E1E1E1E1E1BEE1E1E1E1E1E1E10F0F0FE20FE2BEE2BEE1E1E1E10F0F0F0F0F0F0F0F0F0F0F0F0F0F0F0F0F0F0F0FBEE1E1E1E1E1E1E1E1E1E1E1E1E1E1E1E1E1E1E1E1E1E1E1E1E1E1E1E1E1E1E1E1E1E1E1E1E1E1E1E1E1E1E1E1E1E1E1E1E1E1
310
E1E1E1E1E1E1E1E1E1E1E1E1E1E1E1E1E1E1E1E1E1E1E1E1E1E1E1E1E1E1E1E1E1E1E1E1E1E1E1E1BEE1E1BEE1E1E1E1E1E1E20FE1E1E2E1E1E1E1E1E1E1E1E1E10FE10FE2E1E1E1E1E1E1E1E1E1E1E1E2BEE2E1E1E1E10FE1E1E1E1E1E1E1BEE1E1E1E1E1E1E1E10FE1E1E1E2BEE2E2E1E1BEE1E1E1E1E1E1E1E1E20FE10F
310
E1E1E1E1E1E1E1E1E1E2E2E1E10FE2E1E1E1E1E1E1E2E2BEE20FBE0F0FBEBEBEE1E1E1E1BEBEBEE1E1E1E1E10F0FBE0F0F0FE2E2E2E2E1E1E1E1E1E1E1E1E1E1E1E1E1E1E1E1E1E1E1E1E1E1E128BEE1E1E1E1E1E1E1E1E1E1E1E1E1E1E1E1E1E1E1E1E1E1E1E1E1E1E1E1E1E1E1E1E1E1E1E1E1E1E1E1E1E1E1E1E1E1E1E1
310
E1E1E1E1E1E1E1E1E1E1E1E1E1E1E1E1E1E1E1E1E1E1E1E1E1E1E1E1E1E1E1E1E1E1E1E1E1E1E1E1E1E1BEE1E1BEE1E1E1E1E1E1E20F0F0F0F0F0F0F0F0F0F0F0F0F0F0F0F0FE2E1E1E1E1E1E1E1E1E1E1E1E20F0F0F0F0F0FE1E1E1E1E1E1E1E1BEE1E1E1E1E1E1E1E1E10F0F0F0F0F0FE2E1E1BEE1E1E1E1E1E1E1E1E20F
310
0F0F0F0F0F0F0F0F0F0F0F0F0F0F0F0FE2E1E1E1E1E1E1E20FBE0F0F0F0F0F0FBE0F0F0F0F0F0FBE0F0F0F0F0F0F0FBE0F0F0F0F0FBE0FE2E1E1E1E1E1E1E1E1E1E1E1E1E1E1E1E1E1E1E1E1E1E1E128BEE1E1E1E1E1E1E1E1E1E1E1E1E1E1E1E1E1E1E1E1E1E1E1E1E1E1E1E1E1E1E1E1E1E1E1E1E1E1E1E1E1E1E1E1E1E1
310
E1E1E1E1E1E1E1E1E1E1E1E1E1E1E1E1E1E1E1E1E1E1E1E1E1E1E1E1E1E1E1E1E1E1E1E1E1E1E1E1E1E1E1E1BEE1E1BEE1E1E1E1E1E1E20FE1E1E2E1E1E1E1E1E1E1E1E1E1E1E10FE2E1E1E1E1E1E1E1E1E1E1E1E20FE1E1E1E1E1E1E1E1E1E1E1E1E1BEE1E1E1E1E1E1E1E1E1E1E1E1E1E10FE2E1E1BEE1E1E1E1E1E1E1E1
310
E20FE1E1E1E1E1E1E1E1E1E1E1E2E2E1E10FE2E1E1E1E1E1E1E20FE1E1E1E1E1E1E1E1E1E1E1E1E1E1BEE1E1E1E1E1E1E1E1E1E1E1E1E1E10FE2E1E1E1E1E1E1E1E1E1E1E1E1E1E1E1E1E1E1E1E1E1E1E128BEE1E1E1E1E1E1E1E1E1E1E1E1E1E1E1E1E1E1E1E1E1E1E1E1E1E1E1E1E1E1E1E1E1E1E1E1E1E1E1E1E1E1E1E1
310
E1E1E1E1E1E1E1E1E1E1E1E1E1E1E1E1E1E1E1E1E1E1E1E1E1E1E1E1E1E1E1E1E1E1E1E1E1E1E1E1E1E1E1E1E1E1BEE1E1BEE1E1E1E1E1E1E20FE1E1E2E1E1E1E1E1E1E1E1E1E1E1E10FE2E1E1E1E1E1E1E1E1E1E1E1E20FE1E1E1E1E1E1E1E1E1E1E1E1E1BEE1E1E1E1E1E1E1E1E1E1E1E1E1E10FE2E1E1BEE1E1E1E1E1E1
310
E1E1E20FE1E1E1E1E1E1E1E1E1E1E1E2E2E1E10FE2E1E1E1E1E1E1E20FE1E1E1E1E1E1E1E1E1E1E1E1E1E1BEE1E1E1E1E1E1E1E1E1E1E1E1E1E10FE2E1E1E1E1E1E1E1E1E1E1E1E1E1E1E1E1E1E1E1E1E1E1E128BEE1E1E1E1E1E1E1E1E1E1E1E1E1E1E1E1E1E1E1E1E1E1E1E1E1E1E1E1E1E1E1E1E1E1E1E1E1E1E1E1E1E1
310
E1E1E1E1E1E1E1E1E1E1E1E1E1E1E1E1E1E1E1E1E1E1E1E1E1E1E1E1E1E1E1E1E1E1E1E1E1E1E1E1E1E1E1E1E1E1E1E1BEE1E1BEE1E1E1E1E1E1E20FE1E1E2E1E1E1E1E1E1E1E1E1E1E1E10FE2E1E1E1E1E1E1E1E1E1E1E1E20FE1E1E1E1E1E1E1E1E1E1E1E1E1BEE1E1E1E1E1E1E1E1E1E1E1E1E1E10FE2E1E1BEE1E1E1E1
310
E1E1E1E1E20FE1E1E1E1E1E1E1E1E1E1E1E2E2E1E10FE2E1E1E1E1E1E1E20FE1E1E1E1E1E1E1E1E1E1E1E1E1E1BEE1E1E1E1E1E1E1E1E1E1E1E1E1E10FE2E1E1E1E1E1E1E1E1E1E1E1E1E1E1E1E1E1E1E1E1E1E1E128BEE1E1E1E1E1E1E1E1E1E1E1E1E1E1E1E1E1E1E1E1E1E1E1E1E1E1E1E1E1E1E1E1E1E1E1E1E1E1E1E1
310
E1E1E1E1E1E1E1E1E1E1E1E1E1E1E1E1E1E1E1E1E1E1E1E1E1E1E1E1E1E1E1E1E1E1E1E1E1E1E1E1E1E1E1E1E1E1E1E1E1E1BEE1E1BEE1E1E1E1E1E1E20FE1E1E2E1E1E1E1E1E1E1E1E1E1E1E10FE2E1E1E1E1E1E1E1E1E1E1E1E20FE1E1E1E1E1E1E1E1E1E1E1E1E1BEE1E1E1E1E1E1E1E1E1E1E1E1E1E10FE2E1E1BEE1E1
310
E1E1E1E1E1E1E20FE1E1E1E1E1E1E1E1E1E1E1E2E2E1E10FE2E1E1E1E1E1E1E20FE1E1E1E1E1E1E1E1E1E1E1E1E1E1BEE1E1E1E1E1E1E1E1E1E1E1E1E1E10FE2E1E1E1E1E1E1E1E1E1E1E1E1E1E1E1E1E1E1E1E1E1E1E128BEE1E1E1E1E1E1E1E1E1E1E1E1E1E1E1E1E1E1E1E1E1E1E1E1E1E1E1E1E1E1E1E1E1E1E1E1E1E1
310
E1E1E1E1E1E1E1E1E1E1E1E1E1E1E1E1E1E1E1E1E1E1E1E1E1E1E1E1E1E1E1E1E1E1E1E1E1E1E1E1E1E1E1E1E1E1E1E1E1E1E1E1BEE1E128E1E1E1E1E1E1E20FE1E1E2E1E1E1E1E1E1E1E1E1E1E1E10FE2E1E1E1E1E1E1E1E1E1E1E1E20FE1E1E1E1E1E1E1E1E1E1E1E1E1BEE1E1E1E1E1E1E1E1E1E1E1E1E1E10FE2E1E1BE
310
E1E1E1E1E1E1E1E1E20FE1E1E1E1E1E1E1E1E1E1E1E2E2E1E10FE2E1E1E1E1E1E1E20FE1E1E1E1E1E1E1E1E1E1E1E1E1E1BEE1E1E1E1E1E1E1E1E1E1E1E1E1E10FE2E1E1E1E1E1E1E1E1E1E1E1E1E1E1E1E1E1E1E1E1E1E1E128BEE1E1E1E1E1E1E1E1E1E1E1E1E1E1E1E1E1E1E1E1E1E1E1E1E1E1E1E1E1E1E1E1E1E1E1E1
310
E1E1E1E1E1E1E1E1E1E1E1E1E1E1E1E1E1E1E1E1E1E1E1E1E1E1E1E1E1E1E1E1E1E1E1E1E1E1E1E1E1E1E1E1E1E1E1E1E1E1E1E1E1E1BEE1E128E1E1E1E1E1E1E20FE1E1E2E1E1E1E1E1E1E1E1E1E1E1E10FE2E1E1E1E1E1E1E1E1E1E1E1E20FE1E1E1E1E1E1E1E1E1E1E1E1E1BEE1E1E1E1E1E1E1E1E1E1E1E1E1E10FE2E1
310
E1BEE1E1E1E1E1E1E1E1E20FE1E1E1E1E1E1E1E1E1E1E1E2E2E1E10FE2E1E1E1E1E1E1E20FE1E1E1E1E1E1E1E1E1E1E1E1E1E1BEE1E1E1E1E1E1E1E1E1E1E1E1E1E10FE2E1E1E1E1E1E1E1E1E1E1E1E1E1E1E1E1E1E1E1E1E1E1E128BEE1E1E1E1E1E1E1E1E1E1E1E1E1E1E1E1E1E1E1E1E1E1E1E1E1E1E1E1E1E1E1E1E1E1
310
E1E1E1E1E1E1E1E1E1E1E1E1E1E1E1E1E1E1E1E1E1E1E1E1E1E1E1E1E1E1E1E1E1E1E1E1E1E1E1E1E1E1E1E1E1E1E1E1E1E1E1E1E1E1E1E1BEE1E128E1E1E1E1E1E1E20FE1E1E2E1E1E1E1E1E1E1E1E1E1E1E10FE2E1E1E1E1E1E1E1E1E1E1E1E20FE1E1E1E1E1E1E1E1E1E1E1E1E1BEE1E1E1E1E1E1E1E1E1E1E1E1E1E10F
310
E2E1E1BEE1E1E1E1E1E1E1E1E20FE1E1E1E1E1E1E1E1E1E1E1E2E2E1E10FE2E1E1E1E1E1E1E20FE1E1E1E1E1E1E1E1E1E1E1E1E1E1BEE1E1E1E1E1E1E1E1E1E1E1E1E1E10FE2E1E1E1E1E1E1E1E1E1E1E1E1E1E1E1E1E1E1E1E1E1E1E128BEE1E1E1E1E1E1E1E1E1E1E1E1E1E1E1E1E1E1E1E1E1E1E1E1E1E1E1E1E1E1E1E1
310
E1E1E1E1E1E1E1E1E1E1E1E1E1E1E1E1E1E1E1E1E1E1E1E1E1E1E1E1E1E1E1E1E1E1E1E1E1E1E1E1E1E1E1E1E1E1E1E1E1E1E1E1E1E1E1E1E1E1BEE1E128E1E1E1E1E1E1E20FE1E1E2E1E1E1E1E1E1E1E1E1E1E1E10FE2E1E1E1E1E1E1E1E1E1E1E1E20FE1E1E1E1E1E1E1E1E1E1E1E1E1BEE1E1E1E1E1E1E1E1E1E1E1E1E1
310
E10FE2E1E1BEE1E1E1E1E1E1E1E1E20FE1E1E1E1E1E1E1E1E1E1E1E2E2E1E10FE2E1E1E1E1E1E1E20FE1E1E1E1E1E1E1E1E1E1E1E1E1E1BEE1E1E1E1E1E1E1E1E1E1E1E1E1E10FE2E1E1E1E1E1E1E1E1E1E1E1E1E1E1E1E1E1E1E1E1E1E1E128BEE1E1E1E1E1E1E1E1E1E1E1E1E1E1E1E1E1E1E1E1E1E1E1E1E1E1E1E1E1E1
310
E1E1E1E1E1E1E1E1E1E1E1E1E1E1E1E1E1E1E1E1E1E1E1E1E1E1E1E1E1E1E1E1E1E1E1E1E1E1E1E1E1E1E1E1E1E1E1E1E1E1E1E1E1E1E1E1E1E1E1E1BEE1E128E1E1E1E1E1E1E20FE1E1E2E1E1E1E1E1E1E1E1E1E1E1E10FE2E1E1E1E1E1E1E1E1E1E1E1E20FE1E1E1E1E1E1E1E1E1E1E1E1E1BEE1E1E1E1E1E1E1E1E1E1E1
310
E1E1E10FE2E1E1BEE1E1E1E1E1E1E1E1E20FE1E1E1E1E1E1E1E1E1E1E1E2E2E1E10FE2E1E1E1E1E1E1E20FE1E1E1E1E1E1E1E1E1E1E1E1E1E1BEE1E1E1E1E1E1E1E1E1E1E1E1E1E10FE2E1E1E1E1E1E1E1E1E1E1E1E1E1E1E1E1E1E1E1E1E1E1E128BEE1E1E1E1E1E1E1E1E1E1E1E1E1E1E1E1E1E1E1E1E1E1E1E1E1E1E1E1
310
E1E1E1E1E1E1E1E1E1E1E1E1E1E1E1E1E1E1E1E1E1E1E1E1E1E1E1E1E1E1E1E1E1E1E1E1E1E1E1E1E1E1E1E1E1E1E1E1E1E1E1E1E1E1E1E1E1E1E1E1E1E1BEE1E128E1E1E1E1E1E1E20FE1E1E2E1E1E1E1E1E1E1E1E1E1E1E10FE2E1E1E1E1E1E1E1E1E1E1E1E20FE1E1E1E1E1E1E1E1E1E1E1E1E1BEE1E1E1E1E1E1E1E1E1
310
E1E1E1E1E10FE2E1E1BEE1E1E1E1E1E1E1E1E20FE1E1E1E1E1E1E1E1E1E1E1E2E2E1E10FE2E1E1E1E1E1E1E20FE1E1E1E1E1E1E1E1E1E1E1E1E1E1BEE1E1E1E1E1E1E1E1E1E1E1E1E1E10FE2E1E1E1E1E1E1E1E1E1E1E1E1E1E1E1E1E1E1E1E1E1E1E128BEE1E1E1E1E1E1E1E1E1E1E1E1E1E1E1E1E1E1E1E1E1E1E1E1E1E1
310
E1E1E1E1E1E1E1E1E1E1E1E1E1E1E1E1E1E1E1E1E1E1E1E1E1E1E1E1E1E1E1E1E1E1E1E1E1E1E1E1E1E1E1E1E1E1E1E1E1E1E1E1E1E1E1E1E1E1E1E1E1E1E1E1BEE1E128E1E1E1E1E1E1E20FE1E1E2E1E1E1E1E1E1E1E1E1E1E1E10FE2E1E1E1E1E1E1E1E1E1E1E1E20FE1E1E1E1E1E1E1E1E1E1E1E1E1BEE1E1E1E1E1E1E1
310
E1E1E1E1E1E1E10FE2E1E1BEE1E1E1E1E1E1E1E1E20FE1E1E1E1E1E1E1E1E1E1E1E2E2E1E10FE2E1E1E1E1E1E1E20FE1E1E1E1E1E1E1E1E1E1E1E1E1E1BEE1E1E1E1E1E1E1E1E1E1E1E1E1E10FE2E1E1E1E1E1E1E1E1E1E1E1E1E1E1E1E1E1E1E1E1E1E1E128BEE1E1E1E1E1E1E1E1E1E1E1E1E1E1E1E1E1E1E1E1E1E1E1E1
310
E1E1E1E1E1E1E1E1E1E1E1E1E1E1E1E1E1E1E1E1E1E1E1E1E1E1E1E1E1E1E1E1E1E1E1E1E1E1E1E1E1E1E1E1E1E1E1E1E1E1E1E1E1E1E1E1E1E1E1E1E1E1E1E1E1E1BEE1E128E1E1E1E1E1E1E20FE1E1E2E1E1E1E1E1E1E1E1E1E1E1E10FE2E1E1E1E1E1E1E1E1E1E1E1E20FE1E1E1E1E1E1E1E1E1E1E1E1E1BEE1E1E1E1E1
310
E1E1E1E1E1E1E1E1E10FE2E1E1BEE1E1E1E1E1E1E1E1E20FE1E1E1E1E1E1E1E1E1E1E1E2E2E1E10FE2E1E1E1E1E1E1E20FE1E1E1E1E1E1E1E1E1E1E1E1E1E1BEE1E1E1E1E1E1E1E1E1E1E1E1E1E10FE2E1E1E1E1E1E1E1E1E1E1E1E1E1E1E1E1E1E1E1E1E1E1E128BEE1E1E1E1E1E1E1E1E1E1E1E1E1E1E1E1E1E1E1E1E1E1
310
E1E1E1E1E1E1E1E1E1E1E1E1E1E1E1E1E1E1E1E1E1E1E1E1E1E1E1E1E1E1E1E1E1E1E1E1E1E1E1E1E1E1E1E1E1E1E1E1E1E1E1E1E1E1E1E1E1E1E1E1E1E1E1E1E1E1E1E1BEE1E128E1E1E1E1E1E1E20FE1E1E2E1E1E1E1E1E1E1E1E1E1E1E10FE2E1E1E1E1E1E1E1E1E1E1E1E20FE1E1E1E1E1E1E1E1E1E1E1E1E1BEE1E1E1
310
E1E1E1E1E1E1E1E1E1E1E10FE2E1E1BEE1E1E1E1E1E1E1E1E20FE1E1E1E1E1E1E1E1E1E1E1E2E2E1E10FE2E1E1E1E1E1E1E20FE1E1E1E1E1E1E1E1E1E1E1E1E1E1BEE1E1E1E1E1E1E1E1E1E1E1E1E1E10FE2E1E1E1E1E1E1E1E1E1E1E1E1E1E1E1E1E1E1E1E1E1E1E128BEE1E1E1E1E1E1E1E1E1E1E1E1E1E1E1E1E1E1E1E1
310
E1E1E1E1E1E1E1E1E1E1E1E1E1E1E1E1E1E1E1E1E1E1E1E1E1E1E1E1E1E1E1E1E1E1E1E1E1E1E1E1E1E1E1E1E1E1E1E1E1E1E1E1E1E1E1E1E1E1E1E1E1E1E1E1E1E1E1E1E1E1BEE1E128E1E1E1E1E1E1E20FE1E1E2E1E1E1E1E1E1E1E1E1E1E1E10FE2E1E1E1E1E1E1E1E1E1E1E1E20FE1E1E1E1E1E1E1E1E1E1E1E1E1BEE1
310
E1E1E1E1E1E1E1E1E1E1E1E1E10FE2E1E1BEE1E1E1E1E1E1E1E1E20FE1E1E1E1E1E1E1E1E1E1E1E2E2E1E10FE2E1E1E1E1E1E1E20FE1E1E1E1E1E1E1E1E1E1E1E1E1E1BEE1E1E1E1E1E1E1E1E1E1E1E1E1E10FE2E1E1E1E1E1E1E1E1E1E1E1E1E1E1E1E1E1E1E1E1E1E1E128BEE1E1E1E1E1E1E1E1E1E1E1E1E1E1E1E1E1E1
310
E1E1E1E1E1E1E1E1E1E1E1E1E1E1E1E1E1E1E1E1E1E1E1E1E1E1E1E1E1E1E1E1E1E1E1E1E1E1E1E1E1E1E1E1E1E1E1E1E1E1E1E1E1E1E1E1E1E1E1E1E1E1E1E1E1E1E1E1E1E1E1E1BEE1E128E1E1E1E1E1E1E20FE1E1E2E1E1E1E1E1E1E1E1E1E1E1E10FE2E1E1E1E1E1E1E1E1E1E1E1E20FE1E1E1E1E1E1E1E1E1E1E1E1E1
310
BEE1E1E1E1E1E1E1E1E1E1E1E1E1E10FE2E1E1BEE1E1E1E1E1E1E1E1E20FE1E1E1E1E1E1E1E1E1E1E1E2E2E1E10FE2E1E1E1E1E1E1E20FE1E1E1E1E1E1E1E1E1E1E1E1E1E1BEE1E1E1E1E1E1E1E1E1E1E1E1E1E10FE2E1E1E1E1E1E1E1E1E1E1E1E1E1E1E1E1E1E1E1E1E1E1E128BEE1E1E1E1E1E1E1E1E1E1E1E1E1E1E1E1
310
E1E1E1E1E1E1E1E1E1E1E1E1E1E1E1E1E1E1E1E1E1E1E1E1E1E1E1E1E1E1E1E1E1E1E1E1E1E1E1E1E1E1E1E1E1E1E1E1E1E1E1E1E1E1E1E1E1E1E1E1E1E1E1E1E1E1E1E1E1E1E1E1E1E1BEE1E128E1E1E1E1E1E1E20FE1E1E2E1E1E1E1E1E1E1E1E1E1E1E10FE2E1E1E1E1E1E1E1E1E1E1E1E20FE1E1E1E1E1E1E1E1E1E1E1
310
E1E1BEE1E1E1E1E1E1E1E1E1E1E1E1E1E10FE2E1E1BEE1E1E1E1E1E1E1E1E20FE1E1E1E1E1E1E1E1E1E1E1E2E2E1E10FE2E1E1E1E1E1E1E20FE1E1E1E1E1E1E1E1E1E1E1E1E1E1BEE1E1E1E1E1E1E1E1E1E1E1E1E1E10FE2E1E1E1E1E1E1E1E1E1E1E1E1E1E1E1E1E1E1E1E1E1E1E128BEE1E1E1E1E1E1E1E1E1E1E1E1E1E1
310
E1E1E1E1E1E1E1E1E1E1E1E1E1E1E1E1E1E1E1E1E1E1E1E1E1E1E1E1E1E1E1E1E1E1E1E1E1E1E1E1E1E1E1E1E1E1E1E1E1E1E1E1E1E1E1E1E1E1E1E1E1E1E1E1E1E1E1E1E1E1E1E1E1E1E1E1BEE1E128E1E1E1E1E1E1E20FE1E1E2E1E1E1E1E1E1E1E1E1E1E1E10FE2E1E1E1E1E1E1E1E1E1E1E1E20FE1E1E1E1E1E1E1E1E1
310
E1E1E1E1BEE1E1E1E1E1E1E1E1E1E1E1E1E1E10FE2E1E1BEE1E1E1E1E1E1E1E1E20FE1E1E1E1E1E1E1E1E1E1E1E2E2E1E10FE2E1E1E1E1E1E1E20FE1E1E1E1E1E1E1E1E1E1E1E1E1E1BEE1E1E1E1E1E1E1E1E1E1E1E1E1E10FE2E1E1E1E1E1E1E1E1E1E1E1E1E1E1E1E1E1E1E1E1E1E1E128BEE1E1E1E1E1E1E1E1E1E1E1E1
310
E1E1E1E1E1E1E1E1E1E1E1E1E1E1E1E1E1E1E1E1E1E1E1E1E1E1E1E1E1E1E1E1E1E1E1E1E1E1E1E1E1E1E1E1E1E1E1E1E1E1E1E1E1E1E1E1E1E1E1E1E1E1E1E1E1E1E1E1E1E1E1E1E1E1E1E1E1E1BEE1E128E1E1E1E1E1E1E20FE1E1E2E1E1E1E1E1E1E1E1E1E1E1E10FE2E1E1E1E1E1E1E1E1E1E1E1E20FE1E1E1E1E1E1E1
310
E1E1E1E1E1E1BEE1E1E1E1E1E1E1E1E1E1E1E1E1E10FE2E1E1BEE1E1E1E1E1E1E1E1E20FE1E1E1E1E1E1E1E1E1E1E1E2E2E1E10FE2E1E1E1E1E1E1E20FE1E1E1E1E1E1E1E1E1E1E1E1E1E1BEE1E1E1E1E1E1E1E1E1E1E1E1E1E10FE2E1E1E1E1E1E1E1E1E1E1E1E1E1E1E1E1E1E1E1E1E1E1E128BEE1E1E1E1E1E1E1E1E1E1
310
E1E1E1E1E1E1E1E1E1E1E1E1E1E1E1E1E1E1E1E1E1E1E1E1E1E1E1E1E1E1E1E1E1E1E1E1E1E1E1E1E1E1E1E1E1E1E1E1E1E1E1E1E1E1E1E1E1E1E1E1E1E1E1E1E1E1E1E1E1E1E1E1E1E1E1E1E1E1E1E1BEE1E128E1E1E1E1E1E1E20FE1E1E2E1E1E1E1E1E1E1E1E1E1E1E10FE2E1E1E1E1E1E1E1E1E1E1E1E20FE1E1E1E1E1
310
E1E1E1E1E1E1E1E1BEE1E1E1E1E1E1E1E1E1E1E1E1E1E10FE2E1E1BEE1E1E1E1E1E1E1E1E20FE1E1E1E1E1E1E1E1E1E1E1E2E2E1E10FE2E1E1E1E1E1E1E20FE1E1E1E1E1E1E1E1E1E1E1E1E1E1BEE1E1E1E1E1E1E1E1E1E1E1E1E1E10FE2E1E1E1E1E1E1E1E1E1E1E1E1E1E1E1E1E1E1E1E1E1E1E128BEE1E1E1E1E1E1E1E1
310
E1E1E1E1E1E1E1E1E1E1E1E1E1E1E1E1E1E1E1E1E1E1E1E1E1E1E1E1E1E1E1E1E1E1E1E1E1E1E1E1E1E1E1E1E1E1E1E1E1E1E1E1E1E1E1E1E1E1E1E1E1E1E1E1E1E1E1E1E1E1E1E1E1E1E1E1E1E1E1E1E1E1BEE1E128E1E1E1E1E1E1E20FE1E1E2E1E1E1E1E1E1E1E1E1E1E1E10FE2E1E1E1E1E1E1E1E1E1E1E1E20FE1E1E1
310
E1E1E1E1E1E1E1E1E1E1BEE1E1E1E1E1E1E1E1E1E1E1E1E1E10FE2E10F0FE1E1E1E1E1E1E1E1E20FE1E1E1E1E1E1E1E1E1E1E1E2E2E1E10FE2E1E1E1E1E1E1E20FE1E1E1E1E1E1E1E1E1E1E1E1E1E1BEE1E1E1E1E1E1E1E1E1E1E1E1E1E10FE2E1E1E1E1E1E1E1E1E1E1E1E1E1E1E1E1E1E1E1E1E1E1E128BEE1E1E1E1E1E1
310
E1E1E1E1E1E1E1E1E1E1E1E1E1E1E1E1E1E1E1E1E1E1E1E1E1E1E1E1E1E1E1E1E1E1E1E1E1E1E1E1E1E1E1E1E1E1E1E1E1E1E1E1E1E1E1E1E1E1E1E1E1E1E1E1E1E1E1E1E1E1E1E1E1E1E1E1E1E1E1E1E1E1E1E1BEE1E128E1E1E1E1E1BEE20FBEBEE2BEBEBEBEBEBEBEBEBEBEBEBE0FE2E1E1E1E1E1E1E1E1E1E1BEE2BEBE
310
BEBEBEBEBEBEBEBEBEBEBEBEBEBEBEBEBEBEBEBEBEBEBEBEBEBEBEBEBEBE0F0FE1E1E1E1E1E1E1E1BEBEBEBEBEBEBEBEBEBEBEBEBEBEBEBEBEBEBEE1E1E1E1E1E1BEBEBEBEBEBEBEBEBEBEBEBEBEBEBEBEBEBEBEBEBEBEBEBEBEBEBEBEBEBEBEBEBEE1E1E1E1E1E1E1E1E1E1E1E1E1E1E1E1E1E1E1E1E1E1E128BEE1E1E1E1
310
E1E1E1E1E1E1E1E1E1E1E1E1E1E1E1E1E1E1E1E1E1E1E1E1E1E1E1E1E1E1E1E1E1E1E1E1E1E1E1E1E1E1E1E1E1E1E1E1E1E1E1E1E1E1E1E1E1E1E1E1E1E1E1E1E1E1E1E1E1E1E1E1E1E1E1E1E1E1E1E1E1E1E1E1E1E1BEE1E128E1E1E1E1E1E1E20FE1E1E2E1E1E1E1E1E1E1E1E1E1E1E10FE2E1E1E1E1E1E1E1E1E1E1E1E2
310
0FE1E1E1E1E1E1E1E1E1E1E1E1E1BEE1E1E1E1E1E1E1E1E1E1E1E1E1E10FE2E10F0FE1E1E1E1E1E1E1E1E20FE1E1E1E1E1E1E1E1E1E1E1E2E2E1E10FE2E1E1E1E1E1E1E20FE1E1E1E1E1E1E1E1E1E1E1E1E1E1BEE1E1E1E1E1E1E1E1E1E1E1E1E1E10FE2E1E1E1E1E1E1E1E1E1E1E1E1E1E1E1E1E1E1E1E1E1E1E128BEE1E1
310
E1E1E1E1E1E1E1E1E1E1E1E1E1E1E1E1E1E1E1E1E1E1E1E1E1E1E1E1E1E1E1E1E1E1E1E1E1E1E1E1E1E1E1E1E1E1E1E1E1E1E1E1E1E1E1E1E1E1E1E1E1E1E1E1E1E1E1E1E1E1E1E1E1E1E1E1E1E1E1E1E1E1E1E1E1E1E1E1BEE1E128E1E1E1E1E1E1E20FE1E1E2E1E1E1E1E1E1E1E1E1E1E1E10FE2E1E1E1E1E1E1E1E1E1E1
310
E1E20FE1E1E1E1E1E1E1E1E1E1E1E1E1BEE1E1E1E1E1E1E1E1E1E1E1E1E1E10FE2E1E1BEE1E1E1E1E1E1E1E1E20FE1E1E1E1E1E1E1E1E1E1E1E2E2E1E10FE2E1E1E1E1E1E1E20FE1E1E1E1E1E1E1E1E1E1E1E1E1E1BEE1E1E1E1E1E1E1E1E1E1E1E1E1E10FE2E1E1E1E1E1E1E1E1E1E1E1E1E1E1E1E1E1E1E1E1E1E1E128BE
310
E1E1E1E1E1E1E1E1E1E1E1E1E1E1E1E1E1E1E1E1E1E1E1E1E1E1E1E1E1E1E1E1E1E1E1E1E1E1E1E1E1E1E1E1E1E1E1E1E1E1E1E1E1E1E1E1E1E1E1E1E1E1E1E1E1E1E1E1E1E1E1E1E1E1E1E1E1E1E1E1E1E1E1E1E1E1E1E1E1E1BEE1E128E1E1E1E1E1E1E20FE1E1E2E1E1E1E1E1E1E1E1E1E1E1E10FE2E1E1E1E1E1E1E1E1
310
E1E1E1E20FE1E1E1E1E1E1E1E1E1E1E1E1E1BEE1E1E1E1E1E1E1E1E1E1E1E1E1E10FE2E1E1BEE1E1E1E1E1E1E1E1E20FE1E1E1E1E1E1E1E1E1E1E1E2E2E1E10FE2E1E1E1E1E1E1E20FE1E1E1E1E1E1E1E1E1E1E1E1E1E1BEE1E1E1E1E1E1E1E1E1E1E1E1E1E10FE2E1E1E1E1E1E1E1E1E1E1E1E1E1E1E1E1E1E1E1E1E1E1E1
310
28BEE1E1E1E1E1E1E1E1E1E1E1E1E1E1E1E1E1E1E1E1E1E1E1E1E1E1E1E1E1E1E1E1E1E1E1E1E1E1E1E1E1E1E1E1E1E1E1E1E1E1E1E1E1E1E1E1E1E1E1E1E1E1E1E1E1E1E1E1E1E1E1E1E1E1E1E1E1E1E1E1E1E1E1E1E1E1E1E1E1E1BEE1E128E1E1E1E1E1E1E20FE1E1E2E1E1E1E1E1E1E1E1E1E1E1E10FE2E1E1E1E1E1E1
310
E1E1E1E1E1E20FE1E1E1E1E1E1E1E1E1E1E1E1E1BEE1E1E1E1E1E1E1E1E1E1E1E1E1E10FE2E1E1BEE1E1E1E1E1E1E1E1E20FE1E1E1E1E1E1E1E1E1E1E1E2E2E1E10FE2E1E1E1E1E1E1E20FE1E1E1E1E1E1E1E1E1E1E1E1E1E1BEE1E1E1E1E1E1E1E1E1E1E1E1E1E10FE2E1E1E1E1E1E1E1E1E1E1E1E1E1E1E1E1E1E1E1E1E1
310
E1E128BEE1E1E1E1E1E1E1E1E1E1E1E1E1E1E1E1E1E1E1E1E1E1E1E1E1E1E1E1E1E1E1E1E1E1E1E1E1E1E1E1E1E1E1E1E1E1E1E1E1E1E1E1E1E1E1E1E1E1E1E1E1E1E1E1E1E1E1E1E1E1E1E1E1E1E1E1E1E1E1E1E1E1E1E1E1E1E1E1E1E1BEE1E128E1E1E1E1E1E1E20FE1E1E2E1E1E1E1E1E1E1E1E1E1E1E10FE2E1E1E1E1
310
E1E1E1E1E1E1E1E20FE1E1E1E1E1E1E1E1E1E1E1E1E1BEE1E1E1E1E1E1E1E1E1E1E1E1E1E10FE2E1E1BEE1E1E1E1E1E1E1E1E20FE1E1E1E1E1E1E1E1E1E1E1E2E2E1E10FE2E1E1E1E1E1E1E20FE1E1E1E1E1E1E1E1E1E1E1E1E1E1BEE1E1E1E1E1E1E1E1E1E1E1E1E1E10FE2E1E1E1E1E1E1E1E1E1E1E1E1E1E1E1E1E1E1E1
310
E1E1E1E128BEE1E1E1E1E1E1E1E1E1E1E1E1E1E1E1E1E1E1E1E1E1E1E1E1E1E1E1E1E1E1E1E1E1E1E1E1E1E1E1E1E1E1E1E1E1E1E1E1E1E1E1E1E1E1E1E1E1E1E1E1E1E1E1E1E1E1E1E1E1E1E1E1E1E1E1E1E1E1E1E1E1E1E1E1E1E1E1E1E1E1BEE1E128E1E1E1E1E1E1E20FE1E1E2E1E1E1E1E1E1E1E1E1E1E1E10FE2E1E1
310
E1E1E1E1E1E1E1E1E1E20FE1E1E1E1E1E1E1E1E1E1E1E1E1BEE1E1E1E1E1E1E1E1E1E1E1E1E1E10FE2E1E1BEE1E1E1E1E1E1E1E1E20FE1E1E1E1E1E1E1E1E1E1E1E2E2E1E10FE2E1E1E1E1E1E1E20FE1E1E1E1E1E1E1E1E1E1E1E1E1E1BEE1E1E1E1E1E1E1E1E1E1E1E1E1E10FE2E1E1E1E1E1E1E1E1E1E1E1E1E1E1E1E1E1
310
E1E1E1E1E1E128BEE1E1E1E1E1E1E1E1E1E1E1E1E1E1E1E1E1E1E1E1E1E1E1E1E1E1E1E1E1E1E1E1E1E1E1E1E1E1E1E1E1E1E1E1E1E1E1E1E1E1E1E1E1E1E1E1E1E1E1E1E1E1E1E1E1E1E1E1E1E1E1E1E1E1E1E1E1E1E1E1E1E1E1E1E1E1E1E1E1E1BEE1E128E1E1E1E1E1E1E20FE1E1E2E1E1E1E1E1E1E1E1E1E1E1E10FE2
310
E1E1E1E1E1E1E1E1E1E1E1E20FE1E1E1E1E1E1E1E1E1E1E1E1E1BEE1E1E1E1E1E1E1E1E1E1E1E1E1E10FE2E1E1BEE1E1E1E1E1E1E1E1E20FE1E1E1E1E1E1E1E1E1E1E1E2E2E1E10FE2E1E1E1E1E1E1E20FE1E1E1E1E1E1E1E1E1E1E1E1E1E1BEE1E1E1E1E1E1E1E1E1E1E1E1E1E10FE2E1E1E1E1E1E1E1E1E1E1E1E1E1E1E1
310
E1E1E1E1E1E1E1E128BEE1E1E1E1E1E1E1E1E1E1E1E1E1E1E1E1E1E1E1E1E1E1E1E1E1E1E1E1E1E1E1E1E1E1E1E1E1E1E1E1E1E1E1E1E1E1E1E1E1E1E1E1E1E1E1E1E1E1E1E1E1E1E1E1E1E1E1E1E1E1E1E1E1E1E1E1E1E1E1E1E1E1E1E1E1E1E1E1E1E1BEE1E128E1E1E1E1E1E1E20FE1E1E2E1E1E1E1E1E1E1E1E1E1E1E1
310
0FE2E1E1E1E1E1E1E1E1E1E1E1E20FE1E1E1E1E1E1E1E1E1E1E1E1E1BEE1E1E1E1E1E1E1E1E1E1E1E1E1E10FE2E1E1BEE1E1E1E1E1E1E1E1E20FE1E1E1E1E1E1E1E1E1E1E1E2E2E1E10FE2E1E1E1E1E1E1E20FE1E1E1E1E1E1E1E1E1E1E1E1E1E1BEE1E1E1E1E1E1E1E1E1E1E1E1E1E10FE2E1E1E1E1E1E1E1E1E1E1E1E1E1
310
E1E1E1E1E1E1E1E1E1E128BEE1E1E1E1E1E1E1E1E1E1E1E1E1E1E1E1E1E1E1E1E1E1E1E1E1E1E1E1E1E1E1E1E1E1E1E1E1E1E1E1E1E1E1E1E1E1E1E1E1E1E1E1E1E1E1E1E1E1E1E1E1E1E1E1E1E1E1E1E1E1E1E1E1E1E1E1E1E1E1E1E1E1E1E1E1E1E1E1E1E1BEE1E128E1E1E1E1E1E1E20FE1E1E2E1E1E1E1E1E1E1E1E1E1
310
E1E10FE2E1E1E1E1E1E1E1E1E1E1E1E20FE1E1E1E1E1E1E1E1E1E1E1E1E1BEE1E1E1E1E1E1E1E1E1E1E1E1E1E10FE2E1E1BEE1E1E1E1E1E1E1E1E20FE1E1E1E1E1E1E1E1E1E1E1E2E2E1E10FE2E1E1E1E1E1E1E20FE1E1E1E1E1E1E1E1E1E1E1E1E1E1BEE1E1E1E1E1E1E1E1E1E1E1E1E1E10FE2E1E1E1E1E1E1E1E1E1E1E1
310
E1E1E1E1E1E1E1E1E1E1E1E128BEE1E1E1E1E1E1E1E1E1E1E1E1E1E1E1E1E1E1E1E1E1E1E1E1E1E1E1E1E1E1E1E1E1E1E1E1E1E1E1E1E1E1E1E1E1E1E1E1E1E1E1E1E1E1E1E1E1E1E1E1E1E1E1E1E1E1E1E1E1E1E1E1E1E1E1E1E1E1E1E1E1E1E1E1E1E1E1E1E1E1BEE1E128E1E1E1E1E1E1E20FE1E1E2E1E1E1E1E1E1E1E1
310
E1E1E1E10FE2E1E1E1E1E1E1E1E1E1E1E1E20FE1E1E1E1E1E1E1E1E1E1E1E1E1BEE1E1E1E1E1E1E1E1E1E1E1E1E1E10FE2E1E1BEE1E1E1E1E1E1E1E1E20FE1E1E1E1E1E1E1E1E1E1E1E2E2E1E10FE2E1E1E1E1E1E1E20FE1E1E1E1E1E1E1E1E1E1E1E1E1E1BEE1E1E1E1E1E1E1E1E1E1E1E1E1E10FE2E1E1E1E1E1E1E1E1E1
310
E1E1E1E1E1E1E1E1E1E1E1E1E1E128BEE1E1E1E1E1E1E1E1E1E1E1E1E1E1E1E1E1E1E1E1E1E1E1E1E1E1E1E1E1E1E1E1E1E1E1E1E1E1E1E1E1E1E1E1E1E1E1E1E1E1E1E1E1E1E1E1E1E1E1E1E1E1E1E1E1E1E1E1E1E1E1E1E1E1E1E1E1E1E1E1E1E1E1E1E1E1E1E1E1E1BEE1E128E1E1E1E1E1E1E20FE1E1E2E1E1E1E1E1E1
310
E1E1E1E1E1E10FE2E1E1E1E1E1E1E1E1E1E1E1E20FE1E1E1E1E1E1E1E1E1E1E1E1E1BEE1E1E1E1E1E1E1E1E1E1E1E1E1E10FE2E1E1BEE1E1E1E1E1E1E1E1E20FE1E1E1E1E1E1E1E1E1E1E1E2E2E1E10FE2E1E1E1E1E1E1E20FE1E1E1E1E1E1E1E1E1E1E1E1E1E1BEE1E1E1E1E1E1E1E1E1E1E1E1E1E10FE2E1E1E1E1E1E1E1
310
E1E1E1E1E1E1E1E1E1E1E1E1E1E1E1E128BEE1E1E1E1E1E1E1E1E1E1E1E1E1E1E1E1E1E1E1E1E1E1E1E1E1E1E1E1E1E1E1E1E1E1E1E1E1E1E1E1E1E1E1E1E1E1E1E1E1E1E1E1E1E1E1E1E1E1E1E1E1E1E1E1E1E1E1E1E1E1E1E1E1E1E1E1E1E1E1E1E1E1E1E1E1E1E1E1E1E1BEE1E128E1E1E1E1E1E1E20FE1E1E2E1E1E1E1
310
E1E1E1E1E1E1E1E10FE2E1E1E1E1E1E1E1E1E1E1E1E20FE1E1E1E1E1E1E1E1E1E1E1E1E1BEE1E1E1E1E1E1E1E1E1E1E1E1E1E10FE2E1E1BEE1E1E1E1E1E1E1E1E20FE1E1E1E1E1E1E1E1E1E1E1E2E2E1E10FE2E1E1E1E1E1E1E20FE1E1E1E1E1E1E1E1E1E1E1E1E1E1BEE1E1E1E1E1E1E1E1E1E1E1E1E1E10FE2E1E1E1E1E1
310
E1E1E1E1E1E1E1E1E1E1E1E1E1E1E1E1E1E128BEE1E1E1E1E1E1E1E1E1E1E1E1E1E1E1E1E1E1E1E1E1E1E1E1E1E1E1E1E1E1E1E1E1E1E1E1E1E1E1E1E1E1E1E1E1E1E1E1E1E1E1E1E1E1E1E1E1E1E1E1E1E1E1E1E1E1E1E1E1E1E1E1E1E1E1E1E1E1E1E1E1E1E1E1E1E1E1E1E1E1BEE1E128E1E1E1E1E1E1E20FE1E1E2E1E1
310
E1E1E1E1E1E1E1E1E1E10FE2E1E1E1E1E1E1E1E1E1E1E1E20FE1E1E1E1E1E1E1E1E1E1E1E1E1BEE1E1E1E1E1E1E1E1E1E1E1E1E1E10FE2E1E1BEE1E1E1E1E1E1E1E1E20FE1E1E1E1E1E1E1E1E1E1E1E2E2E1E10FE2E1E1E1E1E1E1E20FE1E1E1E1E1E1E1E1E1E1E1E1E1E1BEE1E1E1E1E1E1E1E1E1E1E1E1E1E10FE2E1E1E1
310
E1E1E1E1E1E1E1E1E1E1E1E1E1E1E1E1E1E1E1E128BEE1E1E1E1E1E1E1E1E1E1E1E1E1E1E1E1E1E1E1E1E1E1E1E1E1E1E1E1E1E1E1E1E1E1E1E1E1E1E1E1E1E1E1E1E1E1E1E1E1E1E1E1E1E1E1E1E1E1E1E1E1E1E1E1E1E1E1E1E1E1E1E1E1E1E1E1E1E1E1E1E1E1E1E1E1E1E1E1E1E1BEE1E128E1E1E1E1E1E1E20FE1E1E2
310
E1E1E1E1E1E1E1E1E1E1E1E10FE2E1E1E1E1E1E1E1E1E1E1E1E20FE1E1E1E1E1E1E1E1E1E1E1E1E1BEE1E1E1E1E1E1E1E1E1E1E1E1E1E10FE2E1E1BEE1E1E1E1E1E1E1E1E20FE1E1E1E1E1E1E1E1E1E1E1E2E2E1E10FE2E1E1E1E1E1E1E20FE1E1E1E1E1E1E1E1E1E1E1E1E1E1BEE1E1E1E1E1E1E1E1E1E1E1E1E1E10FE2E1
310
E1E1E1E1E1E1E1E1E1E1E1E1E1E1E1E1E1E1E1E1E1E128BEE1E1E1E1E1E1E1E1E1E1E1E1E1E1E1E1E1E1E1E1E1E1E1E1E1E1E1E1E1E1E1E1E1E1E1E1E1E1E1E1E1E1E1E1E1E1E1E1E1E1E1E1E1E1E1E1E1E1E1E1E1E1E1E1E1E1E1E1E1E1E1E1E1E1E1E1E1E1E1E1E1E1E1E1E1E1E1E1E1E1BEE1E128E1E1E1E1E1E1E20FE1
310
E1E2E1E1E1E1E1E1E1E1E1E1E1E10FE2E1E1E1E1E1E1E1E1E1E1E1E20FE1E1E1E1E1E1E1E1E1E1E1E1E1BEE1E1E1E1E1E1E1E1E1E1E1E1E1E10FE2E1E1BEE1E1E1E1E1E1E1E1E20FE1E1E1E1E1E1E1E1E1E1E1E2E2E1E10FE2E1E1E1E1E1E1E20FE1E1E1E1E1E1E1E1E1E1E1E1E1E1BEE1E1E1E1E1E1E1E1E1E1E1E1E1E10F
310
E2E1E1E1E1E1E1E1E1E1E1E1E1E1E1E1E1E1E1E1E1E1E1E128BEE1E1E1E1E1E1E1E1E1E1E1E1E1E1E1E1E1E1E1E1E1E1E1E1E1E1E1E1E1E1E1E1E1E1E1E1E1E1E1E1E1E1E1E1E1E1E1E1E1E1E1E1E1E1E1E1E1E1E1E1E1E1E1E1E1E1E1E1E1E1E1E1E1E1E1E1E1E1E1E1E1E1E1E1E1E1E1E1E1E1BEE1E128E1E1E1E1E1E1E2
310
0FE1E1E2E1E1E1E1E1E1E1E1E1E1E1E10FE2E1E1E1E1E1E1E1E1E1E1E1E20FE1E1E1E1E1E1E1E1E1E1E1E1E1BEE1E1E1E1E1E1E1E1E1E1E1E1E1E10FE2E1E1BEE1E1E1E1E1E1E1E1E20FE1E1E1E1E1E1E1E1E1E1E1E2E2E1E10FE2E1E1E1E1E1E1E20FE1E1E1E1E1E1E1E1E1E1E1E1E1E1BEE1E1E1E1E1E1E1E1E1E1E1E1E1
310
E10FE2E1E1E1E1E1E1E1E1E1E1E1E1E1E1E1E1E1E1E1E1E1E1E128BEE1E1E1E1E1E1E1E1E1E1E1E1E1E1E1E1E1E1E1E1E1E1E1E1E1E1E1E1E1E1E1E1E1E1E1E1E1E1E1E1E1E1E1E1E1E1E1E1E1E1E1E1E1E1E1E1E1E1E1E1E1E1E1E1E1E1E1E1E1E1E1E1E1E1E1E1E1E1E1E1E1E1E1E1E1E1E1E1E1E1BEE1E128E1E1E1E1E1
310
E1E20FE1E1E2E1E1E1E1E1E1E1E1E1E1E1E10FE2E1E1E1E1E1E1E1E1E1E1E1E20FE1E1E1E1E1E1E1E1E1E1E1E1E1BEE1E1E1E1E1E1E1E1E1E1E1E1E1E10FE2E1E1BEE1E1E1E1E1E1E1E1E20FE1E1E1E1E1E1E1E1E1E1E1E2E2E1E10FE2E1E1E1E1E1E1E20FE1E1E1E1E1E1E1E1E1E1E1E1E1E1BEE1E1E1E1E1E1E1E1E1E1E1
310
E1E1E10FE2E1E1E1E1E1E1E1E1E1E1E1E1E1E1E1E1E1E1E1E1E1E1E128BEE1E1E1E1E1E1E1E1E1E1E1E1E1E1E1E1E1E1E1E1E1E1E1E1E1E1E1E1E1E1E1E1E1E1E1E1E1E1E1E1E1E1E1E1E1E1E1E1E1E1E1E1E1E1E1E1E1E1E1E1E1E1E1E1E1E1E1E1E1E1E1E1E1E1E1E1E1E1E1E1E1E1E1E1E1E1E1E1E1E1BEE1E128E1E1E1
310
E1E1E1E20FE1E1E2E1E1E1E1E1E1E1E1E1E1E1E10FE2E1E1E1E1E1E1E1E1E1E1E1E20FE1E1E1E1E1E1E1E1E1E1E1E1E1BEE1E1E1E1E1E1E1E1E1E1E1E1E1E10FE2E1E1BEE1E1E1E1E1E1E1E1E20FE1E1E1E1E1E1E1E1E1E1E1E2E2E1E10FE2E1E1E1E1E1E1E20FE1E1E1E1E1E1E1E1E1E1E1E1E1E1BEE1E1E1E1E1E1E1E1E1
310
E1E1E1E1E10FE2E1E1E1E1E1E1E1E1E1E1E1E1E1E1E1E1E1E1E1E1E1E1E128BEE1E1E1E1E1E1E1E1E1E1E1E1E1E1E1E1E1E1E1E1E1E1E1E1E1E1E1E1E1E1E1E1E1E1E1E1E1E1E1E1E1E1E1E1E1E1E1E1E1E1E1E1E1E1E1E1E1E1E1E1E1E1E1E1E1E1E1E1E1E1E1E1E1E1E1E1E1E1E1E1E1E1E1E1E1E1E1E1E1E1BEE1E128E1
310
E1E1E1E1E1E20FE1E1E2E1E1E1E1E1E1E1E1E1E1E1E10FE2E1E1E1E1E1E1E1E1E1E1E1E20FE1E1E1E1E1E1E1E1E1E1E1E1E1BEE1E1E1E1E1E1E1E1E1E1E1E1E1E10FE2E1E1BEE1E1E1E1E1E1E1E1E20FE1E1E1E1E1E1E1E1E1E1E1E2E2E1E10FE2E1E1E1E1E1E1E20FE1E1E1E1E1E1E1E1E1E1E1E1E1E1BEE1E1E1E1E1E1E1
310
E1E1E1E1E1E1E10FE2E1E1E1E1E1E1E1E1E1E1E1E1E1E1E1E1E1E1E1E1E1E1E128BEE1E1E1E1E1E1E1E1E1E1E1E1E1E1E1E1E1E1E1E1E1E1E1E1E1E1E1E1E1E1E1E1E1E1E1E1E1E1E1E1E1E1E1E1E1E1E1E1E1E1E1E1E1E1E1E1E1E1E1E1E1E1E1E1E1E1E1E1E1E1E1E1E1E1E1E1E1E1E1E1E1E1E1E1E1E1E1E1E1E1BEE1E1
310
28E1E1E1E1E1E1E20FE1E1E2E1E1E1E1E1E1E1E1E1E1E1E10FE2E1E1E1E1E1E1E1E1E1E1E1E20FE1E1E1E1E1E1E1E1E1E1E1E1E1BEE1E1E1E1E1E1E1E1E1E1E1E1E1E10FE2E1E1BEE1E1E1E1E1E1E1E1E20FE1E1E1E1E1E1E1E1E1E1E1E2E2E1E10FE2E1E1E1E1E1E1E20FE1E1E1E1E1E1E1E1E1E1E1E1E1E1BEE1E1E1E1E1
310
E1E1E1E1E1E1E1E1E10FE2E1E1E1E1E1E1E1E1E1E1E1E1E1E1E1E1E1E1E1E1E1E1E128BEE1E1E1E1E1E1E1E1E1E1E1E1E1E1E1E1E1E1E1E1E1E1E1E1E1E1E1E1E1E1E1E1E1E1E1E1E1E1E1E1E1E1E1E1E1E1E1E1E1E1E1E1E1E1E1E1E1E1E1E1E1E1E1E1E1E1E1E1E1E1E1E1E1E1E1E1E1E1E1E1E1E1E1E1E1E1E1E1E1E1BE
310
E1E128E1E1E1E1E1E1E20F0F0FE2E1E1E1E1E1E1E1E1E1E1E1E10FE2E1E1E1E1E1E1E1E1E1E1E1E20FE1E1E1E1E1E1E1E1E1E1E1E1E1BEE1E1E1E1E1E1E1E1E1E1E1E1E1E10FE2E1E1BEE1E1E1E1E1E1E1E1E20FE1E1E1E1E1E1E1E1E1E1E1E20F0F0F0FE2E1E1E1E1E1E1E20FE1E1E1E1E1E1E1E1E1E1E1E1E1E1BEE1E1E1
310
E1E1E1E1E1E1E1E1E1E1E10FE2E1E1E1E1E1E1E1E1E1E1E1E1E1E1E1E1E1E1E1E1E1E1E128BEE1E1E1E1E1E1E1E1E1E1E1E1E1E1E1E1E1E1E1E1E1E1E1E1E1E1E1E1E1E1E1E1E1E1E1E1E1E1E1E1E1E1E1E1E1E1E1E1E1E1E1E1E1E1E1E1E1E1E1E1E1E1E1E1E1E1E1E1E1E1E1E1E1E1E1E1E1E1E1E1E1E1E1E1E1E1E1E1E1
310
E1BEE1E128E1E1E1E1E1E1E20FE10F0F0F0F0F0F0F0F0F0F0F0F0F0F0FE2E1E1E1E1E1E1E1E1E1E1E1E20F0F0F0F0F0FE1E1E1E1E1E1E1E1BEE1E1E1E1E10F0F0F0F0F0F0F0FBEE1E2E1E1BEE1E1E1E1E1E1E1E1E20F0F0F0F0F0F0F0F0F0F0F0F0F0FE1E10FE2E1E1E1E1E1E1E20F0F0F0F0F0F0F0FBE0F0F0F0F0F0F0F0F
310
0F0F0F0F0F0FBE0F0FBE0F0FBE0FE2E1E1E1E1E1E1E1E1E1E1E1E1E1E1E1E1E1E1E1E1E1E1E128BEE1E1E1E1E1E1E1E1E1E1E1E1E1E1E1E1E1E1E1E1E1E1E1E1E1E1E1E1E1E1E1E1E1E1E1E1E1E1E1E1E1E1E1E1E1E1E1E1E1E1E1E1E1E1E1E1E1E1E1E1E1E1E1E1E1E1E1E1E1E1E1E1E1E1E1E1E1E1E1E1E1E1E1E1E1E1E1
310
E1E1E1BEE1E128E1E1E1E1E1E1E20FE10FE2E1E1E1E1E1E1E1E1E1E10FE10FE2E1E1E1E1E1E1E1E1E1E1E1E2E2E2E1E1E1E10FE1E1E1E1E1E1E1BEE1E1E1E1E1BE0F0F0FE1E1E1E2BEE2E2E1E1BEE1E1E1E1E1E1E1E1E20FE10FE1E1E1E1E1E1E1E1E1E2E2E1E10FE2E1E1E1E1E1E1E2E2E2E2E10F0F0FBEBEBEE1E1E1E1BE
310
0F0FE1E1E1E1E1BEBE0F0FBEE2E2E2E2E2E1E1E1E1E1E1E1E1E1E1E1E1E1E1E1E1E1E1E1E1E1E1E128BEE1E1E1E1E1E1E1E1E1E1E1E1E1E1E1E1E1E1E1E1E1E1E1E1E1E1E1E1E1E1E1E1E1E1E1E1E1E1E1E1E1E1E1E1E1E1E1E1E1E1E1E1E1E1E1E1E1E1E1E1E1E1E1E1E1E1E1E1E1E1E1E1E1E1E1E1E1E1E1E1E1E1E1E1E1
310
E1E1E1E1E1BEE1E128E1E1E1E1E1E1E20FE10FE2E1E1E1E1E1E1E1E1E1E10FE10FE2E1E1E1E1E1E1E1E1E1E1E1E2E2E2E2E1E1E10FE1E1E1E1E1E1E1BEE1E1E1E1E10FBEE10FE1E1E1BEBEBEBEE1E1BEE1E1E1E1E1E1E1E1E20FE10FE1E1E1E1E1E1E1E1E1E2E2E1E10FE2E1E1E1E1E1E1E2E2BEE20FE20F0FBEBEE1E1E1E1
310
E1E1BEE1E1E1E1E1E1BEBE0FE2BEE2E2BEE2BEE1E1E1E1E1E1E1E1E1E1E1E1E1E1E1E1E1E1E1E1E1E1E128BEE1E1E1E1E1E1E1E1E1E1E1E1E1E1E1E1E1E1E1E1E1E1E1E1E1E1E1E1E1E1E1E1E1E1E1E1E1E1E1E1E1E1E1E1E1E1E1E1E1E1E1E1E1E1E1E1E1E1E1E1E1E1E1E1E1E1E1E1E1E1E1E1E1E1E1E1E1E1E1E1E1E1E1
310
E1E1E1E1E1E1E1BEE1E128E1E1E1E1E1E1E20F0F0F0F0F0F0F0F0F0F0F0F0F0F0F0F0FE2E1E1E1E1E1E1E1E1E1E1E1E2E2E2E1E1E1E10F0F0F0F0F0F0F0FBE0F0F0F0F0F0F0F0FE1E1E1E1E2BEE2E2E1E1BEE1E1E1E1E1E1E1E1E20F0F0F0F0F0F0F0F0F0F0F0FE2E20F0FE1E2E1E1E1E1E1E1E1E2E2E20F0F0F0F0F0F0F0F
310
0F0F0F0FBE0F0F0F0F0F0F0F0F0F0FBE0FE2E2E2E2E1E1E1E1E1E1E1E1E1E1E1E1E1E1E1E1E1E1E1E1E1E1E128BEE1E1E1E1E1E1E1E1E1E1E1E1E1E1E1E1E1E1E1E1E1E1E1E1E1E1E1E1E1E1E1E1E1E1E1E1E1E1E1E1E1E1E1E1E1E1E1E1E1E1E1E1E1E1E1E1E1E1E1E1E1E1E1E1E1E1E1E1E1E1E1E1E1E1E1E1E1E1E1E1E1
310
E1E1E1E1E1E1E1E1E1BEE1E128E1E1E1E1E1E1E2E2E2E2E2E2E2E2E2E2E2E2E2E2E2E2E2E2E2E1E1E1E1E1E1E1E1E1E1E1E1E2E2E2E2E2E2E2E2E2E2E2E2E2E2BEE2E2E2E2E2E2E2E2E2E2E2E2E2BEBEBEBEBEBEE1E1E1E1E1E1E1E1E2E2E2E2E2E2E2E2E2E2E2E2E2E2E2E2E2E2E2E1E1E1E1E1E1E1E2E2E2E2E2E2E2E2E2
310
E2E2E2E2E2E2BEE2E2E2E2E2E2E2E2E2E2E2E2E2BEE2E1E1E1E1E1E1E1E1E1E1E1E1E1E1E1E1E1E1E1E1E1E1E1E128BEE1E1E1E1E1E1E1E1E1E1E1E1E1E1E1E1E1E1E1E1E1E1E1E1E1E1E1E1E1E1E1E1E1E1E1E1E1E1E1E1E1E1E1E1E1E1E1E1E1E1E1E1E1E1E1E1E1E1E1E1E1E1E1E1E1E1E1E1E1E1E1E1E1E1E1E1E1E1E1
310
E1E1E1E1E1E1E1E1E1E1E1BEE1E128E1E1E1E1E10F0F0F0F0FE1E1E1E1E1E1E1E1E1E1E1E1E1E1E1E1E1E1E1E1E1E1E10F0F0F0F0F0F0F0FE1E1E1E1E1E1E1E1E1E1E1E1E1E1E1E1E1E1E1E1E1E1E1E1E1E1E1E1E1E1E1E1E1E1E1E10F0F0F0F0FE1E1E1E1E1E1E1E1E1E1E1E1E1E1E1E1E1E10F0F0F0F0F0F0F0F0F0FE1E1
310
E1E1E1E1E1E1E1E1E1E1E1E1E1E1E1E1E1E1E1E1E1E1E1E1E1E1E1E1E1E1E1E1E1E1E1E1E1E1E1E1E1E1E1E1E1E1E1E128BEE1E1E1E1E1E1E1E1E1E1E1E1E1E1E1E1E1E1E1E1E1E1E1E1E1E1E1E1E1E1E1E1E1E1E1E1E1E1E1E1E1E1E1E1E1E1E1E1E1E1E1E1E1E1E1E1E1E1E1E1E1E1E1E1E1E1E1E1E1E1E1E1E1E1E1E1E1
310
E1E1E1E1E1E1E1E1E1E1E1E1E1BEE1E128E1E1E1E1E10F0F0F0F0FE1E1E1E1E1E1E1E1E1E1E1E1E1E1E1E1E1E1E1E1E1E1E10F0F0F0F0F0F0F0FE1E1E1E1E1E1E1E1E1E1E1E1E1E1E1E1E1E1E1E1E1E1E1E1E1E1E1E1E1E1E1E1E1E1E1E10F0F0F0F0FE1E1E1E1E1E1E1E1E1E1E1E1E1E1E1E1E1E1E10F0F0F0F0F0F0F0F0F
310
E1E1E1E1E1E1E1E1E1E1E1E1E1E1E1E1E1E1E1E1E1E1E1E1E1E1E1E1E1E1E1E1E1E1E1E1E1E1E1E1E1E1E1E1E1E1E1E1E1E128BEE1E1E1E1E1E1E1E1E1E1E1E1E1E1E1E1E1E1E1E1E1E1E1E1E1E1E1E1E1E1E1E1E1E1E1E1E1E1E1E1E1E1E1E1E1E1E1E1E1E1E1E1E1E1E1E1E1E1E1E1E1E1E1E1E1E1E1E1E1E1E1E1E1E1E1
310
E1E1E1E1E1E1E1E1E1E1E1E1E1E1E1BEE1E128E1E1E1E1E10F0F0F0F0F0FE1E1E1E1E1E1E1E1E1E1E1E1E1E1E1E1E1E1E1E1E1E10F0F0F0F0F0F0F0F0F0F0F0FE1E1E1E1E1E1E1E1E1E1E1E1E1E1E1E1E1E1E1E1E1E1E1E1E1E1E1E1E1E1E1E10F0F0F0F0F0FE1E1E1E1E1E1E1E1E1E1E1E1E1E1E1E1E10F0F0F0F0F0F0F0F
310
0F0F0F0FE1E1E1E1E1E1E1E1E1E1E1E1E1E1E1E1E1E1E1E1E1E1E1E1E1E1E1E1E1E1E1E1E1E1E1E1E1E1E1E1E1E1E1E1E1E1E1E128BEE1E1E1E1E1E1E1E1E1E1E1E1E1E1E1E1E1E1E1E1E1E1E1E1E1E1E1E1E1E1E1E1E1E1E1E1E1E1E1E1E1E1E1E1E1E1E1E1E1E1E1E1E1E1E1E1E1E1E1E1E1E1E1E1E1E1E1E1E1E1E1E1E1
310
E1E1E1E1E1E1E1E1E1E1E1E1E1E1E1E1E1BEE1E128E1E1E1E1E10F0F0F0F0F0FE1E1E1E1E1E1E1E1E1E1E1E1E1E1E1E1E1E1E1E1E1E10F0F0F0F0F0F0F0F0F0F0F0FE1E1E1E1E1E1E1E1E1E1E1E1E1E1E1E1E1E1E1E1E1E1E1E1E1E1E1E1E1E1E1E10F0F0FE10F0FE1E1E1E1E1E1E1E1E1E1E1E1E1E1E1E1E10F0F0F0F0F0F
310
0F0F0F0F0F0F0FE1E1E1E1E1E1E1E1E1E1E1E1E1E1E1E1E1E1E1E1E1E1E1E1E1E1E1E1E1E1E1E1E1E1E1E1E1E1E1E1E1E1E1E1E1E1E128BEE1E1E1E1E1E1E1E1E1E1E1E1E1E1E1E1E1E1E1E1E1E1E1E1E1E1E1E1E1E1E1E1E1E1E1E1E1E1E1E1E1E1E1E1E1E1E1E1E1E1E1E1E1E1E1E1E1E1E1E1E1E1E1E1E1E1E1E1E1E1E1
310
E1E1E1E1E1E1E1E1E1E1E1E1E1E1E1E1E1E1E1BEE1E128E1E1E1E1E1E1E1E1E1E1E1E1E1E1E1E1E1E1E1E1E1E1E1E1E1E1E1E1E1E1E1E1E1E1E1E1E1E1E1E1E1E1E1E1E1E1E1E1E1E1E1E1E1E1E1E1E1E1E1E1E1E1E1E1E1E1E1E1E1E1E1E1E1E1E1E1E1E1E1E1E1E1E1E1E1E1E1E1E1E1E1E1E1E1E1E1E1E1E1E1E1E1E1E1
310
E1E1E1E1E1E1E1E1E1E1E1E1E1E1E1E1E1E1E1E1E1E1E1E1E1E1E1E1E1E1E1E1E1E1E1E1E1E1E1E1E1E1E1E1E1E1E1E1E1E1E1E1E1E1E1E128BEE1E1E1E1E1E1E1E1E1E1E1E1E1E1E1E1E1E1E1E1E1E1E1E1E1E1E1E1E1E1E1E1E1E1E1E1E1E1E1E1E1E1E1E1E1E1E1E1E1E1E1E1E1E1E1E1E1E1E1E1E1E1E1E1E1E1E1E1E1
310
E1E1E1E1E1E1E1E1E1E1E1E1E1E1E1E1E1E1E1E1E1BEE1E128E1E1E1E1E1E1E1E1E1E1E1E1E1E1E1E1E1E1E1E1E1E1E1E1E1E1E1E1E1E1E1E1E1E1E1E1E1E1E1E1E1E1E1E1E1E1E1E1E1E1E1E1E1E1E1E1E1E1E1E1E1E1E1E1E1E1E1E1E1E1E1E1E1E1E1E1E1E1E1E1E1E1E1E1E1E1E1E1E1E1E1E1E1E1E1E1E1E1E1E1E1E1
310
E1E1E1E1E1E1E1E1E1E1E1E1E1E1E1E1E1E1E1E1E1E1E1E1E1E1E1E1E1E1E1E1E1E1E1E1E1E1E1E1E1E1E1E1E1E1E1E1E1E1E1E1E1E1E1E1E1E128BEE1E1E1E1E1E1E1E1E1E1E1E1E1E1E1E1E1E1E1E1E1E1E1E1E1E1E1E1E1E1E1E1E1E1E1E1E1E1E1E1E1E1E1E1E1E1E1E1E1E1E1E1E1E1E1E1E1E1E1E1E1E1E1E1E1E1E1
310
E1E1E1E1E1E1E1E1E1E1E1E1E1E1E1E1E1E1E1E1E1E1E1BEE1E128E1E1E1E1E1E1E1E1E1E1E1E1E1E1E1E1E1E1E1E1E1E1E1E1E1E1E1E1E1E1E1E1E1E1E1E1E1E1E1E1E1E1E1E1E1E1E1E1E1E1E1E1E1E1E1E1E1E1E1E1E1E1E1E1E1E1E1E1E1E1E1E1E1E1E1E1E1E1E1E1E1E1E1E1E1E1E1E1E1E1E1E1E1E1E1E1E1E1E1E1
310
E1E1E1E1E1E1E1E1E1E1E1E1E1E1E1E1E1E1E1E1E1E1E1E1E1E1E1E1E1E1E1E1E1E1E1E1E1E1E1E1E1E1E1E1E1E1E1E1E1E1E1E1E1E1E1E1E1E1E1E128BEE1E1E1E1E1E1E1E1E1E1E1E1E1E1E1E1E1E1E1E1E1E1E1E1E1E1E1E1E1E1E1E1E1E1E1E1E1E1E1E1E1E1E1E1E1E1E1E1E1E1E1E1E1E1E1E1E1E1E1E1E1E1E1E1E1
310
E1E1E1E1E1E1E1E1E1E1E1E1E1E1E1E1E1E1E1E1E1E1E1E1E1BEE1E128E1E1E1E1E1E1E1E1E1E1E1E1E1E1E1E1E1E1E1E1E1E1E1E1E1E1E1E1E1E1E1E1E1E1E1E1E1E1E1E1E1E1E1E1E1E1E1E1E1E1E1E1E1E1E1E1E1E1E1E1E1E1E1E1E1E1E1E1E1E1E1E1E1E1E1E1E1E1E1E1E1E1E1E1E1E1E1E1E1E1E1E1E1E1E1E1E1E1
310
E1E1E1E1E1E1E1E1E1E1E1E1E1E1E1E1E1E1E1E1E1E1E1E1E1E1E1E1E1E1E1E1E1E1E1E1E1E1E1E1E1E1E1E1E1E1E1E1E1E1E1E1E1E1E1E1E1E1E1E1E1E128BEE1E1E1E1E1E1E1E1E1E1E1E1E1E1E1E1E1E1E1E1E1E1E1E1E1E1E1E1E1E1E1E1E1E1E1E1E1E1E1E1E1E1E1E1E1E1E1E1E1E1E1E1E1E1E1E1E1E1E1E1E1E1E1
310
E1E1E1E1E1E1E1E1E1E1E1E1E1E1E1E1E1E1E1E1E1E1E1E1E1E1E1BEE1E128E1E1E1E1E1E1E1E1E1E1E1E1E1E1E1E1E1E1E1E1E1E1E1E1E1E1E1E1E1E1E1E1E1E1E1E1E1E1E1E1E1E1E1E1E1E1E1E1E1E1E1BEE1E1E1E1E1E1E1E1E1E1E1E1E1E1E1E1E1E1E1E1E1E1E1E1E1E1E1E1E1E1E1E1E1E1E1E1E1E1E1E1E1E1E1E1
310
E1E1E1E1E1E1E1E1E1E1E1E1E1E1E1E1E1E1E1E1E1E1E1E1E1E1E1E1E1E1E1E1E1E1E1E1E1E1E1E1E1E1E1E1E1E1E1E1E1E1E1E1E1E1E1E1E1E1E1E1E1E1E1E128BEE1E1E1E1E1E1E1E1E1E1E1E1E1E1E1E1E1E1E1E1E1E1E1E1E1E1E1E1E1E1E1E1E1E1E1E1E1E1E1E1E1E1E1E1E1E1E1E1E1E1E1E1E1E1E1E1E1E1E1E1E1
310
E1E1E1E1E1E1E1E1E1E1E1E1E1E1E1E1E1E1E1E1E1E1E1E1E1E1E1E1E1BEE1E128E1E1E1E1E1E1E1E1E1E1E1E1E1E1E1E1E1E1E1E1E1E1E1E1E1E1E1E1E1E1E1E1E1E1E1E1E2E2E2E2E2E2E2E2E2E2E2E2E2E2E2BEE2E2E2E2E2E2E2E2E2E2E2E2E2E2E2E2E1E1E1E1E1E1E1E1E1E1E1E1E1E1E1E1E1E1E1E1E1E1E1E1E1E1
310
E1E1E1E1E1E1E1E1E1E1E1E1E1E1E1E1E1E1E1E1E1E1E1E1E1E1E1E1E1E1E1E1E1E1E1E1E1E1E1E1E1E1E1E1E1E1E1E1E1E1E1E1E1E1E1E1E1E1E1E1E1E1E1E1E1E128BEE1E1E1E1E1E1E1E1E1E1E1E1E1E1E1E1E1E1E1E1E1E1E1E1E1E1E1E1E1E1E1E1E1E1E1E1E1E1E1E1E1E1E1E1E1E1E1E1E1E1E1E1E1E1E1E1E1E1E1
310
E1E1E1E1E1E1E1E1E1E1E1E1E1E1E1E1E1E1E1E1E1E1E1E1E1E1E1E1E1E1E1BEE1E128E1E1E1E1E1E1E1E1E1E1E1E1E1E1E1E1E1E1E1E1E1E1E1E1E1E1E1E1E1E1E1E1E1E1E1E1E20F0F0F0F0F0F0F0F0F0F0F0F0F0FBE0F0F0F0F0F0F0F0F0F0F0F0F0F0F0FE2E1E1E1E1E1E1E1E1E1E1E1E1E1E1E1E1E1E1E1E1E1E1E1E1
310
E1E1E1E1E1E1E1E1E1E1E1E1E1E1E1E1E1E1E1E1E1E1E1E1E1E1E1E1E1E1E1E1E1E1E1E1E1E1E1E1E1E1E1E1E1E1E1E1E1E1E1E1E1E1E1E1E1E1E1E1E1E1E1E1E1E1E1E128BEE1E1E1E1E1E1E1E1E1E1E1E1E1E1E1E1E1E1E1E1E1E1E1E1E1E1E1E1E1E1E1E1E1E1E1E1E1E1E1E1E1E1E1E1E1E1E1E1E1E1E1E1E1E1E1E1E1
310
E1E1E1E1E1E1E1E1E1E1E1E1E1E1E1E1E1E1E1E1E1E1E1E1E1E1E1E1E1E1E1E1E1BEE1E128E1E1E1E1E1E1E1E1E1E1E1E1E1E1E1E1E1E1E1E1E1E1E1E1E1E1E1E1E1E1E1E1E1E1E1E1E20FE1E10F0F0F0F0F0F0F0F0F0F0F0F0F0F0F0F0F0F0F0F0F0F0FE1E1E10FE2E1E1E1E1E1E1E1E1E1E1E1E1E1E1E1E1E1E1E1E1E1E1
310
E1E1E1E1E1E1E1E1E1E1E1E1E1E1E1E1E1E1E1E1E1E1E1E1E1E1E1E1E1E1E1E1E1E1E1E1E1E1E1E1E1E1E1E1E1E1E1E1E1E1E1E1E1E1E1E1E1E1E1E1E1E1E1E1E1E1E1E1E1E128BEE1E1E1E1E1E1E1E1E1E1E1E1E1E1E1E1E1E1E1E1E1E1E1E1E1E1E1E1E1E1E1E1E1E1E1E1E1E1E1E1E1E1E1E1E1E1E1E1E1E1E1E1E1E1E1
310
E1E1E1E1E1E1E1E1E1E1E1E1E1E1E1E1E1E1E1E1E1E1E1E1E1E1E1E1E1E1E1E1E1E1E1BEE1E128E1E1E1E1E1E1E1E1E1E1E1E1E1E1E1E1E1E1E1E1E1E1E1E1E1E1E1E1E1E1E1E1E1E1E1E1E20FE1E1E1E10FE1E1E1E1E1E1E1E1BEE1E1E1E1E1E1E1E10FE1E1E1E1E10FE2E1E1E1E1E1E1E1E1E1E1E1E1E1E1E1E1E1E1E1E1
310
E1E1E1E1E1E1E1E1E1E1E1E1E1E1E1E1E1E1E1E1E1E1E1E1E1E1E1E1E1E1E1E1E1E1E1E1E1E1E1E1E1E1E1E1E1E1E1E1E1E1E1E1E1E1E1E1E1E1E1E1E1E1E1E1E1E1E1E1E1E1E1E128BEE1E1E1E1E1E1E1E1E1E1E1E1E1E1E1E1E1E1E1E1E1E1E1E1E1E1E1E1E1E1E1E1E1E1E1E1E1E1E1E1E1E1E1E1E1E1E1E1E1E1E1E1E1
310
E1E1E1E1E1E1E1E1E1E1E1E1E1E1E1E1E1E1E1E1E1E1E1E1E1E1E1E1E1E1E1E1E1E1E1E1E1BEE1E128E1E1E1E1E1E1E1E1E1E1E1E1E1E1E1E1E1E1E1E1E1E1E1E1E1E1E1E1E1E1E1E1E1E1E1E1E20FE1E1E1E10FE1E1E1E1E1E1E1E1BEE1E1E1E1E1E1E1E10FE1E1E1E1E10FE2E1E1E1E1E1E1E1E1E1E1E1E1E1E1E1E1E1E1
310
E1E1E1E1E1E1E1E1E1E1E1E1E1E1E1E1E1E1E1E1E1E1E1E1E1E1E1E1E1E1E1E1E1E1E1E1E1E1E1E1E1E1E1E1E1E1E1E1E1E1E1E1E1E1E1E1E1E1E1E1E1E1E1E1E1E1E1E1E1E1E1E1E1E128BEE1E1E1E1E1E1E1E1E1E1E1E1E1E1E1E1E1E1E1E1E1E1E1E1E1E1E1E1E1E1E1E1E1E1E1E1E1E1E1E1E1E1E1E1E1E1E1E1E1E1E1
310
E1E1E1E1E1E1E1E1E1E1E1E1E1E1E1E1E1E1E1E1E1E1E1E1E1E1E1E1E1E1E1E1E1E1E1E1E1E1E1BEE1E128E1E1E1E1E1E1E1E1E1E1E1E1E1E1E1E1E1E1E1E1E1E1E1E1E1E1E1E1E1E1E1E1E1E1E1E1E20FE1E1E1E10FE1E1E1E1E1E1E1E1BEE1E1E1E1E1E1E1E10FE1E1E1E1E10FE2E1E1E1E1E1E1E1E1E1E1E1E1E1E1E1E1
310
E1E1E1E1E1E1E1E1E1E1E1E1E1E1E1E1E1E1E1E1E1E1E1E1E1E1E1E1E1E1E1E1E1E1E1E1E1E1E1E1E1E1E1E1E1E1E1E1E1E1E1E1E1E1E1E1E1E1E1E1E1E1E1E1E1E1E1E1E1E1E1E1E1E1E1E128BEE1E1E1E1E1E1E1E1E1E1E1E1E1E1E1E1E1E1E1E1E1E1E1E1E1E1E1E1E1E1E1E1E1E1E1E1E1E1E1E1E1E1E1E1E1E1E1E1E1
310
E1E1E1E1E1E1E1E1E1E1E1E1E1E1E1E1E1E1E1E1E1E1E1E1E1E1E1E1E1E1E1E1E1E1E1E1E1E1E1E1E1BEE1E128E1E1E1E1E1E1E1E1E1E1E1E1E1E1E1E1E1E1E1E1E1E1E1E1E1E1E1E1E1E1E1E1E1E1E1E1E20FE1E1E1E10FE1E1E1E1E1E1E1E1BEE1E1E1E1E1E1E1E10FE1E1E1E1E10FE2E1E1E1E1E1E1E1E1E1E1E1E1E1E1
310
E1E1E1E1E1E1E1E1E1E1E1E1E1E1E1E1E1E1E1E1E1E1E1E1E1E1E1E1E1E1E1E1E1E1E1E1E1E1E1E1E1E1E1E1E1E1E1E1E1E1E1E1E1E1E1E1E1E1E1E1E1E1E1E1E1E1E1E1E1E1E1E1E1E1E1E1E1E128BEE1E1E1E1E1E1E1E1E1E1E1E1E1E1E1E1E1E1E1E1E1E1E1E1E1E1E1E1E1E1E1E1E1E1E1E1E1E1E1E1E1E1E1E1E1E1E1
310
E1E1E1E1E1E1E1E1E1E1E1E1E1E1E1E1E1E1E1E1E1E1E1E1E1E1E1E1E1E1E1E1E1E1E1E1E1E1E1E1E1E1E1BEE1E128E1E1E1E1E1E1E1E1E1E1E1E1E1E1E1E1E1E1E1E1E1E1E1E1E1E1E1E1E1E1E1E1E1E1E1E1E20FE1E1E1E10FE1E1E1E1E1E1E1E1BEE1E1E1E1E1E1E1E10FE1E1E1E1E10FE2E1E1E1E1E1E1E1E1E1E1E1E1
310
E1E1E1E1E1E1E1E1E1E1E1E1E1E1E1E1E1E1E1E1E1E1E1E1E1E1E1E1E1E1E1E1E1E1E1E1E1E1E1E1E1E1E1E1E1E1E1E1E1E1E1E1E1E1E1E1E1E1E1E1E1E1E1E1E1E1E1E1E1E1E1E1E1E1E1E1E1E1E1E128BEE1E1E1E1E1E1E1E1E1E1E1E1E1E1E1E1E1E1E1E1E1E1E1E1E1E1E1E1E1E1E1E1E1E1E1E1E1E1E1E1E1E1E1E1E1
310
E1E1E1E1E1E1E1E1E1E1E1E1E1E1E1E1E1E1E1E1E1E1E1E1E1E1E1E1E1E1E1E1E1E1E1E1E1E1E1E1E1E1E1E1E1BEE1E128E1E1E1E1E1E1E1E1E1E1E1E1E1E1E1E1E1E1E1E1E1E1E1E1E1E1E1E1E1E1E1E1E1E1E1E10FE1E1E1E1E10FE1E1E1E1E1E1E1E1BEE1E1E1E1E1E1E1E10FE1E1E1E1E10FE2E1E1E1E1E1E1E1E1E1E1
310
E1E1E1E1E1E1E1E1E1E1E1E1E1E1E1E1E1E1E1E1E1E1E1E1E1E1E1E1E1E1E1E1E1E1E1E1E1E1E1E1E1E1E1E1E1E1E1E1E1E1E1E1E1E1E1E1E1E1E1E1E1E1E1E1E1E1E1E1E1E1E1E1E1E1E1E1E1E1E1E1E1E128BEE1E1E1E1E1E1E1E1E1E1E1E1E1E1E1E1E1E1E1E1E1E1E1E1E1E1E1E1E1E1E1E1E1E1E1E1E1E1E1E1E1E1E1
310
E1E1E1E1E1E1E1E1E1E1E1E1E1E1E1E1E1E1E1E1E1E1E1E1E1E1E1E1E1E1E1E1E1E1E1E1E1E1E1E1E1E1E1E1E1E1E1BEE1E128E1E1E1E1E1E1E1E1E1E1E1E1E1E1E1E1E1E1E1E1E1E1E1E1E1E1E1E1E1E1E1E1E1E1E1E10FE1E1E1E1E10FE1E1E1E1E1E1E1E1BEE1E1E1E1E1E1E1E10FE1E1E1E1E10FE2E1E1E1E1E1E1E1E1
310
E1E1E1E1E1E1E1E1E1E1E1E1E1E1E1E1E1E1E1E1E1E1E1E1E1E1E1E1E1E1E1E1E1E1E1E1E1E1E1E1E1E1E1E1E1E1E1E1E1E1E1E1E1E1E1E1E1E1E1E1E1E1E1E1E1E1E1E1E1E1E1E1E1E1E1E1E1E1E1E1E1E1E1E128BEE1E1E1E1E1E1E1E1E1E1E1E1E1E1E1E1E1E1E1E1E1E1E1E1E1E1E1E1E1E1E1E1E1E1E1E1E1E1E1E1E1
310
E1E1E1E1E1E1E1E1E1E1E1E1E1E1E1E1E1E1E1E1E1E1E1E1E1E1E1E1E1E1E1E1E1E1E1E1E1E1E1E1E1E1E1E1E1E1E1E1E1BEE1E128E1E1E1E1E1E1E1E1E1E1E1E1E1E1E1E1E1E1E1E1E1E1E1E1E1E1E1E1E1E1E1E1E1E1E1E10FE1E1E1E1E10FE1E1E1E1E1E1E1E1BEE1E1E1E1E1E1E1E10FE1E1E1E1E10FE2E1E1E1E1E1E1
310
E1E1E1E1E1E1E1E1E1E1E1E1E1E1E1E1E1E1E1E1E1E1E1E1E1E1E1E1E1E1E1E1E1E1E1E1E1E1E1E1E1E1E1E1E1E1E1E1E1E1E1E1E1E1E1E1E1E1E1E1E1E1E1E1E1E1E1E1E1E1E1E1E1E1E1E1E1E1E1E1E1E1E1E1E1E128BEE1E1E1E1E1E1E1E1E1E1E1E1E1E1E1E1E1E1E1E1E1E1E1E1E1E1E1E1E1E1E1E1E1E1E1E1E1E1E1
310
E1E1E1E1E1E1E1E1E1E1E1E1E1E1E1E1E1E1E1E1E1E1E1E1E1E1E1E1E1E1E1E1E1E1E1E1E1E1E1E1E1E1E1E1E1E1E1E1E1E1E1BEE1E128E1E1E1E1E1E1E1E1E1E1E1E1E1E1E1E1E1E1E1E1E1E1E1E1E1E1E1E1E1E1E1E1E1E1E1E10FE1E1E1E1E10FE1E1E1E1E1E1E1E1BEE1E1E1E1E1E1E1E10FE1E1E1E1E10FE2E1E1E1E1
310
E1E1E1E1E1E1E1E1E1E1E1E1E1E1E1E1E1E1E1E1E1E1E1E1E1E1E1E1E1E1E1E1E1E1E1E1E1E1E1E1E1E1E1E1E1E1E1E1E1E1E1E1E1E1E1E1E1E1E1E1E1E1E1E1E1E1E1E1E1E1E1E1E1E1E1E1E1E1E1E1E1E1E1E1E1E1E1E128BEE1E1E1E1E1E1E1E1E1E1E1E1E1E1E1E1E1E1E1E1E1E1E1E1E1E1E1E1E1E1E1E1E1E1E1E1E1
310
E1E1E1E1E1E1E1E1E1E1E1E1E1E1E1E1E1E1E1E1E1E1E1E1E1E1E1E1E1E1E1E1E1E1E1E1E1E1E1E1E1E1E1E1E1E1E1E1E1E1E1E1E1BEE1E128E1E1E1E1E1E1E1E1E1E1E1E1E1E1E1E1E1E1E1E1E1E1E1E1E1E1E1E1E1E1E1E1E1E1E1E10FE1E1E1E1E10FE1E1E1E1E1E1E1E1BEE1E1E1E1E1E1E1E10FE1E1E1E1E10FE2E1E1
310
E1E1E1E1E1E1E1E1E1E1E1E1E1E1E1E1E1E1E1E1E1E1E1E1E1E1E1E1E1E1E1E1E1E1E1E1E1E1E1E1E1E1E1E1E1E1E1E1E1E1E1E1E1E1E1E1E1E1E1E1E1E1E1E1E1E1E1E1E1E1E1E1E1E1E1E1E1E1E1E1E1E1E1E1E1E1E1E1E1E128BEE1E1E1E1E1E1E1E1E1E1E1E1E1E1E1E1E1E1E1E1E1E1E1E1E1E1E1E1E1E1E1E1E1E1E1
310
E1E1E1E1E1E1E1E1E1E1E1E1E1E1E1E1E1E1E1E1E1E1E1E1E1E1E1E1E1E1E1E1E1E1E1E1E1E1E1E1E1E1E1E1E1E1E1E1E1E1E1E1E1E1E1BEE1E128E1E1E1E1E1E1E1E1E1E1E1E1E1E1E1E1E1E1E1E1E1E1E1E1E1E1E1E1E1E1E1E1E1E1E1E10F0FE2E2E2E20F0FE2E2E2E2E2E2E2E2E2E2E2E2E2E2E2E20FE2E2E2E2E20FE2
310
E1E1E1E1E1E1E1E1E1E1E1E1E1E1E1E1E1E1E1E1E1E1E1E1E1E1E1E1E1E1E1E1E1E1E1E1E1E1E1E1E1E1E1E1E1E1E1E1E1E1E1E1E1E1E1E1E1E1E1E1E1E1E1E1E1E1E1E1E1E1E1E1E1E1E1E1E1E1E1E1E1E1E1E1E1E1E1E1E1E1E1E128BEE1E1E1E1E1E1E1E1E1E1E1E1E1E1E1E1E1E1E1E1E1E1E1E1E1E1E1E1E1E1E1E1E1
310
E1E1E1E1E1E1E1E1E1E1E1E1E1E1E1E1E1E1E1E1E1E1E1E1E1E1E1E1E1E1E1E1E1E1E1E1E1E1E1E1E1E1E1E1E1E1E1E1E1E1E1E1E1E1E1E1E1BEE1E128E1E1E1E1E1E1E1E1E1E1E1E1E1E1E1E1E1E1E1E1E1E1E1E1E1E1E1E1E1E1E1E1E1E1E1E1E20FE1E1E1E1E10FE1E1E1E1E1E1E1BEE1E1E1E1E1E1E1E10FE1E1E1E1E1
310
0FE2E1E1E1E1E1E1E1E1E1E1E1E1E1E1E1E1E1E1E1E1E1E1E1E1E1E1E1E1E1E1E1E1E1E1E1E1E1E1E1E1E1E1E1E1E1E1E1E1E1E1E1E1E1E1E1E1E1E1E1E1E1E1E1E1E1E1E1E1E1E1E1E1E1E1E1E1E1E1E1E1E1E1E1E1E1E1E1E1E1E1E1E128BEE1E1E1E1E1E1E1E1E1E1E1E1E1E1E1E1E1E1E1E1E1E1E1E1E1E1E1E1E1E1E1
310
E1E1E1E1E1E1E1E1E1E1E1E1E1E1E1E1E1E1E1E1E1E1E1E1E1E1E1E1E1E1E1E1E1E1E1E1E1E1E1E1E1E1E1E1E1E1E1E1E1E1E1E1E1E1E1E1E1E1E1BEE1E128E1E1E1E1E1E1E1E1E1E1E1E1E1E1E1E1E1E1E1E1E1E1E1E1E1E1E1E1E1E1E1E1E1E1E1E1E20FE1E1E1E1E10FE1E1E1E1E1E1E1BEE1E1E1E1E1E1E1E10FE1E1E1
310
E1E10FE2E1E1E1E1E1E1E1E1E1E1E1E1E1E1E1E1E1E1E1E1E1E1E1E1E1E1E1E1E1E1E1E1E1E1E1E1E1E1E1E1E1E1E1E1E1E1E1E1E1E1E1E1E1E1E1E1E1E1E1E1E1E1E1E1E1E1E1E1E1E1E1E1E1E1E1E1E1E1E1E1E1E1E1E1E1E1E1E1E1E1E1E128BEE1E1E1E1E1E1E1E1E1E1E1E1E1E1E1E1E1E1E1E1E1E1E1E1E1E1E1E1E1
310
E1E1E1E1E1E1E1E1E1E1E1E1E1E1E1E1E1E1E1E1E1E1E1E1E1E1E1E1E1E1E1E1E1E1E1E1E1E1E1E1E1E1E1E1E1E1E1E1E1E1E1E1E1E1E1E1E1E1E1E1E1BEE1E128E1E1E1E1E1E1E1E1E1E1E1E1E1E1E1E1E1E1E1E1E1E1E1E1E1E1E1E1E1E1E1E1E1E1E1E1E20FE1E1E1E1E10FE1E1E1E1E1E1E1BEE1E1E1E1E1E1E1E10FE1
310
E1E1E1E10FE2E1E1E1E1E1E1E1E1E1E1E1E1E1E1E1E1E1E1E1E1E1E1E1E1E1E1E1E1E1E1E1E1E1E1E1E1E1E1E1E1E1E1E1E1E1E1E1E1E1E1E1E1E1E1E1E1E1E1E1E1E1E1E1E1E1E1E1E1E1E1E1E1E1E1E1E1E1E1E1E1E1E1E1E1E1E1E1E1E1E1E1E128BEE1E1E1E1E1E1E1E1E1E1E1E1E1E1E1E1E1E1E1E1E1E1E1E1E1E1E1
310
E1E1E1E1E1E1E1E1E1E1E1E1E1E1E1E1E1E1E1E1E1E1E1E1E1E1E1E1E1E1E1E1E1E1E1E1E1E1E1E1E1E1E1E1E1E1E1E1E1E1E1E1E1E1E1E1E1E1E1E1E1E1E1BEE1E128E1E1E1E1E1E1E1E1E1E1E1E1E1E1E1E1E1E1E1E1E1E1E1E1E1E1E1E1E1E1E1E1E1E1E1E1E20F0F0F0F0F0F0F0F0F0F0F0F0F0F0F0F0F0F0F0F0F0F0F
310
0F0F0F0F0F0F0FE2E1E1E1E1E1E1E1E1E1E1E1E1E1E1E1E1E1E1E1E1E1E1E1E1E1E1E1E1E1E1E1E1E1E1E1E1E1E1E1E1E1E1E1E1E1E1E1E1E1E1E1E1E1E1E1E1E1E1E1E1E1E1E1E1E1E1E1E1E1E1E1E1E1E1E1E1E1E1E1E1E1E1E1E1E1E1E1E1E1E1E1E128BEE1E1E1E1E1E1E1E1E1E1E1E1E1E1E1E1E1E1E1E1E1E1E1E1E1
310
E1E1E1E1E1E1E1E1E1E1E1E1E1E1E1E1E1E1E1E1E1E1E1E1E1E1E1E1E1E1E1E1E1E1E1E1E1E1E1E1E1E1E1E1E1E1E1E1E1E1E1E1E1E1E1E1E1E1E1E1E1E1E1E1E1BEE1E128E1E1E1E1E1E1E1E1E1E1E1E1E1E1E1E1E1E1E1E1E1E1E1E1E1E1E1E1E1E1E10F0F0F0F0FE1E1E1E1E1E1E1E1E1E1E1E1E1E1E1BEE1E1E1E1E1E1
310
E1E1E1E1E1E1E1E1E1E1E1E1E1E1E1E1E1E1E1E1E1E1E1E1E1E1E1E1E1E1E1E1E1E1E1E1E1E1E1E1E1E1E1E1E1E1E1E1E1E1E1E1E1E1E1E1E1E1E1E1E1E1E1E1E1E1E1E1E1E1E1E1E1E1E1E1E1E1E1E1E1E1E1E1E1E1E1E1E1E1E1E1E1E1E1E1E1E1E1E1E1E128BEE1E1E1E1E1E1E1E1E1E1E1E1E1E1E1E1E1E1E1E1E1E1E1
310
E1E1E1E1E1E1E1E1E1E1E1E1E1E1E1E1E1E1E1E1E1E1E1E1E1E1E1E1E1E1E1E1E1E1E1E1E1E1E1E1E1E1E1E1E1E1E1E1E1E1E1E1E1E1E1E1E1E1E1E1E1E1E1E1E1E1E1BEE1E128E1E1E1E1E1E1E1E1E1E1E1E1E1E1E1E1E1E1E1E1E1E1E1E1E1E1E1E1E1E1E10F0F0F0F0F0FE1E1E1E1E1E1E1E1E1E1E1E1E1E1E1E1E1E1E1
310
E1E1E1E1E1E1E1E1E1E1E1E1E1E1E1E1E1E1E1E1E1E1E1E1E1E1E1E1E1E1E1E1E1E1E1E1E1E1E1E1E1E1E1E1E1E1E1E1E1E1E1E1E1E1E1E1E1E1E1E1E1E1E1E1E1E1E1E1E1E1E1E1E1E1E1E1E1E1E1E1E1E1E1E1E1E1E1E1E1E1E1E1E1E1E1E1E1E1E1E1E1E1E1E128BEE1E1E1E1E1E1E1E1E1E1E1E1E1E1E1E1E1E1E1E1E1
310
E1E1E1E1E1E1E1E1E1E1E1E1E1E1E1E1E1E1E1E1E1E1E1E1E1E1E1E1E1E1E1E1E1E1E1E1E1E1E1E1E1E1E1E1E1E1E1E1E1E1E1E1E1E1E1E1E1E1E1E1E1E1E1E1E1E1E1E1E1BEE1E128E1E1E1E1E1E1E1E1E1E1E1E1E1E1E1E1E1E1E1E1E1E1E1E1E1E1E1E1E1E1E10F0F0F0F0F0FE1E1E1E1E1E1E1E1E1E1E1E1E1E1E1E1E1
310
E1E1E1E1E1E1E1E1E1E1E1E1E1E1E1E1E1E1E1E1E1E1E1E1E1E1E1E1E1E1E1E1E1E1E1E1E1E1E1E1E1E1E1E1E1E1E1E1E1E1E1E1E1E1E1E1E1E1E1E1E1E1E1E1E1E1E1E1E1E1E1E1E1E1E1E1E1E1E1E1E1E1E1E1E1E1E1E1E1E1E1E1E1E1E1E1E1E1E1E1E1E1E1E1E1E128BEE1E1E1E1E1E1E1E1E1E1E1E1E1E1E1E1E1E1E1
310
E1E1E1E1E1E1E1E1E1E1E1E1E1E1E1E1E1E1E1E1E1E1E1E1E1E1E1E1E1E1E1E1E1E1E1E1E1E1E1E1E1E1E1E1E1E1E1E1E1E1E1E1E1E1E1E1E1E1E1E1E1E1E1E1E1E1E1E1E1E1E1BEE1E12828282828282828282828282828282828282828282828282828282828282828282828282828282828282828282828282828282828
310
28282828282828282828282828282828282828282828282828282828282828282828282828282828282828282828282828282828282828282828282828282828282828282828282828282828282828282828282828282828282828282828282828282828282828282828282828BEE1E1E1E1E1E1E1E1E1E1E1E1E1E1E1E1E1
310
E1E1E1E1E1E1E1E1E1E1E1E1E1E1E1E1E1E1E1E1E1E1E1E1E1E1E1E1E1E1E1E1E1E1E1E1E1E1E1E1E1E1E1E1E1E1E1E1E1E1E1E1E1E1E1E1E1E1E1E1E1E1E1E1E1E1E1E1E1E1E1E1E1BEBEBEBEBEBEBEBEBEBEBEBEBEBEBEBEBEBEBEBEBEBEBEBEBEBEBEBEBEBEBEBEBEBEBEBEBEBEBEBEBEBEBEBEBEBEBEBEBEBEBEBEBEBE
310
BEBEBEBEBEBEBEBEBEBEBEBEBEBEBEBEBEBEBEBEBEBEBEBEBEBEBEBEBEBEBEBEBEBEBEBEBEBEBEBEBEBEBEBEBEBEBEBEBEBEBEBEBEBEBEBEBEBEBEBEBEBEBEBEBEBEBEBEBEBEBEBEBEBEBEBEBEBEBEBEBEBEBEBEBEBEBEBEBEBEBEBEBEBEBEBEBEBEBEBEBEBEBEBEBEBEBEBEBEBEBEBEE1E1E1E1E1E1E1E1E1E1E1E1E1E1E1
310
E1E1E1E1E1E1E1E1E1E1E1E1E1E1E1E1E1E1E1E1E1E1E1E1E1E1E1E1E1E1
  0
XRECORD
  5
EA3A
102
{ACAD_REACTORS
330
EA39
102
}
330
EA39
100
AcDbXrecord
280
     1
102
MATERIAL
148
0.0
149
0.0
149
0.0
 93
        0
 94
       63
282
     0
 72
     1
 77
     1
171
     1
175
     1
179
     1
273
     0
  0
XRECORD
  5
EA38
102
{ACAD_REACTORS
330
EA37
102
}
330
EA37
100
AcDbXrecord
280
     1
102
MATERIAL
148
0.0
149
0.0
149
0.0
 93
        0
 94
       63
282
     0
 72
     1
 77
     1
171
     1
175
     1
179
     1
273
     0
  0
XRECORD
  5
EA3C
102
{ACAD_REACTORS
330
EA3B
102
}
330
EA3B
100
AcDbXrecord
280
     1
102
MATERIAL
148
0.0
149
0.0
149
0.0
 93
        0
 94
       63
282
     0
 72
     1
 77
     1
171
     1
175
     1
179
     1
273
     0
  0
CELLSTYLEMAP
  5
EA2C
102
{ACAD_REACTORS
330
E9F1
102
}
330
E9F1
100
AcDbCellStyleMap
 90
        3
300
CELLSTYLE
  1
TABLEFORMAT_BEGIN
 90
        5
170
     1
 91
        0
 92
    32768
 62
   257
 93
        1
300
CONTENTFORMAT
  1
CONTENTFORMAT_BEGIN
 90
        0
 91
        0
 92
        4
 93
        0
300

 40
0.0
140
1.0
 94
        5
 62
     0
340
11
144
6.0
309
CONTENTFORMAT_END
171
     1
301
MARGIN
  1
CELLMARGIN_BEGIN
 40
1.5
 40
1.5
 40
1.5
 40
1.5
 40
0.18
 40
0.18
309
CELLMARGIN_END
 94
        6
 95
        1
302
GRIDFORMAT
  1
GRIDFORMAT_BEGIN
 90
        0
 91
        1
 62
     0
 92
       -2
340
0
 93
        0
 40
0.045
309
GRIDFORMAT_END
 95
        2
302
GRIDFORMAT
  1
GRIDFORMAT_BEGIN
 90
        0
 91
        1
 62
     0
 92
       -2
340
0
 93
        0
 40
0.045
309
GRIDFORMAT_END
 95
        4
302
GRIDFORMAT
  1
GRIDFORMAT_BEGIN
 90
        0
 91
        1
 62
     0
 92
       -2
340
0
 93
        0
 40
0.045
309
GRIDFORMAT_END
 95
        8
302
GRIDFORMAT
  1
GRIDFORMAT_BEGIN
 90
        0
 91
        1
 62
     0
 92
       -2
340
0
 93
        0
 40
0.045
309
GRIDFORMAT_END
 95
       16
302
GRIDFORMAT
  1
GRIDFORMAT_BEGIN
 90
        0
 91
        1
 62
     0
 92
       -2
340
0
 93
        0
 40
0.045
309
GRIDFORMAT_END
 95
       32
302
GRIDFORMAT
  1
GRIDFORMAT_BEGIN
 90
        0
 91
        1
 62
     0
 92
       -2
340
0
 93
        0
 40
0.045
309
GRIDFORMAT_END
309
TABLEFORMAT_END
  1
CELLSTYLE_BEGIN
 90
        1
 91
        1
300
_TITLE
309
CELLSTYLE_END
300
CELLSTYLE
  1
TABLEFORMAT_BEGIN
 90
        5
170
     1
 91
        0
 92
        0
 62
   257
 93
        1
300
CONTENTFORMAT
  1
CONTENTFORMAT_BEGIN
 90
        0
 91
        0
 92
        4
 93
        0
300

 40
0.0
140
1.0
 94
        5
 62
     0
340
11
144
4.5
309
CONTENTFORMAT_END
171
     1
301
MARGIN
  1
CELLMARGIN_BEGIN
 40
1.5
 40
1.5
 40
1.5
 40
1.5
 40
0.18
 40
0.18
309
CELLMARGIN_END
 94
        6
 95
        1
302
GRIDFORMAT
  1
GRIDFORMAT_BEGIN
 90
        0
 91
        1
 62
     0
 92
       -2
340
0
 93
        0
 40
0.045
309
GRIDFORMAT_END
 95
        2
302
GRIDFORMAT
  1
GRIDFORMAT_BEGIN
 90
        0
 91
        1
 62
     0
 92
       -2
340
0
 93
        0
 40
0.045
309
GRIDFORMAT_END
 95
        4
302
GRIDFORMAT
  1
GRIDFORMAT_BEGIN
 90
        0
 91
        1
 62
     0
 92
       -2
340
0
 93
        0
 40
0.045
309
GRIDFORMAT_END
 95
        8
302
GRIDFORMAT
  1
GRIDFORMAT_BEGIN
 90
        0
 91
        1
 62
     0
 92
       -2
340
0
 93
        0
 40
0.045
309
GRIDFORMAT_END
 95
       16
302
GRIDFORMAT
  1
GRIDFORMAT_BEGIN
 90
        0
 91
        1
 62
     0
 92
       -2
340
0
 93
        0
 40
0.045
309
GRIDFORMAT_END
 95
       32
302
GRIDFORMAT
  1
GRIDFORMAT_BEGIN
 90
        0
 91
        1
 62
     0
 92
       -2
340
0
 93
        0
 40
0.045
309
GRIDFORMAT_END
309
TABLEFORMAT_END
  1
CELLSTYLE_BEGIN
 90
        2
 91
        1
300
_HEADER
309
CELLSTYLE_END
300
CELLSTYLE
  1
TABLEFORMAT_BEGIN
 90
        5
170
     1
 91
        0
 92
        0
 62
   257
 93
        1
300
CONTENTFORMAT
  1
CONTENTFORMAT_BEGIN
 90
        0
 91
        0
 92
        4
 93
        0
300

 40
0.0
140
1.0
 94
        2
 62
     0
340
11
144
4.5
309
CONTENTFORMAT_END
171
     1
301
MARGIN
  1
CELLMARGIN_BEGIN
 40
1.5
 40
1.5
 40
1.5
 40
1.5
 40
0.18
 40
0.18
309
CELLMARGIN_END
 94
        6
 95
        1
302
GRIDFORMAT
  1
GRIDFORMAT_BEGIN
 90
        0
 91
        1
 62
     0
 92
       -2
340
0
 93
        0
 40
0.045
309
GRIDFORMAT_END
 95
        2
302
GRIDFORMAT
  1
GRIDFORMAT_BEGIN
 90
        0
 91
        1
 62
     0
 92
       -2
340
0
 93
        0
 40
0.045
309
GRIDFORMAT_END
 95
        4
302
GRIDFORMAT
  1
GRIDFORMAT_BEGIN
 90
        0
 91
        1
 62
     0
 92
       -2
340
0
 93
        0
 40
0.045
309
GRIDFORMAT_END
 95
        8
302
GRIDFORMAT
  1
GRIDFORMAT_BEGIN
 90
        0
 91
        1
 62
     0
 92
       -2
340
0
 93
        0
 40
0.045
309
GRIDFORMAT_END
 95
       16
302
GRIDFORMAT
  1
GRIDFORMAT_BEGIN
 90
        0
 91
        1
 62
     0
 92
       -2
340
0
 93
        0
 40
0.045
309
GRIDFORMAT_END
 95
       32
302
GRIDFORMAT
  1
GRIDFORMAT_BEGIN
 90
        0
 91
        1
 62
     0
 92
       -2
340
0
 93
        0
 40
0.045
309
GRIDFORMAT_END
309
TABLEFORMAT_END
  1
CELLSTYLE_BEGIN
 90
        3
 91
        2
300
_DATA
309
CELLSTYLE_END
  0
XRECORD
  5
EA36
102
{ACAD_REACTORS
330
E9F1
102
}
330
E9F1
100
AcDbXrecord
280
     1
102
ACAD_ROUNDTRIP_PRE2007_TABLESTYLE
 90
        4
 91
        0
  1

 92
        4
 93
        0
  2

 94
        4
 95
        0
  3

  0
XRECORD
  5
EA48
102
{ACAD_REACTORS
330
EA47
102
}
330
EA47
100
AcDbXrecord
280
     1
102
RTVSPropertyOp0
 70
     1
102
RTVSPropertyOp1
 70
     1
102
RTVSPropertyOp2
 70
     1
102
RTVSPropertyOp3
 70
     1
102
RTVSPropertyOp4
 70
     1
102
RTVSPropertyOp5
 70
     1
102
RTVSPropertyOp6
 70
     1
102
RTVSPropertyOp7
 70
     1
102
RTVSPropertyOp8
 70
     1
102
RTVSPropertyOp9
 70
     1
102
RTVSPropertyOp10
 70
     1
102
RTVSPropertyOp11
 70
     1
102
RTVSPropertyOp12
 70
     1
102
RTVSPropertyOp13
 70
     1
102
RTVSPropertyOp14
 70
     1
102
RTVSPropertyOp15
 70
     1
102
RTVSPropertyOp16
 70
     1
102
RTVSPropertyOp17
 70
     1
102
RTVSPropertyOp18
 70
     1
102
RTVSPropertyOp19
 70
     1
102
RTVSPropertyOp20
 70
     1
102
RTVSPropertyOp21
 70
     1
102
RTVSPropertyOp22
 70
     1
102
RTVSPropertyOp23
 70
     1
102
RTVSPropertyOp24
 70
     1
102
RTVSPropertyOp25
 70
     1
102
RTVSPropertyOp26
 70
     1
102
RTVSPropertyOp27
 70
     1
  0
XRECORD
  5
EA4C
102
{ACAD_REACTORS
330
EA4B
102
}
330
EA4B
100
AcDbXrecord
280
     1
102
RTVSPropertyOp0
 70
     1
102
RTVSPropertyOp1
 70
     1
102
RTVSPropertyOp2
 70
     1
102
RTVSPropertyOp3
 70
     1
102
RTVSPropertyOp4
 70
     1
102
RTVSPropertyOp5
 70
     1
102
RTVSPropertyOp6
 70
     1
102
RTVSPropertyOp7
 70
     1
102
RTVSPropertyOp8
 70
     1
102
RTVSPropertyOp9
 70
     1
102
RTVSPropertyOp10
 70
     1
102
RTVSPropertyOp11
 70
     1
102
RTVSPropertyOp12
 70
     1
102
RTVSPropertyOp13
 70
     1
102
RTVSPropertyOp14
 70
     1
102
RTVSPropertyOp15
 70
     1
102
RTVSPropertyOp16
 70
     1
102
RTVSPropertyOp17
 70
     1
102
RTVSPropertyOp18
 70
     1
102
RTVSPropertyOp19
 70
     1
102
RTVSPropertyOp20
 70
     1
102
RTVSPropertyOp21
 70
     1
102
RTVSPropertyOp22
 70
     1
102
RTVSPropertyOp23
 70
     1
102
RTVSPropertyOp24
 70
     1
102
RTVSPropertyOp25
 70
     1
102
RTVSPropertyOp26
 70
     1
102
RTVSPropertyOp27
 70
     1
  0
XRECORD
  5
EA4A
102
{ACAD_REACTORS
330
EA49
102
}
330
EA49
100
AcDbXrecord
280
     1
102
RTVSPropertyOp0
 70
     1
102
RTVSPropertyOp1
 70
     1
102
RTVSPropertyOp2
 70
     1
102
RTVSPropertyOp3
 70
     1
102
RTVSPropertyOp4
 70
     1
102
RTVSPropertyOp5
 70
     1
102
RTVSPropertyOp6
 70
     1
102
RTVSPropertyOp7
 70
     1
102
RTVSPropertyOp8
 70
     1
102
RTVSPropertyOp9
 70
     1
102
RTVSPropertyOp10
 70
     1
102
RTVSPropertyOp11
 70
     1
102
RTVSPropertyOp12
 70
     1
102
RTVSPropertyOp13
 70
     1
102
RTVSPropertyOp14
 70
     1
102
RTVSPropertyOp15
 70
     1
102
RTVSPropertyOp16
 70
     1
102
RTVSPropertyOp17
 70
     1
102
RTVSPropertyOp18
 70
     1
102
RTVSPropertyOp19
 70
     1
102
RTVSPropertyOp20
 70
     1
102
RTVSPropertyOp21
 70
     1
102
RTVSPropertyOp22
 70
     1
102
RTVSPropertyOp23
 70
     1
102
RTVSPropertyOp24
 70
     1
102
RTVSPropertyOp25
 70
     1
102
RTVSPropertyOp26
 70
     1
102
RTVSPropertyOp27
 70
     1
  0
XRECORD
  5
EA46
102
{ACAD_REACTORS
330
EA45
102
}
330
EA45
100
AcDbXrecord
280
     1
102
RTVSPropertyOp0
 70
     1
102
RTVSPropertyOp1
 70
     1
102
RTVSPropertyOp2
 70
     1
102
RTVSPropertyOp3
 70
     1
102
RTVSPropertyOp4
 70
     1
102
RTVSPropertyOp5
 70
     1
102
RTVSPropertyOp6
 70
     1
102
RTVSPropertyOp7
 70
     1
102
RTVSPropertyOp8
 70
     1
102
RTVSPropertyOp9
 70
     1
102
RTVSPropertyOp10
 70
     1
102
RTVSPropertyOp11
 70
     1
102
RTVSPropertyOp12
 70
     1
102
RTVSPropertyOp13
 70
     1
102
RTVSPropertyOp14
 70
     1
102
RTVSPropertyOp15
 70
     1
102
RTVSPropertyOp16
 70
     1
102
RTVSPropertyOp17
 70
     1
102
RTVSPropertyOp18
 70
     1
102
RTVSPropertyOp19
 70
     1
102
RTVSPropertyOp20
 70
     1
102
RTVSPropertyOp21
 70
     1
102
RTVSPropertyOp22
 70
     1
102
RTVSPropertyOp23
 70
     1
102
RTVSPropertyOp24
 70
     1
102
RTVSPropertyOp25
 70
     1
102
RTVSPropertyOp26
 70
     1
102
RTVSPropertyOp27
 70
     1
  0
XRECORD
  5
EA54
102
{ACAD_REACTORS
330
EA53
102
}
330
EA53
100
AcDbXrecord
280
     1
102
RTVSPropertyOp0
 70
     1
102
RTVSPropertyOp1
 70
     1
102
RTVSPropertyOp2
 70
     1
102
RTVSPropertyOp3
 70
     1
102
RTVSPropertyOp4
 70
     1
102
RTVSPropertyOp5
 70
     1
102
RTVSPropertyOp6
 70
     1
102
RTVSPropertyOp7
 70
     1
102
RTVSPropertyOp8
 70
     1
102
RTVSPropertyOp9
 70
     1
102
RTVSPropertyOp10
 70
     1
102
RTVSPropertyOp11
 70
     1
102
RTVSPropertyOp12
 70
     1
102
RTVSPropertyOp13
 70
     1
102
RTVSPropertyOp14
 70
     1
102
RTVSPropertyOp15
 70
     1
102
RTVSPropertyOp16
 70
     1
102
RTVSPropertyOp17
 70
     1
102
RTVSPropertyOp18
 70
     1
102
RTVSPropertyOp19
 70
     1
102
RTVSPropertyOp20
 70
     1
102
RTVSPropertyOp21
 70
     1
102
RTVSPropertyOp22
 70
     1
102
RTVSPropertyOp23
 70
     1
102
RTVSPropertyOp24
 70
     1
102
RTVSPropertyOp25
 70
     1
102
RTVSPropertyOp26
 70
     1
102
RTVSPropertyOp27
 70
     1
  0
XRECORD
  5
EA5C
102
{ACAD_REACTORS
330
EA5B
102
}
330
EA5B
100
AcDbXrecord
280
     1
102
RTVSPropertyOp0
 70
     1
102
RTVSPropertyOp1
 70
     1
102
RTVSPropertyOp2
 70
     1
102
RTVSPropertyOp3
 70
     1
102
RTVSPropertyOp4
 70
     1
102
RTVSPropertyOp5
 70
     1
102
RTVSPropertyOp6
 70
     1
102
RTVSPropertyOp7
 70
     1
102
RTVSPropertyOp8
 70
     1
102
RTVSPropertyOp9
 70
     1
102
RTVSPropertyOp10
 70
     1
102
RTVSPropertyOp11
 70
     1
102
RTVSPropertyOp12
 70
     1
102
RTVSPropertyOp13
 70
     1
102
RTVSPropertyOp14
 70
     1
102
RTVSPropertyOp15
 70
     1
102
RTVSPropertyOp16
 70
     1
102
RTVSPropertyOp17
 70
     1
102
RTVSPropertyOp18
 70
     1
102
RTVSPropertyOp19
 70
     1
102
RTVSPropertyOp20
 70
     1
102
RTVSPropertyOp21
 70
     1
102
RTVSPropertyOp22
 70
     1
102
RTVSPropertyOp23
 70
     1
102
RTVSPropertyOp24
 70
     1
102
RTVSPropertyOp25
 70
     1
102
RTVSPropertyOp26
 70
     1
102
RTVSPropertyOp27
 70
     1
  0
XRECORD
  5
EA4E
102
{ACAD_REACTORS
330
EA4D
102
}
330
EA4D
100
AcDbXrecord
280
     1
102
RTVSPropertyOp0
 70
     1
102
RTVSPropertyOp1
 70
     1
102
RTVSPropertyOp2
 70
     1
102
RTVSPropertyOp3
 70
     1
102
RTVSPropertyOp4
 70
     1
102
RTVSPropertyOp5
 70
     1
102
RTVSPropertyOp6
 70
     1
102
RTVSPropertyOp7
 70
     1
102
RTVSPropertyOp8
 70
     1
102
RTVSPropertyOp9
 70
     1
102
RTVSPropertyOp10
 70
     1
102
RTVSPropertyOp11
 70
     1
102
RTVSPropertyOp12
 70
     1
102
RTVSPropertyOp13
 70
     1
102
RTVSPropertyOp14
 70
     1
102
RTVSPropertyOp15
 70
     1
102
RTVSPropertyOp16
 70
     1
102
RTVSPropertyOp17
 70
     1
102
RTVSPropertyOp18
 70
     1
102
RTVSPropertyOp19
 70
     1
102
RTVSPropertyOp20
 70
     1
102
RTVSPropertyOp21
 70
     1
102
RTVSPropertyOp22
 70
     1
102
RTVSPropertyOp23
 70
     1
102
RTVSPropertyOp24
 70
     1
102
RTVSPropertyOp25
 70
     1
102
RTVSPropertyOp26
 70
     1
102
RTVSPropertyOp27
 70
     1
  0
XRECORD
  5
EA52
102
{ACAD_REACTORS
330
EA51
102
}
330
EA51
100
AcDbXrecord
280
     1
102
RTVSPropertyOp0
 70
     1
102
RTVSPropertyOp1
 70
     1
102
RTVSPropertyOp2
 70
     1
102
RTVSPropertyOp3
 70
     1
102
RTVSPropertyOp4
 70
     1
102
RTVSPropertyOp5
 70
     1
102
RTVSPropertyOp6
 70
     1
102
RTVSPropertyOp7
 70
     1
102
RTVSPropertyOp8
 70
     1
102
RTVSPropertyOp9
 70
     1
102
RTVSPropertyOp10
 70
     1
102
RTVSPropertyOp11
 70
     1
102
RTVSPropertyOp12
 70
     1
102
RTVSPropertyOp13
 70
     1
102
RTVSPropertyOp14
 70
     1
102
RTVSPropertyOp15
 70
     1
102
RTVSPropertyOp16
 70
     1
102
RTVSPropertyOp17
 70
     1
102
RTVSPropertyOp18
 70
     1
102
RTVSPropertyOp19
 70
     1
102
RTVSPropertyOp20
 70
     1
102
RTVSPropertyOp21
 70
     1
102
RTVSPropertyOp22
 70
     1
102
RTVSPropertyOp23
 70
     1
102
RTVSPropertyOp24
 70
     1
102
RTVSPropertyOp25
 70
     1
102
RTVSPropertyOp26
 70
     1
102
RTVSPropertyOp27
 70
     1
  0
XRECORD
  5
EA62
102
{ACAD_REACTORS
330
EA61
102
}
330
EA61
100
AcDbXrecord
280
     1
102
RTVSPropertyOp0
 70
     0
102
RTVSPropertyOp1
 70
     0
102
RTVSPropertyOp2
 70
     0
102
RTVSPropertyOp3
 70
     0
102
RTVSPropertyOp4
 70
     0
102
RTVSPropertyOp5
 70
     0
102
RTVSPropertyOp6
 70
     0
102
RTVSPropertyOp7
 70
     0
102
RTVSPropertyOp8
 70
     0
102
RTVSPropertyOp9
 70
     0
102
RTVSPropertyOp10
 70
     0
102
RTVSPropertyOp11
 70
     0
102
RTVSPropertyOp12
 70
     0
102
RTVSPropertyOp13
 70
     0
102
RTVSPropertyOp14
 70
     2
102
RTVSPropertyOp15
 70
     0
102
RTVSPropertyOp16
 70
     0
102
RTVSPropertyOp17
 70
     0
102
RTVSPropertyOp18
 70
     0
102
RTVSPropertyOp19
 70
     0
102
RTVSPropertyOp20
 70
     0
102
RTVSPropertyOp21
 70
     0
102
RTVSPropertyOp22
 70
     0
102
RTVSPropertyOp23
 70
     0
102
RTVSPropertyOp24
 70
     0
102
RTVSPropertyOp25
 70
     0
102
RTVSPropertyOp26
 70
     0
102
RTVSPropertyOp27
 70
     0
  0
XRECORD
  5
EA5A
102
{ACAD_REACTORS
330
EA59
102
}
330
EA59
100
AcDbXrecord
280
     1
102
RTVSPropertyOp0
 70
     1
102
RTVSPropertyOp1
 70
     1
102
RTVSPropertyOp2
 70
     1
102
RTVSPropertyOp3
 70
     1
102
RTVSPropertyOp4
 70
     1
102
RTVSPropertyOp5
 70
     1
102
RTVSPropertyOp6
 70
     1
102
RTVSPropertyOp7
 70
     1
102
RTVSPropertyOp8
 70
     1
102
RTVSPropertyOp9
 70
     1
102
RTVSPropertyOp10
 70
     1
102
RTVSPropertyOp11
 70
     1
102
RTVSPropertyOp12
 70
     1
102
RTVSPropertyOp13
 70
     1
102
RTVSPropertyOp14
 70
     1
102
RTVSPropertyOp15
 70
     1
102
RTVSPropertyOp16
 70
     1
102
RTVSPropertyOp17
 70
     1
102
RTVSPropertyOp18
 70
     1
102
RTVSPropertyOp19
 70
     1
102
RTVSPropertyOp20
 70
     1
102
RTVSPropertyOp21
 70
     1
102
RTVSPropertyOp22
 70
     1
102
RTVSPropertyOp23
 70
     1
102
RTVSPropertyOp24
 70
     1
102
RTVSPropertyOp25
 70
     1
102
RTVSPropertyOp26
 70
     1
102
RTVSPropertyOp27
 70
     1
  0
XRECORD
  5
EA3E
102
{ACAD_REACTORS
330
EA3D
102
}
330
EA3D
100
AcDbXrecord
280
     1
102
RTVSPropertyOp0
 70
     1
102
RTVSPropertyOp1
 70
     1
102
RTVSPropertyOp2
 70
     1
102
RTVSPropertyOp3
 70
     1
102
RTVSPropertyOp4
 70
     1
102
RTVSPropertyOp5
 70
     1
102
RTVSPropertyOp6
 70
     1
102
RTVSPropertyOp7
 70
     1
102
RTVSPropertyOp8
 70
     1
102
RTVSPropertyOp9
 70
     1
102
RTVSPropertyOp10
 70
     1
102
RTVSPropertyOp11
 70
     1
102
RTVSPropertyOp12
 70
     1
102
RTVSPropertyOp13
 70
     1
102
RTVSPropertyOp14
 70
     1
102
RTVSPropertyOp15
 70
     1
102
RTVSPropertyOp16
 70
     1
102
RTVSPropertyOp17
 70
     1
102
RTVSPropertyOp18
 70
     1
102
RTVSPropertyOp19
 70
     1
102
RTVSPropertyOp20
 70
     1
102
RTVSPropertyOp21
 70
     1
102
RTVSPropertyOp22
 70
     1
102
RTVSPropertyOp23
 70
     1
102
RTVSPropertyOp24
 70
     1
102
RTVSPropertyOp25
 70
     1
102
RTVSPropertyOp26
 70
     1
102
RTVSPropertyOp27
 70
     1
  0
XRECORD
  5
EA40
102
{ACAD_REACTORS
330
EA3F
102
}
330
EA3F
100
AcDbXrecord
280
     1
102
RTVSPropertyOp0
 70
     1
102
RTVSPropertyOp1
 70
     1
102
RTVSPropertyOp2
 70
     1
102
RTVSPropertyOp3
 70
     1
102
RTVSPropertyOp4
 70
     1
102
RTVSPropertyOp5
 70
     1
102
RTVSPropertyOp6
 70
     1
102
RTVSPropertyOp7
 70
     1
102
RTVSPropertyOp8
 70
     1
102
RTVSPropertyOp9
 70
     1
102
RTVSPropertyOp10
 70
     1
102
RTVSPropertyOp11
 70
     1
102
RTVSPropertyOp12
 70
     1
102
RTVSPropertyOp13
 70
     1
102
RTVSPropertyOp14
 70
     1
102
RTVSPropertyOp15
 70
     1
102
RTVSPropertyOp16
 70
     1
102
RTVSPropertyOp17
 70
     1
102
RTVSPropertyOp18
 70
     1
102
RTVSPropertyOp19
 70
     1
102
RTVSPropertyOp20
 70
     1
102
RTVSPropertyOp21
 70
     1
102
RTVSPropertyOp22
 70
     1
102
RTVSPropertyOp23
 70
     1
102
RTVSPropertyOp24
 70
     1
102
RTVSPropertyOp25
 70
     1
102
RTVSPropertyOp26
 70
     1
102
RTVSPropertyOp27
 70
     1
  0
XRECORD
  5
EA42
102
{ACAD_REACTORS
330
EA41
102
}
330
EA41
100
AcDbXrecord
280
     1
102
RTVSPropertyOp0
 70
     1
102
RTVSPropertyOp1
 70
     1
102
RTVSPropertyOp2
 70
     1
102
RTVSPropertyOp3
 70
     1
102
RTVSPropertyOp4
 70
     1
102
RTVSPropertyOp5
 70
     1
102
RTVSPropertyOp6
 70
     1
102
RTVSPropertyOp7
 70
     1
102
RTVSPropertyOp8
 70
     1
102
RTVSPropertyOp9
 70
     1
102
RTVSPropertyOp10
 70
     1
102
RTVSPropertyOp11
 70
     1
102
RTVSPropertyOp12
 70
     1
102
RTVSPropertyOp13
 70
     1
102
RTVSPropertyOp14
 70
     1
102
RTVSPropertyOp15
 70
     1
102
RTVSPropertyOp16
 70
     1
102
RTVSPropertyOp17
 70
     1
102
RTVSPropertyOp18
 70
     1
102
RTVSPropertyOp19
 70
     1
102
RTVSPropertyOp20
 70
     1
102
RTVSPropertyOp21
 70
     1
102
RTVSPropertyOp22
 70
     1
102
RTVSPropertyOp23
 70
     1
102
RTVSPropertyOp24
 70
     1
102
RTVSPropertyOp25
 70
     1
102
RTVSPropertyOp26
 70
     1
102
RTVSPropertyOp27
 70
     1
  0
XRECORD
  5
EA44
102
{ACAD_REACTORS
330
EA43
102
}
330
EA43
100
AcDbXrecord
280
     1
102
RTVSPropertyOp0
 70
     1
102
RTVSPropertyOp1
 70
     1
102
RTVSPropertyOp2
 70
     1
102
RTVSPropertyOp3
 70
     1
102
RTVSPropertyOp4
 70
     1
102
RTVSPropertyOp5
 70
     1
102
RTVSPropertyOp6
 70
     1
102
RTVSPropertyOp7
 70
     1
102
RTVSPropertyOp8
 70
     1
102
RTVSPropertyOp9
 70
     1
102
RTVSPropertyOp10
 70
     1
102
RTVSPropertyOp11
 70
     1
102
RTVSPropertyOp12
 70
     1
102
RTVSPropertyOp13
 70
     1
102
RTVSPropertyOp14
 70
     1
102
RTVSPropertyOp15
 70
     1
102
RTVSPropertyOp16
 70
     1
102
RTVSPropertyOp17
 70
     1
102
RTVSPropertyOp18
 70
     1
102
RTVSPropertyOp19
 70
     1
102
RTVSPropertyOp20
 70
     1
102
RTVSPropertyOp21
 70
     1
102
RTVSPropertyOp22
 70
     1
102
RTVSPropertyOp23
 70
     1
102
RTVSPropertyOp24
 70
     1
102
RTVSPropertyOp25
 70
     1
102
RTVSPropertyOp26
 70
     1
102
RTVSPropertyOp27
 70
     1
  0
XRECORD
  5
EA5E
102
{ACAD_REACTORS
330
EA5D
102
}
330
EA5D
100
AcDbXrecord
280
     1
102
RTVSPropertyOp0
 70
     0
102
RTVSPropertyOp1
 70
     0
102
RTVSPropertyOp2
 70
     0
102
RTVSPropertyOp3
 70
     0
102
RTVSPropertyOp4
 70
     0
102
RTVSPropertyOp5
 70
     0
102
RTVSPropertyOp6
 70
     0
102
RTVSPropertyOp7
 70
     0
102
RTVSPropertyOp8
 70
     0
102
RTVSPropertyOp9
 70
     0
102
RTVSPropertyOp10
 70
     0
102
RTVSPropertyOp11
 70
     0
102
RTVSPropertyOp12
 70
     0
102
RTVSPropertyOp13
 70
     0
102
RTVSPropertyOp14
 70
     2
102
RTVSPropertyOp15
 70
     0
102
RTVSPropertyOp16
 70
     0
102
RTVSPropertyOp17
 70
     0
102
RTVSPropertyOp18
 70
     0
102
RTVSPropertyOp19
 70
     0
102
RTVSPropertyOp20
 70
     0
102
RTVSPropertyOp21
 70
     0
102
RTVSPropertyOp22
 70
     0
102
RTVSPropertyOp23
 70
     0
102
RTVSPropertyOp24
 70
     0
102
RTVSPropertyOp25
 70
     0
102
RTVSPropertyOp26
 70
     0
102
RTVSPropertyOp27
 70
     0
  0
XRECORD
  5
EA58
102
{ACAD_REACTORS
330
EA57
102
}
330
EA57
100
AcDbXrecord
280
     1
102
RTVSPropertyOp0
 70
     1
102
RTVSPropertyOp1
 70
     1
102
RTVSPropertyOp2
 70
     1
102
RTVSPropertyOp3
 70
     1
102
RTVSPropertyOp4
 70
     1
102
RTVSPropertyOp5
 70
     1
102
RTVSPropertyOp6
 70
     1
102
RTVSPropertyOp7
 70
     1
102
RTVSPropertyOp8
 70
     1
102
RTVSPropertyOp9
 70
     1
102
RTVSPropertyOp10
 70
     1
102
RTVSPropertyOp11
 70
     1
102
RTVSPropertyOp12
 70
     1
102
RTVSPropertyOp13
 70
     1
102
RTVSPropertyOp14
 70
     1
102
RTVSPropertyOp15
 70
     1
102
RTVSPropertyOp16
 70
     1
102
RTVSPropertyOp17
 70
     1
102
RTVSPropertyOp18
 70
     1
102
RTVSPropertyOp19
 70
     1
102
RTVSPropertyOp20
 70
     1
102
RTVSPropertyOp21
 70
     1
102
RTVSPropertyOp22
 70
     1
102
RTVSPropertyOp23
 70
     1
102
RTVSPropertyOp24
 70
     1
102
RTVSPropertyOp25
 70
     1
102
RTVSPropertyOp26
 70
     1
102
RTVSPropertyOp27
 70
     1
  0
XRECORD
  5
EA60
102
{ACAD_REACTORS
330
EA5F
102
}
330
EA5F
100
AcDbXrecord
280
     1
102
RTVSPropertyOp0
 70
     0
102
RTVSPropertyOp1
 70
     0
102
RTVSPropertyOp2
 70
     0
102
RTVSPropertyOp3
 70
     0
102
RTVSPropertyOp4
 70
     0
102
RTVSPropertyOp5
 70
     0
102
RTVSPropertyOp6
 70
     0
102
RTVSPropertyOp7
 70
     0
102
RTVSPropertyOp8
 70
     0
102
RTVSPropertyOp9
 70
     0
102
RTVSPropertyOp10
 70
     0
102
RTVSPropertyOp11
 70
     0
102
RTVSPropertyOp12
 70
     0
102
RTVSPropertyOp13
 70
     0
102
RTVSPropertyOp14
 70
     2
102
RTVSPropertyOp15
 70
     0
102
RTVSPropertyOp16
 70
     0
102
RTVSPropertyOp17
 70
     0
102
RTVSPropertyOp18
 70
     0
102
RTVSPropertyOp19
 70
     0
102
RTVSPropertyOp20
 70
     0
102
RTVSPropertyOp21
 70
     0
102
RTVSPropertyOp22
 70
     0
102
RTVSPropertyOp23
 70
     0
102
RTVSPropertyOp24
 70
     0
102
RTVSPropertyOp25
 70
     0
102
RTVSPropertyOp26
 70
     0
102
RTVSPropertyOp27
 70
     0
  0
XRECORD
  5
EA50
102
{ACAD_REACTORS
330
EA4F
102
}
330
EA4F
100
AcDbXrecord
280
     1
102
RTVSPropertyOp0
 70
     1
102
RTVSPropertyOp1
 70
     1
102
RTVSPropertyOp2
 70
     1
102
RTVSPropertyOp3
 70
     1
102
RTVSPropertyOp4
 70
     1
102
RTVSPropertyOp5
 70
     1
102
RTVSPropertyOp6
 70
     1
102
RTVSPropertyOp7
 70
     1
102
RTVSPropertyOp8
 70
     1
102
RTVSPropertyOp9
 70
     1
102
RTVSPropertyOp10
 70
     1
102
RTVSPropertyOp11
 70
     1
102
RTVSPropertyOp12
 70
     1
102
RTVSPropertyOp13
 70
     1
102
RTVSPropertyOp14
 70
     1
102
RTVSPropertyOp15
 70
     1
102
RTVSPropertyOp16
 70
     1
102
RTVSPropertyOp17
 70
     1
102
RTVSPropertyOp18
 70
     1
102
RTVSPropertyOp19
 70
     1
102
RTVSPropertyOp20
 70
     1
102
RTVSPropertyOp21
 70
     1
102
RTVSPropertyOp22
 70
     1
102
RTVSPropertyOp23
 70
     1
102
RTVSPropertyOp24
 70
     1
102
RTVSPropertyOp25
 70
     1
102
RTVSPropertyOp26
 70
     1
102
RTVSPropertyOp27
 70
     1
  0
XRECORD
  5
EA56
102
{ACAD_REACTORS
330
EA55
102
}
330
EA55
100
AcDbXrecord
280
     1
102
RTVSPropertyOp0
 70
     1
102
RTVSPropertyOp1
 70
     1
102
RTVSPropertyOp2
 70
     1
102
RTVSPropertyOp3
 70
     1
102
RTVSPropertyOp4
 70
     1
102
RTVSPropertyOp5
 70
     1
102
RTVSPropertyOp6
 70
     1
102
RTVSPropertyOp7
 70
     1
102
RTVSPropertyOp8
 70
     1
102
RTVSPropertyOp9
 70
     1
102
RTVSPropertyOp10
 70
     1
102
RTVSPropertyOp11
 70
     1
102
RTVSPropertyOp12
 70
     1
102
RTVSPropertyOp13
 70
     1
102
RTVSPropertyOp14
 70
     1
102
RTVSPropertyOp15
 70
     1
102
RTVSPropertyOp16
 70
     1
102
RTVSPropertyOp17
 70
     1
102
RTVSPropertyOp18
 70
     1
102
RTVSPropertyOp19
 70
     1
102
RTVSPropertyOp20
 70
     1
102
RTVSPropertyOp21
 70
     1
102
RTVSPropertyOp22
 70
     1
102
RTVSPropertyOp23
 70
     1
102
RTVSPropertyOp24
 70
     1
102
RTVSPropertyOp25
 70
     1
102
RTVSPropertyOp26
 70
     1
102
RTVSPropertyOp27
 70
     1
  0
PH_GROUP
  5
E78C
102
{ACAD_REACTORS
330
E78B
102
}
330
E78B
  0
DICTIONARY
  5
E9D9
102
{ACAD_REACTORS
330
E9D8
102
}
330
E9D8
100
AcDbDictionary
280
     1
281
     1
  3
PH_GRPMEMBERS
360
E9DA
  0
PH_GROUP
  5
E9DB
102
{ACAD_REACTORS
330
E9D8
102
}
330
E9D8
  0
PH_GROUP
  5
E9DA
102
{ACAD_REACTORS
330
E9D9
102
}
330
E9D9
  0
ENDSEC
  0
EOF
