  0
SECTION
  2
HEADER
  9
$ACADVER
  1
AC1015
  9
$ACADMAINTVER
 70
    18
  9
$DWGCODEPAGE
  3
ANSI_1252
  9
$INSBASE
 10
0.0
 20
0.0
 30
0.0
  9
$EXTMIN
 10
0.0
 20
0.0
 30
0.0
  9
$EXTMAX
 10
420.0
 20
297.0
 30
0.0
  9
$LIMMIN
 10
0.0
 20
0.0
  9
$LIMMAX
 10
420.0
 20
297.0
  9
$ORTHOMODE
 70
     0
  9
$REGENMODE
 70
     1
  9
$FILLMODE
 70
     1
  9
$QTEXTMODE
 70
     0
  9
$MIRRTEXT
 70
     0
  9
$LTSCALE
 40
1.0
  9
$ATTMODE
 70
     1
  9
$TEXTSIZE
 40
0.2
  9
$TRACEWID
 40
0.05
  9
$TEXTSTYLE
  7
Standard
  9
$CLAYER
  8
0
  9
$CELTYPE
  6
ByLayer
  9
$CECOLOR
 62
   256
  9
$CELTSCALE
 40
1.0
  9
$DISPSILH
 70
     0
  9
$DIMSCALE
 40
1.0
  9
$DIMASZ
 40
1.799999999999999
  9
$DIMEXO
 40
0.0625
  9
$DIMDLI
 40
0.38
  9
$DIMRND
 40
0.0
  9
$DIMDLE
 40
0.0
  9
$DIMEXE
 40
0.18
  9
$DIMTP
 40
0.0
  9
$DIMTM
 40
0.0
  9
$DIMTXT
 40
0.25
  9
$DIMCEN
 40
0.09
  9
$DIMTSZ
 40
0.0
  9
$DIMTOL
 70
     0
  9
$DIMLIM
 70
     0
  9
$DIMTIH
 70
     1
  9
$DIMTOH
 70
     1
  9
$DIMSE1
 70
     0
  9
$DIMSE2
 70
     0
  9
$DIMTAD
 70
     0
  9
$DIMZIN
 70
     0
  9
$DIMBLK
  1

  9
$DIMASO
 70
     1
  9
$DIMSHO
 70
     1
  9
$DIMPOST
  1

  9
$DIMAPOST
  1

  9
$DIMALT
 70
     0
  9
$DIMALTD
 70
     2
  9
$DIMALTF
 40
25.4
  9
$DIMLFAC
 40
1.0
  9
$DIMTOFL
 70
     0
  9
$DIMTVP
 40
0.0
  9
$DIMTIX
 70
     0
  9
$DIMSOXD
 70
     0
  9
$DIMSAH
 70
     0
  9
$DIMBLK1
  1

  9
$DIMBLK2
  1

  9
$DIMSTYLE
  2
Standard
  9
$DIMCLRD
 70
     0
  9
$DIMCLRE
 70
     0
  9
$DIMCLRT
 70
     0
  9
$DIMTFAC
 40
1.0
  9
$DIMGAP
 40
0.09
  9
$DIMJUST
 70
     0
  9
$DIMSD1
 70
     0
  9
$DIMSD2
 70
     0
  9
$DIMTOLJ
 70
     1
  9
$DIMTZIN
 70
     0
  9
$DIMALTZ
 70
     0
  9
$DIMALTTZ
 70
     0
  9
$DIMUPT
 70
     0
  9
$DIMDEC
 70
     4
  9
$DIMTDEC
 70
     4
  9
$DIMALTU
 70
     2
  9
$DIMALTTD
 70
     2
  9
$DIMTXSTY
  7
Standard
  9
$DIMAUNIT
 70
     0
  9
$DIMADEC
 70
     0
  9
$DIMALTRND
 40
0.0
  9
$DIMAZIN
 70
     0
  9
$DIMDSEP
 70
    46
  9
$DIMATFIT
 70
     3
  9
$DIMFRAC
 70
     0
  9
$DIMLDRBLK
  1

  9
$DIMLUNIT
 70
     2
  9
$DIMLWD
 70
    -2
  9
$DIMLWE
 70
    -2
  9
$DIMTMOVE
 70
     0
  9
$LUNITS
 70
     2
  9
$LUPREC
 70
     4
  9
$SKETCHINC
 40
0.1
  9
$FILLETRAD
 40
0.0
  9
$AUNITS
 70
     0
  9
$AUPREC
 70
     0
  9
$MENU
  1
.
  9
$ELEVATION
 40
0.0
  9
$PELEVATION
 40
0.0
  9
$THICKNESS
 40
0.0
  9
$LIMCHECK
 70
     0
  9
$CHAMFERA
 40
0.0
  9
$CHAMFERB
 40
0.0
  9
$CHAMFERC
 40
0.0
  9
$CHAMFERD
 40
0.0
  9
$SKPOLY
 70
     0
  9
$TDCREATE
 40
2456521.371088125
  9
$TDUCREATE
 40
2456521.287754792
  9
$TDUPDATE
 40
2456521.371088125
  9
$TDUUPDATE
 40
2456521.287754792
  9
$TDINDWG
 40
0.0000599421
  9
$TDUSRTIMER
 40
0.0000599421
  9
$USRTIMER
 70
     1
  9
$ANGBASE
 50
0.0
  9
$ANGDIR
 70
     0
  9
$PDMODE
 70
     0
  9
$PDSIZE
 40
0.0
  9
$PLINEWID
 40
0.0
  9
$SPLFRAME
 70
     0
  9
$SPLINETYPE
 70
     6
  9
$SPLINESEGS
 70
     8
  9
$HANDSEED
  5
914
  9
$SURFTAB1
 70
     6
  9
$SURFTAB2
 70
     6
  9
$SURFTYPE
 70
     6
  9
$SURFU
 70
     6
  9
$SURFV
 70
     6
  9
$UCSBASE
  2

  9
$UCSNAME
  2

  9
$UCSORG
 10
0.0
 20
0.0
 30
0.0
  9
$UCSXDIR
 10
1.0
 20
0.0
 30
0.0
  9
$UCSYDIR
 10
0.0
 20
1.0
 30
0.0
  9
$UCSORTHOREF
  2

  9
$UCSORTHOVIEW
 70
     0
  9
$UCSORGTOP
 10
0.0
 20
0.0
 30
0.0
  9
$UCSORGBOTTOM
 10
0.0
 20
0.0
 30
0.0
  9
$UCSORGLEFT
 10
0.0
 20
0.0
 30
0.0
  9
$UCSORGRIGHT
 10
0.0
 20
0.0
 30
0.0
  9
$UCSORGFRONT
 10
0.0
 20
0.0
 30
0.0
  9
$UCSORGBACK
 10
0.0
 20
0.0
 30
0.0
  9
$PUCSBASE
  2

  9
$PUCSNAME
  2

  9
$PUCSORG
 10
0.0
 20
0.0
 30
0.0
  9
$PUCSXDIR
 10
1.0
 20
0.0
 30
0.0
  9
$PUCSYDIR
 10
0.0
 20
1.0
 30
0.0
  9
$PUCSORTHOREF
  2

  9
$PUCSORTHOVIEW
 70
     0
  9
$PUCSORGTOP
 10
0.0
 20
0.0
 30
0.0
  9
$PUCSORGBOTTOM
 10
0.0
 20
0.0
 30
0.0
  9
$PUCSORGLEFT
 10
0.0
 20
0.0
 30
0.0
  9
$PUCSORGRIGHT
 10
0.0
 20
0.0
 30
0.0
  9
$PUCSORGFRONT
 10
0.0
 20
0.0
 30
0.0
  9
$PUCSORGBACK
 10
0.0
 20
0.0
 30
0.0
  9
$USERI1
 70
     0
  9
$USERI2
 70
     0
  9
$USERI3
 70
     0
  9
$USERI4
 70
     0
  9
$USERI5
 70
     0
  9
$USERR1
 40
0.0
  9
$USERR2
 40
0.0
  9
$USERR3
 40
0.0
  9
$USERR4
 40
0.0
  9
$USERR5
 40
0.0
  9
$WORLDVIEW
 70
     1
  9
$SHADEDGE
 70
     3
  9
$SHADEDIF
 70
    70
  9
$TILEMODE
 70
     1
  9
$MAXACTVP
 70
    64
  9
$PINSBASE
 10
0.0
 20
0.0
 30
0.0
  9
$PLIMCHECK
 70
     0
  9
$PEXTMIN
 10
0.0
 20
0.0
 30
0.0
  9
$PEXTMAX
 10
420.0
 20
297.0
 30
0.0
  9
$PLIMMIN
 10
0.0
 20
0.0
  9
$PLIMMAX
 10
420.0
 20
297.0
  9
$UNITMODE
 70
     0
  9
$VISRETAIN
 70
     1
  9
$PLINEGEN
 70
     0
  9
$PSLTSCALE
 70
     1
  9
$TREEDEPTH
 70
  3020
  9
$CMLSTYLE
  2
Standard
  9
$CMLJUST
 70
     0
  9
$CMLSCALE
 40
1.0
  9
$PROXYGRAPHICS
 70
     1
  9
$MEASUREMENT
 70
     1
  9
$CELWEIGHT
370
    -1
  9
$ENDCAPS
280
     0
  9
$JOINSTYLE
280
     0
  9
$LWDISPLAY
290
     0
  9
$INSUNITS
 70
     4
  9
$HYPERLINKBASE
  1

  9
$STYLESHEET
  1

  9
$XEDIT
290
     1
  9
$CEPSNTYPE
380
     0
  9
$PSTYLEMODE
290
     1
  9
$FINGERPRINTGUID
  2
{200CFC90-2676-4E3A-A8F9-5C67E663FA8C}
  9
$VERSIONGUID
  2
{7FEA72D5-2B23-49B0-896E-78FAEF2FF8F3}
  9
$EXTNAMES
290
     1
  9
$PSVPSCALE
 40
0.0
  9
$OLESTARTUP
290
     0
  0
ENDSEC
  0
SECTION
  2
CLASSES
  0
CLASS
  1
ACDBDICTIONARYWDFLT
  2
AcDbDictionaryWithDefault
  3
ObjectDBX Classes
 90
        0
280
     0
281
     0
  0
CLASS
  1
MATERIAL
  2
AcDbMaterial
  3
ObjectDBX Classes
 90
     1153
280
     0
281
     0
  0
CLASS
  1
VISUALSTYLE
  2
AcDbVisualStyle
  3
ObjectDBX Classes
 90
     4095
280
     0
281
     0
  0
CLASS
  1
SCALE
  2
AcDbScale
  3
ObjectDBX Classes
 90
     1153
280
     0
281
     0
  0
CLASS
  1
TABLESTYLE
  2
AcDbTableStyle
  3
ObjectDBX Classes
 90
     4095
280
     0
281
     0
  0
CLASS
  1
MLEADERSTYLE
  2
AcDbMLeaderStyle
  3
ACDB_MLEADERSTYLE_CLASS
 90
     4095
280
     0
281
     0
  0
CLASS
  1
ACDBSECTIONVIEWSTYLE
  2
AcDbSectionViewStyle
  3
ObjectDBX Classes
 90
     1025
280
     0
281
     0
  0
CLASS
  1
ACDBDETAILVIEWSTYLE
  2
AcDbDetailViewStyle
  3
ObjectDBX Classes
 90
     1025
280
     0
281
     0
  0
CLASS
  1
DICTIONARYVAR
  2
AcDbDictionaryVar
  3
ObjectDBX Classes
 90
        0
280
     0
281
     0
  0
CLASS
  1
CELLSTYLEMAP
  2
AcDbCellStyleMap
  3
ObjectDBX Classes
 90
     1152
280
     0
281
     0
  0
CLASS
  1
ACDBPLACEHOLDER
  2
AcDbPlaceHolder
  3
ObjectDBX Classes
 90
        0
280
     0
281
     0
  0
CLASS
  1
LAYOUT
  2
AcDbLayout
  3
ObjectDBX Classes
 90
        0
280
     0
281
     0
  0
ENDSEC
  0
SECTION
  2
TABLES
  0
TABLE
  2
VPORT
  5
8
330
0
100
AcDbSymbolTable
 70
     1
  0
VPORT
  5
57
330
8
100
AcDbSymbolTableRecord
100
AcDbViewportTableRecord
  2
*Active
 70
     0
 10
0.0
 20
0.0
 11
1.0
 21
1.0
 12
210.0
 22
148.5
 13
0.0
 23
0.0
 14
1.0
 24
1.0
 15
0.0
 25
0.0
 16
0.0
 26
0.0
 36
1.0
 17
0.0
 27
0.0
 37
0.0
 40
297.0
 41
1.414141414141414
 42
50.0
 43
0.0
 44
0.0
 50
0.0
 51
0.0
 71
     0
 72
   100
 73
     1
 74
     1
 75
     0
 76
     0
 77
     0
 78
     0
281
     0
 65
     1
110
0.0
120
0.0
130
0.0
111
1.0
121
0.0
131
0.0
112
0.0
122
1.0
132
0.0
 79
     0
146
0.0
  0
ENDTAB
  0
TABLE
  2
LTYPE
  5
5
330
0
100
AcDbSymbolTable
 70
    59
  0
LTYPE
  5
5B
330
5
100
AcDbSymbolTableRecord
100
AcDbLinetypeTableRecord
  2
ByBlock
 70
     0
  3

 72
    65
 73
     0
 40
0.0
  0
LTYPE
  5
5C
330
5
100
AcDbSymbolTableRecord
100
AcDbLinetypeTableRecord
  2
ByLayer
 70
     0
  3

 72
    65
 73
     0
 40
0.0
  0
LTYPE
  5
5D
330
5
100
AcDbSymbolTableRecord
100
AcDbLinetypeTableRecord
  2
Continuous
 70
     0
  3
Solid line
 72
    65
 73
     0
 40
0.0
  0
LTYPE
  5
69
330
5
100
AcDbSymbolTableRecord
100
AcDbLinetypeTableRecord
  2
PHANTOM2
 70
     0
  3
Phantom (.5x) ___ _ _ ___ _ _ ___ _ _ ___ _ _
 72
    65
 73
     6
 40
1.25
 49
0.625
 74
     0
 49
-0.125
 74
     0
 49
0.125
 74
     0
 49
-0.125
 74
     0
 49
0.125
 74
     0
 49
-0.125
 74
     0
  0
LTYPE
  5
79
330
5
100
AcDbSymbolTableRecord
100
AcDbLinetypeTableRecord
  2
Section_View_Lines
 70
     0
  3
Section View Lines
 72
    65
 73
     4
 40
0.8406
 49
0.6614
 74
     0
 49
-0.0827
 74
     0
 49
0.0138
 74
     0
 49
-0.0827
 74
     0
  0
LTYPE
  5
7A
330
5
100
AcDbSymbolTableRecord
100
AcDbLinetypeTableRecord
  2
CHAIN
 70
     0
  3
Chain ____ _ ____ _ ____ _ ____ _ ____ _ ____
 72
    65
 73
     4
 40
0.3543
 49
0.2362
 74
     0
 49
-0.0295
 74
     0
 49
0.0591
 74
     0
 49
-0.0295
 74
     0
  0
LTYPE
  5
7B
330
5
100
AcDbSymbolTableRecord
100
AcDbLinetypeTableRecord
  2
DASH_DOT
 70
     0
  3
Dash dot _._._._._._._._._._._._._._._.
 72
    65
 73
     4
 40
0.37
 49
0.24
 74
     0
 49
-0.06
 74
     0
 49
0.01
 74
     0
 49
-0.06
 74
     0
  0
LTYPE
  5
7C
330
5
100
AcDbSymbolTableRecord
100
AcDbLinetypeTableRecord
  2
DASH_DOUBLE_DOT
 70
     0
  3
Dash Double Dot __ __ . __ __ . __ __ . __ _
 72
    65
 73
     6
 40
0.4398
 49
0.24
 74
     0
 49
-0.06
 74
     0
 49
0.0098
 74
     0
 49
-0.06
 74
     0
 49
0.01
 74
     0
 49
-0.06
 74
     0
  0
LTYPE
  5
7D
330
5
100
AcDbSymbolTableRecord
100
AcDbLinetypeTableRecord
  2
DASH_TRIPLE_DOT
 70
     0
  3
Dash Triple-Dot _ . . . _ . . . _ . . . _
 72
    65
 73
     8
 40
0.51
 49
0.24
 74
     0
 49
-0.06
 74
     0
 49
0.01
 74
     0
 49
-0.06
 74
     0
 49
0.01
 74
     0
 49
-0.06
 74
     0
 49
0.01
 74
     0
 49
-0.06
 74
     0
  0
LTYPE
  5
7E
330
5
100
AcDbSymbolTableRecord
100
AcDbLinetypeTableRecord
  2
DASHED
 70
     0
  3
Dashed __ __ __ __ __ __ __ __ __ __ __ __ __ _
 72
    65
 73
     2
 40
0.2067
 49
0.1654
 74
     0
 49
-0.0413
 74
     0
  0
LTYPE
  5
7F
330
5
100
AcDbSymbolTableRecord
100
AcDbLinetypeTableRecord
  2
DASHED_SPACE
 70
     0
  3
Dashed Space _._._._._._._._._._._._._._._.
 72
    65
 73
     2
 40
0.2067
 49
0.1654
 74
     0
 49
-0.0413
 74
     0
  0
LTYPE
  5
80
330
5
100
AcDbSymbolTableRecord
100
AcDbLinetypeTableRecord
  2
DOTTED
 70
     0
  3
Dotted . . . . . . . . . . . . . . . . . . . . 
 72
    65
 73
     2
 40
0.0482
 49
0.0069
 74
     0
 49
-0.0413
 74
     0
  0
LTYPE
  5
81
330
5
100
AcDbSymbolTableRecord
100
AcDbLinetypeTableRecord
  2
DOUBLE_DASH_CHAIN
 70
     0
  3
Double Dash Chain ___ _ _ ___ _ _ ___ _ _ ___ _
 72
    65
 73
     6
 40
1.240299999999999
 49
0.6614
 74
     0
 49
-0.0827
 74
     0
 49
0.1654
 74
     0
 49
-0.0827
 74
     0
 49
0.1654
 74
     0
 49
-0.0827
 74
     0
  0
LTYPE
  5
82
330
5
100
AcDbSymbolTableRecord
100
AcDbLinetypeTableRecord
  2
DOUBLE_DASH_DOT
 70
     0
  3
Double Dash Dot __ __ . __ __ . __ __ . __ _
 72
    65
 73
     6
 40
0.67
 49
0.24
 74
     0
 49
-0.06
 74
     0
 49
0.24
 74
     0
 49
-0.06
 74
     0
 49
0.01
 74
     0
 49
-0.06
 74
     0
  0
LTYPE
  5
83
330
5
100
AcDbSymbolTableRecord
100
AcDbLinetypeTableRecord
  2
DOUBLE_DASH_DOUBLE_DOT
 70
     0
  3
Double-dash double-dot _ _ . . _ _ . . _
 72
    65
 73
     8
 40
0.7400000000000001
 49
0.24
 74
     0
 49
-0.06
 74
     0
 49
0.24
 74
     0
 49
-0.06
 74
     0
 49
0.01
 74
     0
 49
-0.06
 74
     0
 49
0.01
 74
     0
 49
-0.06
 74
     0
  0
LTYPE
  5
84
330
5
100
AcDbSymbolTableRecord
100
AcDbLinetypeTableRecord
  2
DOUBLE_DASH_TRIPLE_DOT
 70
     0
  3
Double Dash Triple Dot __ __ . . . __ __ . . .
 72
    65
 73
    10
 40
0.8100000000000001
 49
0.24
 74
     0
 49
-0.06
 74
     0
 49
0.24
 74
     0
 49
-0.06
 74
     0
 49
0.01
 74
     0
 49
-0.06
 74
     0
 49
0.01
 74
     0
 49
-0.06
 74
     0
 49
0.01
 74
     0
 49
-0.06
 74
     0
  0
LTYPE
  5
85
330
5
100
AcDbSymbolTableRecord
100
AcDbLinetypeTableRecord
  2
LONG_DASH_DOTTED
 70
     0
  3
Long-Dash Dot ____ . ____ . ____ . ____ . _
 72
    65
 73
     4
 40
0.3001
 49
0.2362
 74
     0
 49
-0.0295
 74
     0
 49
0.0049
 74
     0
 49
-0.0295
 74
     0
  0
LTYPE
  5
86
330
5
100
AcDbSymbolTableRecord
100
AcDbLinetypeTableRecord
  2
LONG_DASH_DOUBLE_DOT
 70
     0
  3
Long Dash Double Dot ____ . . ____ . . ____ . .
 72
    65
 73
     6
 40
0.3345
 49
0.2362
 74
     0
 49
-0.0295
 74
     0
 49
0.0049
 74
     0
 49
-0.0295
 74
     0
 49
0.0049
 74
     0
 49
-0.0295
 74
     0
  0
LTYPE
  5
87
330
5
100
AcDbSymbolTableRecord
100
AcDbLinetypeTableRecord
  2
LONG_DASH_TRIPLE_DOT
 70
     0
  3
Long Dash Triple Dot ____ ... ____ ... ____
 72
    65
 73
     8
 40
0.75
 49
0.48
 74
     0
 49
-0.06
 74
     0
 49
0.01
 74
     0
 49
-0.06
 74
     0
 49
0.01
 74
     0
 49
-0.06
 74
     0
 49
0.01
 74
     0
 49
-0.06
 74
     0
  0
LTYPE
  5
88
330
5
100
AcDbSymbolTableRecord
100
AcDbLinetypeTableRecord
  2
BORDER
 70
     0
  3
Border __ __ . __ __ . __ __ . __ __ . __ __ .
 72
    65
 73
     6
 40
44.45
 49
12.7
 74
     0
 49
-6.349999999999999
 74
     0
 49
12.7
 74
     0
 49
-6.349999999999999
 74
     0
 49
0.0
 74
     0
 49
-6.349999999999999
 74
     0
  0
LTYPE
  5
89
330
5
100
AcDbSymbolTableRecord
100
AcDbLinetypeTableRecord
  2
BORDER2
 70
     0
  3
Border (.5x) __.__.__.__.__.__.__.__.__.__.__.
 72
    65
 73
     6
 40
22.225
 49
6.349999999999999
 74
     0
 49
-3.174999999999999
 74
     0
 49
6.349999999999999
 74
     0
 49
-3.174999999999999
 74
     0
 49
0.0
 74
     0
 49
-3.174999999999999
 74
     0
  0
LTYPE
  5
8A
330
5
100
AcDbSymbolTableRecord
100
AcDbLinetypeTableRecord
  2
BORDERX2
 70
     0
  3
Border (2x) ____  ____  .  ____  ____  .  ___
 72
    65
 73
     6
 40
88.9
 49
25.4
 74
     0
 49
-12.7
 74
     0
 49
25.4
 74
     0
 49
-12.7
 74
     0
 49
0.0
 74
     0
 49
-12.7
 74
     0
  0
LTYPE
  5
8B
330
5
100
AcDbSymbolTableRecord
100
AcDbLinetypeTableRecord
  2
CENTER
 70
     0
  3
Center ____ _ ____ _ ____ _ ____ _ ____ _ ____
 72
    65
 73
     4
 40
50.8
 49
31.75
 74
     0
 49
-6.349999999999999
 74
     0
 49
6.349999999999999
 74
     0
 49
-6.349999999999999
 74
     0
  0
LTYPE
  5
8C
330
5
100
AcDbSymbolTableRecord
100
AcDbLinetypeTableRecord
  2
CENTER2
 70
     0
  3
Center (.5x) ___ _ ___ _ ___ _ ___ _ ___ _ ___
 72
    65
 73
     4
 40
28.575
 49
19.05
 74
     0
 49
-3.174999999999999
 74
     0
 49
3.174999999999999
 74
     0
 49
-3.174999999999999
 74
     0
  0
LTYPE
  5
8D
330
5
100
AcDbSymbolTableRecord
100
AcDbLinetypeTableRecord
  2
CENTERX2
 70
     0
  3
Center (2x) ________  __  ________  __  _____
 72
    65
 73
     4
 40
101.6
 49
63.5
 74
     0
 49
-12.7
 74
     0
 49
12.7
 74
     0
 49
-12.7
 74
     0
  0
LTYPE
  5
8E
330
5
100
AcDbSymbolTableRecord
100
AcDbLinetypeTableRecord
  2
DASHDOT2
 70
     0
  3
Dash dot (.5x) _._._._._._._._._._._._._._._.
 72
    65
 73
     4
 40
12.7
 49
6.349999999999999
 74
     0
 49
-3.174999999999999
 74
     0
 49
0.0
 74
     0
 49
-3.174999999999999
 74
     0
  0
LTYPE
  5
8F
330
5
100
AcDbSymbolTableRecord
100
AcDbLinetypeTableRecord
  2
DASHDOTX2
 70
     0
  3
Dash dot (2x) ____  .  ____  .  ____  .  ___
 72
    65
 73
     4
 40
50.8
 49
25.4
 74
     0
 49
-12.7
 74
     0
 49
0.0
 74
     0
 49
-12.7
 74
     0
  0
LTYPE
  5
90
330
5
100
AcDbSymbolTableRecord
100
AcDbLinetypeTableRecord
  2
DASHED2
 70
     0
  3
Dashed (.5x) _ _ _ _ _ _ _ _ _ _ _ _ _ _ _ _ _
 72
    65
 73
     2
 40
9.524999999999998
 49
6.349999999999999
 74
     0
 49
-3.174999999999999
 74
     0
  0
LTYPE
  5
91
330
5
100
AcDbSymbolTableRecord
100
AcDbLinetypeTableRecord
  2
DASHEDX2
 70
     0
  3
Dashed (2x) ____  ____  ____  ____  ____  ___
 72
    65
 73
     2
 40
38.1
 49
25.4
 74
     0
 49
-12.7
 74
     0
  0
LTYPE
  5
92
330
5
100
AcDbSymbolTableRecord
100
AcDbLinetypeTableRecord
  2
DIVIDE
 70
     0
  3
Divide ____ . . ____ . . ____ . . ____ . . ____
 72
    65
 73
     6
 40
31.75
 49
12.7
 74
     0
 49
-6.349999999999999
 74
     0
 49
0.0
 74
     0
 49
-6.349999999999999
 74
     0
 49
0.0
 74
     0
 49
-6.349999999999999
 74
     0
  0
LTYPE
  5
93
330
5
100
AcDbSymbolTableRecord
100
AcDbLinetypeTableRecord
  2
DIVIDE2
 70
     0
  3
Divide (.5x) __..__..__..__..__..__..__..__.._
 72
    65
 73
     6
 40
15.875
 49
6.349999999999999
 74
     0
 49
-3.174999999999999
 74
     0
 49
0.0
 74
     0
 49
-3.174999999999999
 74
     0
 49
0.0
 74
     0
 49
-3.174999999999999
 74
     0
  0
LTYPE
  5
94
330
5
100
AcDbSymbolTableRecord
100
AcDbLinetypeTableRecord
  2
DIVIDEX2
 70
     0
  3
Divide (2x) ________  .  .  ________  .  .  _
 72
    65
 73
     6
 40
63.49999999999999
 49
25.4
 74
     0
 49
-12.7
 74
     0
 49
0.0
 74
     0
 49
-12.7
 74
     0
 49
0.0
 74
     0
 49
-12.7
 74
     0
  0
LTYPE
  5
95
330
5
100
AcDbSymbolTableRecord
100
AcDbLinetypeTableRecord
  2
DOT
 70
     0
  3
Dot . . . . . . . . . . . . . . . . . . . . . .
 72
    65
 73
     2
 40
6.349999999999999
 49
0.0
 74
     0
 49
-6.349999999999999
 74
     0
  0
LTYPE
  5
96
330
5
100
AcDbSymbolTableRecord
100
AcDbLinetypeTableRecord
  2
DOT2
 70
     0
  3
Dot (.5x) .....................................
 72
    65
 73
     2
 40
3.174999999999999
 49
0.0
 74
     0
 49
-3.174999999999999
 74
     0
  0
LTYPE
  5
97
330
5
100
AcDbSymbolTableRecord
100
AcDbLinetypeTableRecord
  2
DOTX2
 70
     0
  3
Dot (2x) .  .  .  .  .  .  .  .  .  .  .  .  . 
 72
    65
 73
     2
 40
12.7
 49
0.0
 74
     0
 49
-12.7
 74
     0
  0
LTYPE
  5
98
330
5
100
AcDbSymbolTableRecord
100
AcDbLinetypeTableRecord
  2
HIDDEN
 70
     0
  3
Hidden __ __ __ __ __ __ __ __ __ __ __ __ __ _
 72
    65
 73
     2
 40
9.524999999999998
 49
6.349999999999999
 74
     0
 49
-3.174999999999999
 74
     0
  0
LTYPE
  5
99
330
5
100
AcDbSymbolTableRecord
100
AcDbLinetypeTableRecord
  2
HIDDEN2
 70
     0
  3
Hidden (.5x) _ _ _ _ _ _ _ _ _ _ _ _ _ _ _ _ _
 72
    65
 73
     2
 40
4.762499999999999
 49
3.174999999999999
 74
     0
 49
-1.587499999999999
 74
     0
  0
LTYPE
  5
9A
330
5
100
AcDbSymbolTableRecord
100
AcDbLinetypeTableRecord
  2
HIDDENX2
 70
     0
  3
Hidden (2x) ____ ____ ____ ____ ____ ____ ____
 72
    65
 73
     2
 40
19.05
 49
12.7
 74
     0
 49
-6.349999999999999
 74
     0
  0
LTYPE
  5
9B
330
5
100
AcDbSymbolTableRecord
100
AcDbLinetypeTableRecord
  2
PHANTOM
 70
     0
  3
Phantom ______  __  __  ______  __  __  ______
 72
    65
 73
     6
 40
63.5
 49
31.75
 74
     0
 49
-6.349999999999999
 74
     0
 49
6.349999999999999
 74
     0
 49
-6.349999999999999
 74
     0
 49
6.349999999999999
 74
     0
 49
-6.349999999999999
 74
     0
  0
LTYPE
  5
9D
330
5
100
AcDbSymbolTableRecord
100
AcDbLinetypeTableRecord
  2
PHANTOMX2
 70
     0
  3
Phantom (2x) ____________    ____    ____   _
 72
    65
 73
     6
 40
127.0
 49
63.5
 74
     0
 49
-12.7
 74
     0
 49
12.7
 74
     0
 49
-12.7
 74
     0
 49
12.7
 74
     0
 49
-12.7
 74
     0
  0
LTYPE
  5
9E
330
5
100
AcDbSymbolTableRecord
100
AcDbLinetypeTableRecord
  2
ACAD_ISO02W100
 70
     0
  3
ISO dash __ __ __ __ __ __ __ __ __ __ __ __ __
 72
    65
 73
     2
 40
15.0
 49
12.0
 74
     0
 49
-3.0
 74
     0
  0
LTYPE
  5
9F
330
5
100
AcDbSymbolTableRecord
100
AcDbLinetypeTableRecord
  2
ACAD_ISO03W100
 70
     0
  3
ISO dash space __    __    __    __    __    __
 72
    65
 73
     2
 40
30.0
 49
12.0
 74
     0
 49
-18.0
 74
     0
  0
LTYPE
  5
A0
330
5
100
AcDbSymbolTableRecord
100
AcDbLinetypeTableRecord
  2
ACAD_ISO04W100
 70
     0
  3
ISO long-dash dot ____ . ____ . ____ . ____ . _
 72
    65
 73
     4
 40
30.0
 49
24.0
 74
     0
 49
-3.0
 74
     0
 49
0.0
 74
     0
 49
-3.0
 74
     0
  0
LTYPE
  5
A1
330
5
100
AcDbSymbolTableRecord
100
AcDbLinetypeTableRecord
  2
ACAD_ISO05W100
 70
     0
  3
ISO long-dash double-dot ____ .. ____ .. ____ .
 72
    65
 73
     6
 40
33.0
 49
24.0
 74
     0
 49
-3.0
 74
     0
 49
0.0
 74
     0
 49
-3.0
 74
     0
 49
0.0
 74
     0
 49
-3.0
 74
     0
  0
LTYPE
  5
A2
330
5
100
AcDbSymbolTableRecord
100
AcDbLinetypeTableRecord
  2
ACAD_ISO06W100
 70
     0
  3
ISO long-dash triple-dot ____ ... ____ ... ____
 72
    65
 73
     8
 40
36.0
 49
24.0
 74
     0
 49
-3.0
 74
     0
 49
0.0
 74
     0
 49
-3.0
 74
     0
 49
0.0
 74
     0
 49
-3.0
 74
     0
 49
0.0
 74
     0
 49
-3.0
 74
     0
  0
LTYPE
  5
A3
330
5
100
AcDbSymbolTableRecord
100
AcDbLinetypeTableRecord
  2
ACAD_ISO07W100
 70
     0
  3
ISO dot . . . . . . . . . . . . . . . . . . . .
 72
    65
 73
     2
 40
3.0
 49
0.0
 74
     0
 49
-3.0
 74
     0
  0
LTYPE
  5
A4
330
5
100
AcDbSymbolTableRecord
100
AcDbLinetypeTableRecord
  2
ACAD_ISO08W100
 70
     0
  3
ISO long-dash short-dash ____ __ ____ __ ____ _
 72
    65
 73
     4
 40
36.0
 49
24.0
 74
     0
 49
-3.0
 74
     0
 49
6.0
 74
     0
 49
-3.0
 74
     0
  0
LTYPE
  5
A5
330
5
100
AcDbSymbolTableRecord
100
AcDbLinetypeTableRecord
  2
ACAD_ISO09W100
 70
     0
  3
ISO long-dash double-short-dash ____ __ __ ____
 72
    65
 73
     6
 40
45.0
 49
24.0
 74
     0
 49
-3.0
 74
     0
 49
6.0
 74
     0
 49
-3.0
 74
     0
 49
6.0
 74
     0
 49
-3.0
 74
     0
  0
LTYPE
  5
A6
330
5
100
AcDbSymbolTableRecord
100
AcDbLinetypeTableRecord
  2
ACAD_ISO10W100
 70
     0
  3
ISO dash dot __ . __ . __ . __ . __ . __ . __ .
 72
    65
 73
     4
 40
18.0
 49
12.0
 74
     0
 49
-3.0
 74
     0
 49
0.0
 74
     0
 49
-3.0
 74
     0
  0
LTYPE
  5
A7
330
5
100
AcDbSymbolTableRecord
100
AcDbLinetypeTableRecord
  2
ACAD_ISO11W100
 70
     0
  3
ISO double-dash dot __ __ . __ __ . __ __ . __ 
 72
    65
 73
     6
 40
33.0
 49
12.0
 74
     0
 49
-3.0
 74
     0
 49
12.0
 74
     0
 49
-3.0
 74
     0
 49
0.0
 74
     0
 49
-3.0
 74
     0
  0
LTYPE
  5
A8
330
5
100
AcDbSymbolTableRecord
100
AcDbLinetypeTableRecord
  2
ACAD_ISO12W100
 70
     0
  3
ISO dash double-dot __ . . __ . . __ . . __ . .
 72
    65
 73
     6
 40
21.0
 49
12.0
 74
     0
 49
-3.0
 74
     0
 49
0.0
 74
     0
 49
-3.0
 74
     0
 49
0.0
 74
     0
 49
-3.0
 74
     0
  0
LTYPE
  5
A9
330
5
100
AcDbSymbolTableRecord
100
AcDbLinetypeTableRecord
  2
ACAD_ISO13W100
 70
     0
  3
ISO double-dash double-dot __ __ . . __ __ . . 
 72
    65
 73
     8
 40
36.0
 49
12.0
 74
     0
 49
-3.0
 74
     0
 49
12.0
 74
     0
 49
-3.0
 74
     0
 49
0.0
 74
     0
 49
-3.0
 74
     0
 49
0.0
 74
     0
 49
-3.0
 74
     0
  0
LTYPE
  5
AA
330
5
100
AcDbSymbolTableRecord
100
AcDbLinetypeTableRecord
  2
ACAD_ISO14W100
 70
     0
  3
ISO dash triple-dot __ . . . __ . . . __ . . . 
 72
    65
 73
     8
 40
24.0
 49
12.0
 74
     0
 49
-3.0
 74
     0
 49
0.0
 74
     0
 49
-3.0
 74
     0
 49
0.0
 74
     0
 49
-3.0
 74
     0
 49
0.0
 74
     0
 49
-3.0
 74
     0
  0
LTYPE
  5
AB
330
5
100
AcDbSymbolTableRecord
100
AcDbLinetypeTableRecord
  2
ACAD_ISO15W100
 70
     0
  3
ISO double-dash triple-dot __ __ . . . __ __ . 
 72
    65
 73
    10
 40
39.0
 49
12.0
 74
     0
 49
-3.0
 74
     0
 49
12.0
 74
     0
 49
-3.0
 74
     0
 49
0.0
 74
     0
 49
-3.0
 74
     0
 49
0.0
 74
     0
 49
-3.0
 74
     0
 49
0.0
 74
     0
 49
-3.0
 74
     0
  0
LTYPE
  5
AE
330
5
100
AcDbSymbolTableRecord
100
AcDbLinetypeTableRecord
  2
FENCELINE1
 70
     0
  3
Fenceline circle ----0-----0----0-----0----0---
 72
    65
 73
     4
 40
36.83
 49
6.349999999999999
 74
     0
 49
-2.54
 74
     4
 75
   133
340
AD
 46
2.54
 50
0.0
 44
-2.54
 45
0.0
 49
-2.54
 74
     0
 49
25.4
 74
     0
  0
LTYPE
  5
AF
330
5
100
AcDbSymbolTableRecord
100
AcDbLinetypeTableRecord
  2
FENCELINE2
 70
     0
  3
Fenceline square ----[]-----[]----[]-----[]----
 72
    65
 73
     4
 40
36.83
 49
6.349999999999999
 74
     0
 49
-2.54
 74
     4
 75
   132
340
AD
 46
2.54
 50
0.0
 44
-2.54
 45
0.0
 49
-2.54
 74
     0
 49
25.4
 74
     0
  0
LTYPE
  5
B0
330
5
100
AcDbSymbolTableRecord
100
AcDbLinetypeTableRecord
  2
TRACKS
 70
     0
  3
Tracks -|-|-|-|-|-|-|-|-|-|-|-|-|-|-|-|-|-|-|-|
 72
    65
 73
     2
 40
7.62
 49
3.81
 74
     4
 75
   130
340
AD
 46
6.349999999999999
 50
0.0
 44
0.0
 45
0.0
 49
3.81
 74
     0
  0
LTYPE
  5
B1
330
5
100
AcDbSymbolTableRecord
100
AcDbLinetypeTableRecord
  2
BATTING
 70
     0
  3
Batting SSSSSSSSSSSSSSSSSSSSSSSSSSSSSSSSSSSSSSS
 72
    65
 73
     4
 40
10.16254
 49
0.00254
 74
     0
 49
-2.54
 74
     4
 75
   134
340
AD
 46
2.54
 50
0.0
 44
-2.54
 45
0.0
 49
-5.08
 74
     4
 75
   134
340
AD
 46
2.54
 50
180.0
 44
2.54
 45
0.0
 49
-2.54
 74
     0
  0
LTYPE
  5
B2
330
5
100
AcDbSymbolTableRecord
100
AcDbLinetypeTableRecord
  2
HOT_WATER_SUPPLY
 70
     0
  3
Hot water supply ---- HW ---- HW ---- HW ----
 72
    65
 73
     3
 40
22.86
 49
12.7
 74
     0
 49
-5.08
 74
     2
 75
     0
340
55
 46
2.54
 50
0.0
 44
-2.54
 45
-1.27
  9
HW
 49
-5.08
 74
     0
  0
LTYPE
  5
B3
330
5
100
AcDbSymbolTableRecord
100
AcDbLinetypeTableRecord
  2
GAS_LINE
 70
     0
  3
Gas line ----GAS----GAS----GAS----GAS----GAS---
 72
    65
 73
     3
 40
24.13
 49
12.7
 74
     0
 49
-5.08
 74
     2
 75
     0
340
55
 46
2.54
 50
0.0
 44
-2.54
 45
-1.27
  9
GAS
 49
-6.349999999999999
 74
     0
  0
LTYPE
  5
B4
330
5
100
AcDbSymbolTableRecord
100
AcDbLinetypeTableRecord
  2
ZIGZAG
 70
     0
  3
Zig zag /\/\/\/\/\/\/\/\/\/\/\/\/\/\/\/\/\/\/\/
 72
    65
 73
     4
 40
20.32254
 49
0.00254
 74
     0
 49
-5.08
 74
     4
 75
   131
340
AD
 46
5.08
 50
0.0
 44
-5.08
 45
0.0
 49
-10.16
 74
     4
 75
   131
340
AD
 46
5.08
 50
180.0
 44
5.08
 45
0.0
 49
-5.08
 74
     0
  0
ENDTAB
  0
TABLE
  2
LAYER
  5
2
330
0
100
AcDbSymbolTable
 70
    27
  0
LAYER
  5
54
330
2
100
AcDbSymbolTableRecord
100
AcDbLayerTableRecord
  2
0
 70
     0
 62
     7
  6
Continuous
370
    25
390
F
  0
LAYER
  5
B9
330
2
100
AcDbSymbolTableRecord
100
AcDbLayerTableRecord
  2
Bemaßung (ISO)
 70
     0
 62
     1
  6
Continuous
370
    25
390
F
  0
LAYER
  5
BE
330
2
100
AcDbSymbolTableRecord
100
AcDbLayerTableRecord
  2
Mittellinie (ISO)
 70
     0
 62
     1
  6
DASH_DOT
370
    25
390
F
  0
LAYER
  5
BF
330
2
100
AcDbSymbolTableRecord
100
AcDbLayerTableRecord
  2
Mittelpunktmarkierung (ISO)
 70
     0
 62
     1
  6
DASH_DOT
370
    25
390
F
  0
LAYER
  5
C1
330
2
100
AcDbSymbolTableRecord
100
AcDbLayerTableRecord
  2
Rahmen (ISO)
 70
     0
 62
     7
  6
Continuous
370
    70
390
F
  0
LAYER
  5
C5
330
2
100
AcDbSymbolTableRecord
100
AcDbLayerTableRecord
  2
Schraffur (ISO)
 70
     0
 62
     1
  6
Continuous
370
    18
390
F
  0
LAYER
  5
C6
330
2
100
AcDbSymbolTableRecord
100
AcDbLayerTableRecord
  2
Sichtbar (ISO)
 70
     0
 62
     7
  6
Continuous
370
    50
390
F
  0
LAYER
  5
C7
330
2
100
AcDbSymbolTableRecord
100
AcDbLayerTableRecord
  2
Sichtbar schmal (ISO)
 70
     0
 62
     1
  6
Continuous
370
    25
390
F
  0
LAYER
  5
CA
330
2
100
AcDbSymbolTableRecord
100
AcDbLayerTableRecord
  2
Titel (ISO)
 70
     0
 62
     5
  6
Continuous
370
    50
390
F
  0
LAYER
  5
CC
330
2
100
AcDbSymbolTableRecord
100
AcDbLayerTableRecord
  2
Verdeckt (ISO)
 70
     0
 62
     5
  6
DASHED
370
    35
390
F
  0
LAYER
  5
1DC
330
2
100
AcDbSymbolTableRecord
100
AcDbLayerTableRecord
  2
Defpoints
 70
     0
 62
     7
  6
Continuous
290
     0
370
    -3
390
F
  0
ENDTAB
  0
TABLE
  2
STYLE
  5
3
330
0
100
AcDbSymbolTable
 70
    23
  0
STYLE
  5
55
330
3
100
AcDbSymbolTableRecord
100
AcDbTextStyleTableRecord
  2
Standard
 70
     0
 40
0.0
 41
1.100000023841857
 50
0.0
 71
     0
 42
0.2
  3
isocpeur.ttf
  4

1001
ACAD
1000
ISOCPEUR
1071
      256
  0
STYLE
  5
5A
330
3
100
AcDbSymbolTableRecord
100
AcDbTextStyleTableRecord
  2
Annotative
 70
     0
 40
0.0
 41
1.0
 50
0.0
 71
     0
 42
0.2
  3
txt
  4

1001
AcadAnnotative
1000
AnnotativeData
1002
{
1070
     1
1070
     1
1002
}
  0
STYLE
  5
AD
330
3
100
AcDbSymbolTableRecord
100
AcDbTextStyleTableRecord
  2

 70
     1
 40
0.0
 41
1.0
 50
0.0
 71
     0
 42
0.2
  3
ltypeshp.shx
  4

  0
STYLE
  5
CE
330
3
100
AcDbSymbolTableRecord
100
AcDbTextStyleTableRecord
  2
1_8
 70
     0
 40
0.0
 41
1.100000023841857
 50
0.0
 71
     0
 42
0.2
  3
isocpeur.ttf
  4

1001
ACAD
1000
ISOCPEUR
1071
      256
  0
STYLE
  5
CF
330
3
100
AcDbSymbolTableRecord
100
AcDbTextStyleTableRecord
  2
2_5
 70
     0
 40
0.0
 41
1.100000023841857
 50
0.0
 71
     0
 42
0.2
  3
isocpeur.ttf
  4

1001
ACAD
1000
ISOCPEUR
1071
      256
  0
STYLE
  5
D0
330
3
100
AcDbSymbolTableRecord
100
AcDbTextStyleTableRecord
  2
3_5
 70
     0
 40
0.0
 41
1.100000023841857
 50
0.0
 71
     0
 42
0.2
  3
isocpeur.ttf
  4

1001
ACAD
1000
ISOCPEUR
1071
      256
  0
STYLE
  5
D1
330
3
100
AcDbSymbolTableRecord
100
AcDbTextStyleTableRecord
  2
5
 70
     0
 40
0.0
 41
1.100000023841857
 50
0.0
 71
     0
 42
0.2
  3
isocpeur.ttf
  4

1001
ACAD
1000
ISOCPEUR
1071
      256
  0
STYLE
  5
D2
330
3
100
AcDbSymbolTableRecord
100
AcDbTextStyleTableRecord
  2
7
 70
     0
 40
0.0
 41
1.100000023841857
 50
0.0
 71
     0
 42
0.2
  3
isocpeur.ttf
  4

1001
ACAD
1000
ISOCPEUR
1071
      256
  0
STYLE
  5
D3
330
3
100
AcDbSymbolTableRecord
100
AcDbTextStyleTableRecord
  2
Bezeichnungstext (DIN)
 70
     0
 40
0.0
 41
1.100000023841857
 50
0.0
 71
     0
 42
0.2
  3
isocpeur.ttf
  4

1001
ACAD
1000
ISOCPEUR
1071
      256
  0
STYLE
  5
D4
330
3
100
AcDbSymbolTableRecord
100
AcDbTextStyleTableRecord
  2
Notiztext (DIN)
 70
     0
 40
0.0
 41
1.100000023841857
 50
0.0
 71
     0
 42
0.2
  3
isocpeur.ttf
  4

1001
ACAD
1000
ISOCPEUR
1071
      256
  0
STYLE
  5
128
330
3
100
AcDbSymbolTableRecord
100
AcDbTextStyleTableRecord
  2
Textstil159
 70
     0
 40
0.0
 41
1.25
 50
0.0
 71
     0
 42
0.2
  3
isocpeur.ttf
  4

1001
ACAD
1000
ISOCPEUR
1071
      256
  0
STYLE
  5
130
330
3
100
AcDbSymbolTableRecord
100
AcDbTextStyleTableRecord
  2
Textstil246
 70
     0
 40
0.0
 41
1.100000023841857
 50
0.0
 71
     0
 42
0.2
  3
isocpeui.ttf
  4

1001
ACAD
1000
ISOCPEUR
1071
 16777472
  0
STYLE
  5
133
330
3
100
AcDbSymbolTableRecord
100
AcDbTextStyleTableRecord
  2
Textstil117
 70
     0
 40
0.0
 41
1.399999976158142
 50
0.0
 71
     0
 42
0.2
  3
isocpeur.ttf
  4

1001
ACAD
1000
ISOCPEUR
1071
      256
  0
STYLE
  5
137
330
3
100
AcDbSymbolTableRecord
100
AcDbTextStyleTableRecord
  2
Textstil251
 70
     0
 40
0.0
 41
1.399999976158142
 50
0.0
 71
     0
 42
0.2
  3
isocpeui.ttf
  4

1001
ACAD
1000
ISOCPEUR
1071
 16777472
  0
STYLE
  5
13A
330
3
100
AcDbSymbolTableRecord
100
AcDbTextStyleTableRecord
  2
Textstil244
 70
     0
 40
0.0
 41
1.200000047683715
 50
0.0
 71
     0
 42
0.2
  3
isocpeui.ttf
  4

1001
ACAD
1000
ISOCPEUR
1071
 16777472
  0
STYLE
  5
176
330
3
100
AcDbSymbolTableRecord
100
AcDbTextStyleTableRecord
  2
Textstil68
 70
     0
 40
0.0
 41
1.200000047683715
 50
0.0
 71
     0
 42
0.2
  3
isocpeur.ttf
  4

1001
ACAD
1000
ISOCPEUR
1071
      256
  0
STYLE
  5
179
330
3
100
AcDbSymbolTableRecord
100
AcDbTextStyleTableRecord
  2
Textstil144
 70
     0
 40
0.0
 41
1.399999976158142
 50
0.0
 71
     0
 42
0.2
  3
isocpeur.ttf
  4

1001
ACAD
1000
ISOCPEUR
1071
      256
  0
STYLE
  5
17C
330
3
100
AcDbSymbolTableRecord
100
AcDbTextStyleTableRecord
  2
Textstil142
 70
     0
 40
0.0
 41
1.399999976158142
 50
0.0
 71
     0
 42
0.2
  3
isocpeur.ttf
  4

1001
ACAD
1000
ISOCPEUR
1071
      256
  0
STYLE
  5
181
330
3
100
AcDbSymbolTableRecord
100
AcDbTextStyleTableRecord
  2
Textstil249
 70
     0
 40
0.0
 41
1.399999976158142
 50
0.0
 71
     0
 42
0.2
  3
isocpeui.ttf
  4

1001
ACAD
1000
ISOCPEUR
1071
 16777472
  0
STYLE
  5
184
330
3
100
AcDbSymbolTableRecord
100
AcDbTextStyleTableRecord
  2
Textstil248
 70
     0
 40
0.0
 41
1.200000047683715
 50
0.0
 71
     0
 42
0.2
  3
isocpeui.ttf
  4

1001
ACAD
1000
ISOCPEUR
1071
 16777472
  0
STYLE
  5
19D
330
3
100
AcDbSymbolTableRecord
100
AcDbTextStyleTableRecord
  2
Textstil243
 70
     0
 40
0.0
 41
1.399999976158142
 50
0.0
 71
     0
 42
0.2
  3
isocpeur.ttf
  4

1001
ACAD
1000
ISOCPEUR
1071
      256
  0
STYLE
  5
19F
330
3
100
AcDbSymbolTableRecord
100
AcDbTextStyleTableRecord
  2
Textstil143
 70
     0
 40
0.0
 41
1.399999976158142
 50
0.0
 71
     0
 42
0.2
  3
isocpeur.ttf
  4

1001
ACAD
1000
ISOCPEUR
1071
      256
  0
STYLE
  5
1A2
330
3
100
AcDbSymbolTableRecord
100
AcDbTextStyleTableRecord
  2
Textstil242
 70
     0
 40
0.0
 41
1.200000047683715
 50
0.0
 71
     0
 42
0.2
  3
isocpeur.ttf
  4

1001
ACAD
1000
ISOCPEUR
1071
      256
  0
ENDTAB
  0
TABLE
  2
VIEW
  5
6
330
0
100
AcDbSymbolTable
 70
     0
  0
ENDTAB
  0
TABLE
  2
UCS
  5
7
330
0
100
AcDbSymbolTable
 70
     0
  0
ENDTAB
  0
TABLE
  2
APPID
  5
9
330
0
100
AcDbSymbolTable
 70
     4
  0
APPID
  5
56
330
9
100
AcDbSymbolTableRecord
100
AcDbRegAppTableRecord
  2
ACAD
 70
     0
  0
APPID
  5
5E
330
9
100
AcDbSymbolTableRecord
100
AcDbRegAppTableRecord
  2
AcadAnnotative
 70
     0
  0
APPID
  5
136
330
9
100
AcDbSymbolTableRecord
100
AcDbRegAppTableRecord
  2
AcadAnnoPO
 70
     0
  0
APPID
  5
90B
330
9
100
AcDbSymbolTableRecord
100
AcDbRegAppTableRecord
  2
ACAD_MLEADERVER
 70
     0
  0
ENDTAB
  0
TABLE
  2
DIMSTYLE
  5
A
330
0
100
AcDbSymbolTable
 70
    47
100
AcDbDimStyleTable
 71
     2
340
EF
340
58
  0
DIMSTYLE
105
58
330
A
100
AcDbSymbolTableRecord
100
AcDbDimStyleTableRecord
  2
Standard
 70
     0
340
55
  0
DIMSTYLE
105
59
330
A
100
AcDbSymbolTableRecord
100
AcDbDimStyleTableRecord
  2
Annotative
 70
     0
340
55
1001
AcadAnnotative
1000
AnnotativeData
1002
{
1070
     1
1070
     1
1002
}
  0
DIMSTYLE
105
D5
330
A
100
AcDbSymbolTableRecord
100
AcDbDimStyleTableRecord
  2
01-Bopla
 70
     0
 41
2.5
 42
0.0
 43
5.0
 44
1.0
 45
0.00000001
 46
6.999999999999999
 73
     0
 74
     0
 77
     1
 78
     8
 79
     2
140
2.5
143
0.03937
146
0.7200000286102295
147
0.2
171
     3
172
     1
176
     1
177
     1
178
     5
179
     6
271
     6
272
     3
274
     3
278
    44
284
     8
340
CF
371
    25
372
    25
  0
DIMSTYLE
105
D6
330
A
100
AcDbSymbolTableRecord
100
AcDbDimStyleTableRecord
  2
01-Bopla$7
 70
     0
 41
2.5
 42
0.0
 43
5.0
 44
1.0
 45
0.00000001
 46
6.999999999999999
 73
     0
 74
     0
 77
     1
 78
     8
 79
     2
140
2.5
143
0.03937
146
0.7200000286102295
147
0.2
171
     3
172
     1
176
   256
177
     1
178
     5
179
     6
271
     6
272
     3
274
     3
278
    44
284
     8
340
CF
371
    -1
372
    25
  0
DIMSTYLE
105
D7
330
A
100
AcDbSymbolTableRecord
100
AcDbDimStyleTableRecord
  2
02-Bopla (____)
 70
     0
 41
2.5
 42
0.0
 43
5.0
 44
1.0
 45
0.00000001
 46
6.999999999999999
 73
     0
 74
     0
 77
     1
 78
     8
 79
     2
140
2.5
143
0.03937
146
0.7200000286102295
147
0.2
171
     3
172
     1
176
     1
177
     1
178
     5
179
     6
271
     3
272
     3
274
     3
278
    44
284
     8
340
CF
371
    25
372
    25
  0
DIMSTYLE
105
D8
330
A
100
AcDbSymbolTableRecord
100
AcDbDimStyleTableRecord
  2
02-Bopla (____)$7
 70
     0
 41
2.5
 42
0.0
 43
5.0
 44
1.0
 45
0.00000001
 46
6.999999999999999
 73
     0
 74
     0
 77
     1
 78
     8
 79
     2
140
2.5
143
0.03937
146
0.7200000286102295
147
0.2
171
     3
172
     1
176
   256
177
     1
178
     5
179
     6
271
     3
272
     3
274
     3
278
    44
284
     8
340
CF
371
    -1
372
    25
  0
DIMSTYLE
105
D9
330
A
100
AcDbSymbolTableRecord
100
AcDbDimStyleTableRecord
  2
03-Bopla M
 70
     0
 41
2.5
 42
0.0
 43
5.0
 44
1.0
 45
0.00000001
 46
6.999999999999999
 73
     0
 74
     0
 77
     1
 78
     8
 79
     2
140
2.5
143
0.03937
146
0.7200000286102295
147
0.2
171
     3
172
     1
176
     1
177
     1
178
     5
179
     6
271
     6
272
     3
274
     3
278
    44
284
     8
340
CF
371
    25
372
    25
  0
DIMSTYLE
105
DA
330
A
100
AcDbSymbolTableRecord
100
AcDbDimStyleTableRecord
  2
03-Bopla M$7
 70
     0
 41
2.5
 42
0.0
 43
5.0
 44
1.0
 45
0.00000001
 46
6.999999999999999
 73
     0
 74
     0
 77
     1
 78
     8
 79
     2
140
2.5
143
0.03937
146
0.7200000286102295
147
0.2
171
     3
172
     1
176
   256
177
     1
178
     5
179
     6
271
     6
272
     3
274
     3
278
    44
284
     8
340
CF
371
    -1
372
    25
  0
DIMSTYLE
105
DB
330
A
100
AcDbSymbolTableRecord
100
AcDbDimStyleTableRecord
  2
04-Bopla ø
 70
     0
 41
2.5
 42
0.0
 43
5.0
 44
1.0
 45
0.00000001
 46
6.999999999999999
 73
     0
 74
     0
 77
     1
 78
     8
 79
     2
140
2.5
143
0.03937
146
0.7200000286102295
147
0.2
171
     3
172
     1
176
     1
177
     1
178
     5
179
     6
271
     6
272
     3
274
     3
278
    44
284
     8
340
CF
371
    25
372
    25
  0
DIMSTYLE
105
DC
330
A
100
AcDbSymbolTableRecord
100
AcDbDimStyleTableRecord
  2
04-Bopla ø$7
 70
     0
 41
2.5
 42
0.0
 43
5.0
 44
1.0
 45
0.00000001
 46
6.999999999999999
 73
     0
 74
     0
 77
     1
 78
     8
 79
     2
140
2.5
143
0.03937
146
0.7200000286102295
147
0.2
171
     3
172
     1
176
   256
177
     1
178
     5
179
     6
271
     6
272
     3
274
     3
278
    44
284
     8
340
CF
371
    -1
372
    25
  0
DIMSTYLE
105
DD
330
A
100
AcDbSymbolTableRecord
100
AcDbDimStyleTableRecord
  2
05-Bopla x45°
 70
     0
 41
2.5
 42
0.0
 43
5.0
 44
1.0
 45
0.00000001
 46
6.999999999999999
 73
     0
 74
     0
 77
     1
 78
     8
 79
     2
140
2.5
143
0.03937
146
0.7200000286102295
147
0.2
171
     3
172
     1
176
     1
177
     1
178
     5
179
     6
271
     6
272
     3
274
     3
278
    44
284
     8
340
CF
371
    25
372
    25
  0
DIMSTYLE
105
DE
330
A
100
AcDbSymbolTableRecord
100
AcDbDimStyleTableRecord
  2
05-Bopla x45°$7
 70
     0
 41
2.5
 42
0.0
 43
5.0
 44
1.0
 45
0.00000001
 46
6.999999999999999
 73
     0
 74
     0
 77
     1
 78
     8
 79
     2
140
2.5
143
0.03937
146
0.7200000286102295
147
0.2
171
     3
172
     1
176
   256
177
     1
178
     5
179
     6
271
     6
272
     3
274
     3
278
    44
284
     8
340
CF
371
    -1
372
    25
  0
DIMSTYLE
105
DF
330
A
100
AcDbSymbolTableRecord
100
AcDbDimStyleTableRecord
  2
06-Bopla Einpressb.
 70
     0
 41
2.5
 42
0.0
 43
5.0
 44
1.0
 45
0.00000001
 46
6.999999999999999
 48
0.000000001
 71
     1
 73
     0
 74
     0
 77
     1
 78
     8
 79
     2
140
2.5
143
0.03937
146
0.7200000286102295
147
0.2
171
     3
172
     1
176
     1
177
     1
178
     5
179
     6
271
     6
272
     3
274
     3
278
    44
284
     8
340
CF
371
    25
372
    25
  0
DIMSTYLE
105
E0
330
A
100
AcDbSymbolTableRecord
100
AcDbDimStyleTableRecord
  2
06-Bopla Einpressb.$7
 70
     0
 41
2.5
 42
0.0
 43
5.0
 44
1.0
 45
0.00000001
 46
6.999999999999999
 48
0.000000001
 71
     1
 73
     0
 74
     0
 77
     1
 78
     8
 79
     2
140
2.5
143
0.03937
146
0.7200000286102295
147
0.2
171
     3
172
     1
176
   256
177
     1
178
     5
179
     6
271
     6
272
     3
274
     3
278
    44
284
     8
340
CF
371
    -1
372
    25
  0
DIMSTYLE
105
E1
330
A
100
AcDbSymbolTableRecord
100
AcDbDimStyleTableRecord
  2
11-Bopla 5
 70
     0
 41
2.5
 42
0.0
 43
5.0
 44
1.0
 45
0.00000001
 46
6.999999999999999
 73
     0
 74
     0
 77
     1
 78
     8
 79
     2
140
5.0
143
0.03937
146
0.6999999880790711
147
0.6
171
     3
172
     1
176
     1
177
     1
178
     7
179
     6
271
     6
272
     3
274
     3
278
    44
284
     8
340
D1
371
    25
372
    25
  0
DIMSTYLE
105
E2
330
A
100
AcDbSymbolTableRecord
100
AcDbDimStyleTableRecord
  2
11-Bopla 5$7
 70
     0
 41
2.5
 42
0.0
 43
5.0
 44
1.0
 45
0.00000001
 46
6.999999999999999
 73
     0
 74
     0
 77
     1
 78
     8
 79
     2
140
5.0
143
0.03937
146
0.6999999880790711
147
0.6
171
     3
172
     1
176
   256
177
     1
178
     7
179
     6
271
     6
272
     3
274
     3
278
    44
284
     8
340
D1
371
    -1
372
    25
  0
DIMSTYLE
105
E3
330
A
100
AcDbSymbolTableRecord
100
AcDbDimStyleTableRecord
  2
12-Bopla 5 (____)
 70
     0
 41
2.5
 42
0.0
 43
5.0
 44
1.0
 45
0.00000001
 46
6.999999999999999
 73
     0
 74
     0
 77
     1
 78
     8
 79
     2
140
5.0
143
0.03937
146
0.6999999880790711
147
0.6
171
     3
172
     1
176
     1
177
     1
178
     7
179
     6
271
     3
272
     3
274
     3
278
    44
284
     8
340
D1
371
    25
372
    25
  0
DIMSTYLE
105
E4
330
A
100
AcDbSymbolTableRecord
100
AcDbDimStyleTableRecord
  2
12-Bopla 5 (____)$7
 70
     0
 41
2.5
 42
0.0
 43
5.0
 44
1.0
 45
0.00000001
 46
6.999999999999999
 73
     0
 74
     0
 77
     1
 78
     8
 79
     2
140
5.0
143
0.03937
146
0.6999999880790711
147
0.6
171
     3
172
     1
176
   256
177
     1
178
     7
179
     6
271
     3
272
     3
274
     3
278
    44
284
     8
340
D1
371
    -1
372
    25
  0
DIMSTYLE
105
E5
330
A
100
AcDbSymbolTableRecord
100
AcDbDimStyleTableRecord
  2
13-Bopla 5 M
 70
     0
 41
2.5
 42
0.0
 43
5.0
 44
1.0
 45
0.00000001
 46
6.999999999999999
 73
     0
 74
     0
 77
     1
 78
     8
 79
     2
140
5.0
143
0.03937
146
0.6999999880790711
147
0.6
171
     3
172
     1
176
     1
177
     1
178
     7
179
     6
271
     6
272
     3
274
     3
278
    44
284
     8
340
D1
371
    25
372
    25
  0
DIMSTYLE
105
E6
330
A
100
AcDbSymbolTableRecord
100
AcDbDimStyleTableRecord
  2
13-Bopla 5 M$7
 70
     0
 41
2.5
 42
0.0
 43
5.0
 44
1.0
 45
0.00000001
 46
6.999999999999999
 73
     0
 74
     0
 77
     1
 78
     8
 79
     2
140
5.0
143
0.03937
146
0.6999999880790711
147
0.6
171
     3
172
     1
176
   256
177
     1
178
     7
179
     6
271
     6
272
     3
274
     3
278
    44
284
     8
340
D1
371
    -1
372
    25
  0
DIMSTYLE
105
E7
330
A
100
AcDbSymbolTableRecord
100
AcDbDimStyleTableRecord
  2
14-Bopla 5 ø
 70
     0
 41
2.5
 42
0.0
 43
5.0
 44
1.0
 45
0.00000001
 46
6.999999999999999
 73
     0
 74
     0
 77
     1
 78
     8
 79
     2
140
5.0
143
0.03937
146
0.6999999880790711
147
0.6
171
     3
172
     1
176
     1
177
     1
178
     7
179
     6
271
     6
272
     3
274
     3
278
    44
284
     8
340
D1
371
    25
372
    25
  0
DIMSTYLE
105
E8
330
A
100
AcDbSymbolTableRecord
100
AcDbDimStyleTableRecord
  2
14-Bopla 5 ø$7
 70
     0
 41
2.5
 42
0.0
 43
5.0
 44
1.0
 45
0.00000001
 46
6.999999999999999
 73
     0
 74
     0
 77
     1
 78
     8
 79
     2
140
5.0
143
0.03937
146
0.6999999880790711
147
0.6
171
     3
172
     1
176
   256
177
     1
178
     7
179
     6
271
     6
272
     3
274
     3
278
    44
284
     8
340
D1
371
    -1
372
    25
  0
DIMSTYLE
105
E9
330
A
100
AcDbSymbolTableRecord
100
AcDbDimStyleTableRecord
  2
15-Bopla 5 x45°
 70
     0
 41
2.5
 42
0.0
 43
5.0
 44
1.0
 45
0.00000001
 46
6.999999999999999
 73
     0
 74
     0
 77
     1
 78
     8
 79
     2
140
5.0
143
0.03937
146
0.6999999880790711
147
0.6
171
     3
172
     1
176
     1
177
     1
178
     7
179
     6
271
     6
272
     3
274
     3
278
    44
284
     8
340
D1
371
    25
372
    25
  0
DIMSTYLE
105
EA
330
A
100
AcDbSymbolTableRecord
100
AcDbDimStyleTableRecord
  2
15-Bopla 5 x45°$7
 70
     0
 41
2.5
 42
0.0
 43
5.0
 44
1.0
 45
0.00000001
 46
6.999999999999999
 73
     0
 74
     0
 77
     1
 78
     8
 79
     2
140
5.0
143
0.03937
146
0.6999999880790711
147
0.6
171
     3
172
     1
176
   256
177
     1
178
     7
179
     6
271
     6
272
     3
274
     3
278
    44
284
     8
340
D1
371
    -1
372
    25
  0
DIMSTYLE
105
EB
330
A
100
AcDbSymbolTableRecord
100
AcDbDimStyleTableRecord
  2
16-Bopla 5 Einpressb.
 70
     0
 41
2.5
 42
0.0
 43
5.0
 44
1.0
 45
0.00000001
 46
6.999999999999999
 48
0.000000001
 71
     1
 73
     0
 74
     0
 77
     1
 78
     8
 79
     2
140
5.0
143
0.03937
146
0.6999999880790711
147
0.6
171
     3
172
     1
176
     1
177
     1
178
     7
179
     6
271
     6
272
     3
274
     3
278
    44
284
     8
340
D1
371
    25
372
    25
  0
DIMSTYLE
105
EC
330
A
100
AcDbSymbolTableRecord
100
AcDbDimStyleTableRecord
  2
16-Bopla 5 Einpressb.$7
 70
     0
 41
2.5
 42
0.0
 43
5.0
 44
1.0
 45
0.00000001
 46
6.999999999999999
 48
0.000000001
 71
     1
 73
     0
 74
     0
 77
     1
 78
     8
 79
     2
140
5.0
143
0.03937
146
0.6999999880790711
147
0.6
171
     3
172
     1
176
   256
177
     1
178
     7
179
     6
271
     6
272
     3
274
     3
278
    44
284
     8
340
D1
371
    -1
372
    25
  0
DIMSTYLE
105
ED
330
A
100
AcDbSymbolTableRecord
100
AcDbDimStyleTableRecord
  2
17-Bopla 7 grosse Pfeile
 70
     0
 41
10.0
 42
0.0
 43
5.0
 44
5.0
 45
0.00000001
 46
6.999999999999999
 73
     0
 74
     0
 77
     1
 78
     8
 79
     2
140
7.0
143
0.03937
146
0.5
147
0.6
171
     3
172
     1
176
     1
177
     1
178
    96
179
     6
271
     6
272
     3
274
     3
278
    44
284
     8
340
D2
371
    25
372
    25
  0
DIMSTYLE
105
EE
330
A
100
AcDbSymbolTableRecord
100
AcDbDimStyleTableRecord
  2
17-Bopla 7 grosse Pfeile$7
 70
     0
 41
2.5
 42
0.0
 43
5.0
 44
5.0
 45
0.00000001
 46
6.999999999999999
 73
     0
 74
     0
 77
     1
 78
     8
 79
     2
140
7.0
143
0.03937
146
0.5
147
0.6
171
     3
172
     1
176
   256
177
     1
178
    96
179
     6
271
     6
272
     3
274
     3
278
    44
284
     8
340
D2
371
    -1
372
    25
  0
DIMSTYLE
105
EF
102
{ACAD_REACTORS
330
1DB
330
2B2
330
388
330
492
330
568
330
63E
330
714
102
}
330
A
100
AcDbSymbolTableRecord
100
AcDbDimStyleTableRecord
  2
18-Bopla 3_5
 70
     0
 41
2.5
 42
0.0
 43
5.0
 44
1.0
 45
0.00000001
 46
6.999999999999999
 73
     0
 74
     0
 77
     1
 78
     8
 79
     2
140
3.5
143
0.03937
146
0.7142857313156128
147
0.2
171
     3
172
     1
176
     1
177
     1
178
     5
179
     6
271
     6
272
     3
274
     3
278
    44
284
     8
340
D0
371
    25
372
    25
  0
DIMSTYLE
105
F0
330
A
100
AcDbSymbolTableRecord
100
AcDbDimStyleTableRecord
  2
18-Bopla 3_5$7
 70
     0
 41
2.5
 42
0.0
 43
5.0
 44
1.0
 45
0.00000001
 46
6.999999999999999
 73
     0
 74
     0
 77
     1
 78
     8
 79
     2
140
3.5
143
0.03937
146
0.7142857313156128
147
0.2
171
     3
172
     1
176
   256
177
     1
178
     5
179
     6
271
     6
272
     3
274
     3
278
    44
284
     8
340
D0
371
    -1
372
    25
  0
DIMSTYLE
105
F1
330
A
100
AcDbSymbolTableRecord
100
AcDbDimStyleTableRecord
  2
19-Bopla 3_5 (____)
 70
     0
 41
2.5
 42
0.0
 43
5.0
 44
1.0
 45
0.00000001
 46
6.999999999999999
 73
     0
 74
     0
 77
     1
 78
     8
 79
     2
140
3.5
143
0.03937
146
0.7142857313156128
147
0.2
171
     3
172
     1
176
     1
177
     1
178
     5
179
     6
271
     3
272
     3
274
     3
278
    44
284
     8
340
D0
371
    25
372
    25
  0
DIMSTYLE
105
F2
330
A
100
AcDbSymbolTableRecord
100
AcDbDimStyleTableRecord
  2
19-Bopla 3_5 (____)$7
 70
     0
 41
2.5
 42
0.0
 43
5.0
 44
1.0
 45
0.00000001
 46
6.999999999999999
 73
     0
 74
     0
 77
     1
 78
     8
 79
     2
140
3.5
143
0.03937
146
0.7142857313156128
147
0.2
171
     3
172
     1
176
   256
177
     1
178
     5
179
     6
271
     3
272
     3
274
     3
278
    44
284
     8
340
D0
371
    -1
372
    25
  0
DIMSTYLE
105
F3
330
A
100
AcDbSymbolTableRecord
100
AcDbDimStyleTableRecord
  2
20-Bopla 3_5 M
 70
     0
 41
2.5
 42
0.0
 43
5.0
 44
1.0
 45
0.00000001
 46
6.999999999999999
 73
     0
 74
     0
 77
     1
 78
     8
 79
     2
140
3.5
143
0.03937
146
0.7142857313156128
147
0.2
171
     3
172
     1
176
     1
177
     1
178
     5
179
     6
271
     6
272
     3
274
     3
278
    44
284
     8
340
D0
371
    25
372
    25
  0
DIMSTYLE
105
F4
330
A
100
AcDbSymbolTableRecord
100
AcDbDimStyleTableRecord
  2
20-Bopla 3_5 M$7
 70
     0
 41
2.5
 42
0.0
 43
5.0
 44
1.0
 45
0.00000001
 46
6.999999999999999
 73
     0
 74
     0
 77
     1
 78
     8
 79
     2
140
3.5
143
0.03937
146
0.7142857313156128
147
0.2
171
     3
172
     1
176
   256
177
     1
178
     5
179
     6
271
     6
272
     3
274
     3
278
    44
284
     8
340
D0
371
    -1
372
    25
  0
DIMSTYLE
105
F5
330
A
100
AcDbSymbolTableRecord
100
AcDbDimStyleTableRecord
  2
21-Bopla ø
 70
     0
 41
2.5
 42
0.0
 43
5.0
 44
1.0
 45
0.00000001
 46
6.999999999999999
 73
     0
 74
     0
 77
     1
 78
     8
 79
     2
140
3.5
143
0.03937
146
0.7142857313156128
147
0.2
171
     3
172
     1
176
     1
177
     1
178
     5
179
     6
271
     6
272
     3
274
     3
278
    44
284
     8
340
D0
371
    25
372
    25
  0
DIMSTYLE
105
F6
330
A
100
AcDbSymbolTableRecord
100
AcDbDimStyleTableRecord
  2
21-Bopla ø$7
 70
     0
 41
2.5
 42
0.0
 43
5.0
 44
1.0
 45
0.00000001
 46
6.999999999999999
 73
     0
 74
     0
 77
     1
 78
     8
 79
     2
140
3.5
143
0.03937
146
0.7142857313156128
147
0.2
171
     3
172
     1
176
   256
177
     1
178
     5
179
     6
271
     6
272
     3
274
     3
278
    44
284
     8
340
D0
371
    -1
372
    25
  0
DIMSTYLE
105
F7
330
A
100
AcDbSymbolTableRecord
100
AcDbDimStyleTableRecord
  2
22-Bopla x45°
 70
     0
 41
2.5
 42
0.0
 43
5.0
 44
1.0
 45
0.00000001
 46
6.999999999999999
 73
     0
 74
     0
 77
     1
 78
     8
 79
     2
140
3.5
143
0.03937
146
0.7142857313156128
147
0.2
171
     3
172
     1
176
     1
177
     1
178
     5
179
     6
271
     6
272
     3
274
     3
278
    44
284
     8
340
D0
371
    25
372
    25
  0
DIMSTYLE
105
F8
330
A
100
AcDbSymbolTableRecord
100
AcDbDimStyleTableRecord
  2
22-Bopla x45°$7
 70
     0
 41
2.5
 42
0.0
 43
5.0
 44
1.0
 45
0.00000001
 46
6.999999999999999
 73
     0
 74
     0
 77
     1
 78
     8
 79
     2
140
3.5
143
0.03937
146
0.7142857313156128
147
0.2
171
     3
172
     1
176
   256
177
     1
178
     5
179
     6
271
     6
272
     3
274
     3
278
    44
284
     8
340
D0
371
    -1
372
    25
  0
DIMSTYLE
105
F9
330
A
100
AcDbSymbolTableRecord
100
AcDbDimStyleTableRecord
  2
23-Bopla Einpressb.
 70
     0
 41
2.5
 42
0.0
 43
5.0
 44
1.0
 45
0.00000001
 46
6.999999999999999
 48
0.000000001
 71
     1
 73
     0
 74
     0
 77
     1
 78
     8
 79
     2
140
3.5
143
0.03937
146
0.7142857313156128
147
0.2
171
     3
172
     1
176
     1
177
     1
178
     5
179
     6
271
     6
272
     3
274
     3
278
    44
284
     8
340
D0
371
    25
372
    25
  0
DIMSTYLE
105
FA
330
A
100
AcDbSymbolTableRecord
100
AcDbDimStyleTableRecord
  2
23-Bopla Einpressb.$7
 70
     0
 41
2.5
 42
0.0
 43
5.0
 44
1.0
 45
0.00000001
 46
6.999999999999999
 48
0.000000001
 71
     1
 73
     0
 74
     0
 77
     1
 78
     8
 79
     2
140
3.5
143
0.03937
146
0.7142857313156128
147
0.2
171
     3
172
     1
176
   256
177
     1
178
     5
179
     6
271
     6
272
     3
274
     3
278
    44
284
     8
340
D0
371
    -1
372
    25
  0
DIMSTYLE
105
FB
330
A
100
AcDbSymbolTableRecord
100
AcDbDimStyleTableRecord
  2
Standard - Methode 2a (DIN)
 70
     0
 41
2.5
 42
0.0
 43
5.999999999999999
 44
1.0
 45
0.00000001
 46
10.0
 77
     1
 78
     8
 79
     2
140
2.5
143
0.03937
146
1.399999976158142
147
0.2
170
     1
171
     3
172
     1
176
   256
177
   256
178
     5
179
     2
271
     2
272
     2
274
     3
278
    44
284
     8
286
     8
340
D4
371
    -1
372
    -1
  0
DIMSTYLE
105
FC
330
A
100
AcDbSymbolTableRecord
100
AcDbDimStyleTableRecord
  2
Standard - Methode 2a (DIN)$7
 70
     0
 41
2.5
 42
0.0
 43
5.999999999999999
 44
1.0
 45
0.00000001
 46
10.0
 77
     1
 78
     8
 79
     2
140
2.5
143
0.03937
146
1.399999976158142
147
0.2
170
     1
171
     3
172
     1
176
   256
177
   256
178
     5
179
     2
271
     2
272
     2
274
     3
278
    44
284
     8
286
     8
340
D4
371
    -1
372
    -1
  0
DIMSTYLE
105
FD
330
A
100
AcDbSymbolTableRecord
100
AcDbDimStyleTableRecord
  2
Standard (DIN)
 70
     0
 41
2.5
 42
0.0
 43
5.0
 44
1.0
 45
0.00000001
 46
6.999999999999999
 73
     0
 74
     0
 77
     1
 78
     8
 79
     2
140
2.5
143
0.03937
146
0.7200000286102295
147
0.2
171
     3
172
     1
176
   256
177
   256
178
     5
179
     6
271
     6
272
     2
274
     3
278
    44
284
     8
340
CF
371
    -1
372
    -1
  0
DIMSTYLE
105
FE
330
A
100
AcDbSymbolTableRecord
100
AcDbDimStyleTableRecord
  2
Standard (DIN)$7
 70
     0
 41
2.5
 42
0.0
 43
5.0
 44
1.0
 45
0.00000001
 46
6.999999999999999
 73
     0
 74
     0
 77
     1
 78
     8
 79
     2
140
2.5
143
0.03937
146
0.7200000286102295
147
0.2
171
     3
172
     1
176
   256
177
   256
178
     5
179
     6
271
     6
272
     2
274
     3
278
    44
284
     8
340
CF
371
    -1
372
    -1
  0
DIMSTYLE
105
FF
330
A
100
AcDbSymbolTableRecord
100
AcDbDimStyleTableRecord
  2
Alternativ (ISO)
 70
     0
 41
2.5
340
55
  0
DIMSTYLE
105
10B
330
A
100
AcDbSymbolTableRecord
100
AcDbDimStyleTableRecord
  2
Bezug (ISO)
 70
     0
 41
2.5
340
55
  0
DIMSTYLE
105
11A
330
A
100
AcDbSymbolTableRecord
100
AcDbDimStyleTableRecord
  2
Groß (ISO)
 70
     0
 41
5.0
340
55
  0
ENDTAB
  0
TABLE
  2
BLOCK_RECORD
  5
1
330
0
100
AcDbSymbolTable
 70
    13
  0
BLOCK_RECORD
  5
71
330
1
100
AcDbSymbolTableRecord
100
AcDbBlockTableRecord
  2
*Model_Space
340
74
  0
BLOCK_RECORD
  5
6D
330
1
100
AcDbSymbolTableRecord
100
AcDbBlockTableRecord
  2
*Paper_Space
340
70
  0
BLOCK_RECORD
  5
75
330
1
100
AcDbSymbolTableRecord
100
AcDbBlockTableRecord
  2
*Paper_Space0
340
78
  0
BLOCK_RECORD
  5
100
330
1
100
AcDbSymbolTableRecord
100
AcDbBlockTableRecord
  2
DatumFilled45
340
0
  0
BLOCK_RECORD
  5
10C
330
1
100
AcDbSymbolTableRecord
100
AcDbBlockTableRecord
  2
Filled-1
340
0
  0
BLOCK_RECORD
  5
11B
330
1
100
AcDbSymbolTableRecord
100
AcDbBlockTableRecord
  2
Freigabesymbol
340
0
  0
BLOCK_RECORD
  5
13C
330
1
100
AcDbSymbolTableRecord
100
AcDbBlockTableRecord
  2
Ränder Bopla-A3-Rahmen
340
0
102
{BLKREFS
331
14C
102
}
  0
BLOCK_RECORD
  5
14D
330
1
100
AcDbSymbolTableRecord
100
AcDbBlockTableRecord
  2
Schriftfelder Katalogzeichnung
340
0
102
{BLKREFS
331
1A6
102
}
  0
BLOCK_RECORD
  5
1DD
330
1
100
AcDbSymbolTableRecord
100
AcDbBlockTableRecord
  2
*D6
340
0
  0
BLOCK_RECORD
  5
2B3
330
1
100
AcDbSymbolTableRecord
100
AcDbBlockTableRecord
  2
*D7
340
0
  0
BLOCK_RECORD
  5
389
330
1
100
AcDbSymbolTableRecord
100
AcDbBlockTableRecord
  2
*D8
340
0
  0
BLOCK_RECORD
  5
493
330
1
100
AcDbSymbolTableRecord
100
AcDbBlockTableRecord
  2
*D9
340
0
  0
BLOCK_RECORD
  5
569
330
1
100
AcDbSymbolTableRecord
100
AcDbBlockTableRecord
  2
*D10
340
0
  0
BLOCK_RECORD
  5
63F
330
1
100
AcDbSymbolTableRecord
100
AcDbBlockTableRecord
  2
*D11
340
0
  0
BLOCK_RECORD
  5
715
330
1
100
AcDbSymbolTableRecord
100
AcDbBlockTableRecord
  2
*D12
340
0
  0
ENDTAB
  0
ENDSEC
  0
SECTION
  2
BLOCKS
  0
BLOCK
  5
72
330
71
100
AcDbEntity
  8
0
100
AcDbBlockBegin
  2
*Model_Space
 70
     0
 10
0.0
 20
0.0
 30
0.0
  3
*Model_Space
  1

  0
ENDBLK
  5
73
330
71
100
AcDbEntity
  8
0
100
AcDbBlockEnd
  0
BLOCK
  5
6E
330
6D
100
AcDbEntity
 67
     1
  8
0
100
AcDbBlockBegin
  2
*Paper_Space
 70
     0
 10
0.0
 20
0.0
 30
0.0
  3
*Paper_Space
  1

  0
ENDBLK
  5
6F
330
6D
100
AcDbEntity
 67
     1
  8
0
100
AcDbBlockEnd
  0
BLOCK
  5
76
330
75
100
AcDbEntity
 67
     1
  8
0
100
AcDbBlockBegin
  2
*Paper_Space0
 70
     0
 10
0.0
 20
0.0
 30
0.0
  3
*Paper_Space0
  1

  0
ENDBLK
  5
77
330
75
100
AcDbEntity
 67
     1
  8
0
100
AcDbBlockEnd
  0
BLOCK
  5
101
330
100
100
AcDbEntity
  8
0
100
AcDbBlockBegin
  2
DatumFilled45
 70
     0
 10
0.0
 20
0.0
 30
0.0
  3
DatumFilled45
  1

  0
POLYLINE
  5
103
330
100
100
AcDbEntity
  8
0
 62
     0
100
AcDb2dPolyline
 66
     1
 10
0.0
 20
0.0
 30
0.0
 70
   128
  0
VERTEX
  5
104
330
103
100
AcDbEntity
  8
0
 62
     0
100
AcDbVertex
100
AcDb2dVertex
 10
0.0
 20
1.0
 30
0.0
  0
VERTEX
  5
105
330
103
100
AcDbEntity
  8
0
 62
     0
100
AcDbVertex
100
AcDb2dVertex
 10
0.0
 20
-1.0
 30
0.0
  0
VERTEX
  5
107
330
103
100
AcDbEntity
  8
0
 62
     0
100
AcDbVertex
100
AcDb2dVertex
 10
-1.0
 20
0.0
 30
0.0
  0
VERTEX
  5
108
330
103
100
AcDbEntity
  8
0
 62
     0
100
AcDbVertex
100
AcDb2dVertex
 10
0.0
 20
1.0
 30
0.0
  0
SEQEND
  5
106
330
103
100
AcDbEntity
  8
0
 62
     0
  0
SOLID
  5
10A
330
100
100
AcDbEntity
  8
0
 62
     0
100
AcDbTrace
 10
0.0
 20
1.0
 30
0.0
 11
0.0
 21
-1.0
 31
0.0
 12
-1.0
 22
0.0
 32
0.0
 13
0.0
 23
1.0
 33
0.0
  0
ENDBLK
  5
102
330
100
100
AcDbEntity
  8
0
100
AcDbBlockEnd
  0
BLOCK
  5
10D
330
10C
100
AcDbEntity
  8
0
100
AcDbBlockBegin
  2
Filled-1
 70
     0
 10
0.0
 20
0.0
 30
0.0
  3
Filled-1
  1

  0
LINE
  5
10F
330
10C
100
AcDbEntity
  8
0
 62
     0
100
AcDbLine
 10
-1.0
 20
0.0
 30
0.0
 11
0.0
 21
0.0
 31
0.0
  0
POLYLINE
  5
110
330
10C
100
AcDbEntity
  8
0
 62
     0
100
AcDb2dPolyline
 66
     1
 10
0.0
 20
0.0
 30
0.0
 70
   128
  0
VERTEX
  5
111
330
110
100
AcDbEntity
  8
0
 62
     0
100
AcDbVertex
100
AcDb2dVertex
 10
-1.0
 20
-0.1
 30
0.0
  0
VERTEX
  5
112
330
110
100
AcDbEntity
  8
0
 62
     0
100
AcDbVertex
100
AcDb2dVertex
 10
0.0
 20
0.0
 30
0.0
  0
VERTEX
  5
114
330
110
100
AcDbEntity
  8
0
 62
     0
100
AcDbVertex
100
AcDb2dVertex
 10
-1.0
 20
0.1
 30
0.0
  0
VERTEX
  5
115
330
110
100
AcDbEntity
  8
0
 62
     0
100
AcDbVertex
100
AcDb2dVertex
 10
-1.0
 20
-0.1
 30
0.0
  0
SEQEND
  5
113
330
110
100
AcDbEntity
  8
0
 62
     0
  0
SOLID
  5
116
330
10C
100
AcDbEntity
  8
0
 62
     0
100
AcDbTrace
 10
-1.0
 20
-0.1
 30
0.0
 11
0.0
 21
0.0
 31
0.0
 12
-1.0
 22
0.1
 32
0.0
 13
-1.0
 23
-0.1
 33
0.0
  0
LINE
  5
117
330
10C
100
AcDbEntity
  8
0
 62
     0
100
AcDbLine
 10
-1.0
 20
-0.1
 30
0.0
 11
0.0
 21
0.0
 31
0.0
  0
LINE
  5
118
330
10C
100
AcDbEntity
  8
0
 62
     0
100
AcDbLine
 10
0.0
 20
0.0
 30
0.0
 11
-1.0
 21
0.1
 31
0.0
  0
LINE
  5
119
330
10C
100
AcDbEntity
  8
0
 62
     0
100
AcDbLine
 10
-1.0
 20
0.1
 30
0.0
 11
-1.0
 21
-0.1
 31
0.0
  0
ENDBLK
  5
10E
330
10C
100
AcDbEntity
  8
0
100
AcDbBlockEnd
  0
BLOCK
  5
11C
330
11B
100
AcDbEntity
  8
0
100
AcDbBlockBegin
  2
Freigabesymbol
 70
     2
 10
0.0
 20
0.0
 30
0.0
  3
Freigabesymbol
  1

  0
LINE
  5
11E
330
11B
100
AcDbEntity
  8
0
  6
Continuous
 62
     3
370
    50
100
AcDbLine
 10
-3.999999999999914
 20
13.99999999999998
 30
0.0
 11
-97.99999999999968
 21
13.99999999999998
 31
0.0
  0
LINE
  5
11F
330
11B
100
AcDbEntity
  8
0
  6
Continuous
 62
     3
370
    50
100
AcDbLine
 10
-4.500000000000099
 20
58.0
 30
0.0
 11
-97.49999999999964
 21
58.0
 31
0.0
  0
LINE
  5
120
330
11B
100
AcDbEntity
  8
0
  6
Continuous
 62
     3
370
    50
100
AcDbLine
 10
-99.99999999999964
 20
4.499999999999992
 30
0.0
 11
-99.99999999999964
 21
55.5
 31
0.0
  0
LINE
  5
121
330
11B
100
AcDbEntity
  8
0
  6
Continuous
 62
     3
370
    50
100
AcDbLine
 10
-1.999999999999957
 20
4.499999999999992
 30
0.0
 11
-1.999999999999957
 21
55.5
 31
0.0
  0
ARC
  5
122
330
11B
100
AcDbEntity
  8
0
  6
Continuous
 62
     3
370
    50
100
AcDbCircle
 10
-97.49999999999964
 20
4.499999999999992
 30
0.0
 40
2.5
100
AcDbArc
 50
180.0
 51
270.0
  0
ARC
  5
123
330
11B
100
AcDbEntity
  8
0
  6
Continuous
 62
     3
370
    50
100
AcDbCircle
 10
-4.499999999999957
 20
4.499999999999992
 30
0.0
 40
2.5
100
AcDbArc
 50
270.0
 51
0.0
  0
LINE
  5
124
330
11B
100
AcDbEntity
  8
0
  6
Continuous
 62
     3
370
    50
100
AcDbLine
 10
-4.499999999999957
 20
1.999999999999992
 30
0.0
 11
-97.49999999999964
 21
1.999999999999992
 31
0.0
  0
ARC
  5
125
330
11B
100
AcDbEntity
  8
0
  6
Continuous
 62
     3
370
    50
100
AcDbCircle
 10
-97.49999999999964
 20
55.5
 30
0.0
 40
2.5
100
AcDbArc
 50
90.0
 51
180.0
  0
ARC
  5
126
330
11B
100
AcDbEntity
  8
0
  6
Continuous
 62
     3
370
    50
100
AcDbCircle
 10
-4.499999999999957
 20
55.5
 30
0.0
 40
2.5
100
AcDbArc
 50
0.0
 51
90.0
  0
LINE
  5
127
330
11B
100
AcDbEntity
  8
0
  6
Continuous
 62
     3
370
    50
100
AcDbLine
 10
-3.999999999999985
 20
46.00000000000001
 30
0.0
 11
-97.99999999999961
 21
46.00000000000001
 31
0.0
  0
TEXT
  5
129
330
11B
100
AcDbEntity
  8
0
 62
     3
100
AcDbText
 10
-96.99999999999967
 20
8.999999999999985
 30
0.0
 40
3.499999940395355
  1
Entwicklungsstand vom
 41
1.25
  7
Textstil159
100
AcDbText
  0
MTEXT
  5
12B
330
11B
100
AcDbEntity
  8
0
 62
     5
100
AcDbMText
 10
-96.99999999999967
 20
40.91573902467889
 30
0.0
 40
2.5
 41
0.0
 71
     7
 72
     1
  1
Freigabe am /\fISOCPEUR|b0|i1;\H2.5000; approved on\fISOCPEUR|b0|i0;\H2.5000; ____________
 73
     2
 44
1.0
1001
ACAD
1000
MTEXTBEGIN
1070
    73
1070
     2
1070
    44
1040
1.0
1070
    74
1070
     0
1000
MTEXTEND
  0
MTEXT
  5
12D
330
11B
100
AcDbEntity
  8
0
 62
     5
100
AcDbMText
 10
-96.99999999999974
 20
35.91573902467889
 30
0.0
 40
2.5
 41
0.0
 71
     7
 72
     1
  1
durch / \fISOCPEUR|b0|i1;\H2.5000;by\fISOCPEUR|b0|i0;\H2.5000; _________________________
 73
     2
 44
1.0
1001
ACAD
1000
MTEXTBEGIN
1070
    73
1070
     2
1070
    44
1040
1.0
1070
    74
1070
     0
1000
MTEXTEND
  0
TEXT
  5
12E
330
11B
100
AcDbEntity
  8
0
 62
     5
100
AcDbText
 10
-96.99999999999974
 20
31.00000000000001
 30
0.0
 40
2.5
  1
Die Gültigkeit dieses Dokuments erlischt mit der
 41
1.099999904632568
100
AcDbText
  0
TEXT
  5
12F
330
11B
100
AcDbEntity
  8
0
 62
     5
100
AcDbText
 10
-96.99999999999974
 20
26.00000000000001
 30
0.0
 40
2.5
  1
Freigabe. Gültig sind die daraus erstellten Unterlagen.
 41
1.099999904632568
100
AcDbText
  0
TEXT
  5
131
330
11B
100
AcDbEntity
  8
0
 62
     5
100
AcDbText
 10
-96.99999999999974
 20
21.00000000000001
 30
0.0
 40
2.5
  1
The validy of this document ends after approval.
 41
1.099999904632568
  7
Textstil246
100
AcDbText
  0
TEXT
  5
134
330
11B
100
AcDbEntity
  8
0
 62
     3
100
AcDbText
 10
-92.89500081379868
 20
52.25000002980234
 30
0.0
 40
3.499999940395355
  1
Zeichnung nicht freigegeben
 41
1.400000095367431
  7
Textstil117
 72
     1
 11
-50.9999999999998
 21
54.00000000000002
 31
0.0
100
AcDbText
 73
     2
  0
ATTDEF
  5
135
102
{ACAD_XDICTIONARY
360
828
102
}
330
11B
100
AcDbEntity
  8
0
 62
     3
100
AcDbText
 10
-34.43749997869606
 20
6.999999999999992
 30
0.0
 40
3.499999940395355
  1
01.08.2013
 41
1.25
  7
Textstil159
100
AcDbAttributeDefinition
  3
30-Entwicklungsstand
  2
30-Entwicklungsstand_001
 70
     0
  0
TEXT
  5
138
330
11B
100
AcDbEntity
  8
0
 62
     3
100
AcDbText
 10
-85.36310672809975
 20
47.25000002980234
 30
0.0
 40
3.499999940395355
  1
Drawing not approved
 41
1.400000095367431
  7
Textstil251
 72
     1
 11
-50.9999999999998
 21
49.00000000000002
 31
0.0
100
AcDbText
 73
     2
  0
TEXT
  5
139
330
11B
100
AcDbEntity
  8
0
 62
     5
100
AcDbText
 10
-96.99999999999967
 20
16.00000000000001
 30
0.0
 40
2.5
  1
The documentation prepared using it is valid.
 41
1.099999904632568
  7
Textstil246
100
AcDbText
  0
TEXT
  5
13B
330
11B
100
AcDbEntity
  8
0
 62
     3
100
AcDbText
 10
-96.99999999999967
 20
3.999999999999985
 30
0.0
 40
3.000000119209289
  1
Development status as of
 41
1.200000047683715
  7
Textstil244
100
AcDbText
  0
ENDBLK
  5
11D
330
11B
100
AcDbEntity
  8
0
100
AcDbBlockEnd
  0
BLOCK
  5
13D
330
13C
100
AcDbEntity
  8
0
100
AcDbBlockBegin
  2
Ränder Bopla-A3-Rahmen
 70
     0
 10
0.0
 20
0.0
 30
0.0
  3
Ränder Bopla-A3-Rahmen
  1

  0
LINE
  5
13F
330
13C
100
AcDbEntity
  8
0
  6
Continuous
 62
     3
370
    70
100
AcDbLine
 10
415.0
 20
292.0
 30
0.0
 11
415.0
 21
5.0
 31
0.0
  0
LINE
  5
140
330
13C
100
AcDbEntity
  8
0
  6
Continuous
 62
     3
370
    70
100
AcDbLine
 10
20.0
 20
292.0
 30
0.0
 11
415.0
 21
292.0
 31
0.0
  0
LINE
  5
141
330
13C
100
AcDbEntity
  8
0
  6
Continuous
 62
     3
370
    70
100
AcDbLine
 10
20.0
 20
4.999999999999999
 30
0.0
 11
20.0
 21
292.0
 31
0.0
  0
LINE
  5
142
330
13C
100
AcDbEntity
  8
0
  6
Continuous
 62
     1
370
    18
100
AcDbLine
 10
419.0
 20
296.0
 30
0.0
 11
419.0
 21
1.000000000000014
 31
0.0
  0
LINE
  5
143
330
13C
100
AcDbEntity
  8
0
  6
Continuous
 62
     1
370
    18
100
AcDbLine
 10
1.0
 20
296.0
 30
0.0
 11
419.0
 21
296.0
 31
0.0
  0
LINE
  5
144
330
13C
100
AcDbEntity
  8
0
  6
Continuous
 62
     1
370
    18
100
AcDbLine
 10
1.0
 20
0.9999999999999964
 30
0.0
 11
1.0
 21
296.0
 31
0.0
  0
LINE
  5
145
330
13C
100
AcDbEntity
  8
0
  6
Continuous
 62
     1
370
    18
100
AcDbLine
 10
419.0
 20
0.9999999999999998
 30
0.0
 11
1.000000000000014
 21
0.9999999999999964
 31
0.0
  0
LINE
  5
146
330
13C
100
AcDbEntity
  8
0
  6
Continuous
 62
     1
370
    18
100
AcDbLine
 10
125.0
 20
4.999999999999999
 30
0.0
 11
125.0
 21
0.9999999999999998
 31
0.0
  0
LINE
  5
147
330
13C
100
AcDbEntity
  8
0
  6
Continuous
 62
     1
370
    18
100
AcDbLine
 10
229.9999999999999
 20
296.0
 30
0.0
 11
229.9999999999999
 21
292.0
 31
0.0
  0
LINE
  5
148
330
13C
100
AcDbEntity
  8
0
  6
Continuous
 62
     1
370
    18
100
AcDbLine
 10
124.9999999999999
 20
296.0
 30
0.0
 11
124.9999999999999
 21
292.0
 31
0.0
  0
LINE
  5
149
330
13C
100
AcDbEntity
  8
0
  6
Continuous
 62
     3
370
    70
100
AcDbLine
 10
415.0
 20
4.999999999999999
 30
0.0
 11
20.0
 21
4.999999999999999
 31
0.0
  0
LINE
  5
14A
330
13C
100
AcDbEntity
  8
0
  6
Continuous
 62
     1
370
    18
100
AcDbLine
 10
230.0
 20
4.999999999999999
 30
0.0
 11
230.0
 21
0.9999999999999998
 31
0.0
  0
MTEXT
  5
14B
330
13C
100
AcDbEntity
  8
Rahmen (ISO)
 62
     1
100
AcDbMText
 10
18.99999999998612
 20
55.0
 30
0.0
 40
2.029999941587448
 41
168.976967005107
 71
     7
 72
     1
  1
\fISOCPEUR|b0|i0;\W1.20;\H2.0300;"Schutzvermerk nach DIN ISO 16016 beachten" \fISOCPEUR|b0|i1;\W1.20;\H2.0300;"Please pay attention to copyright note DIN ISO 16016"
  7
Notiztext (DIN)
 11
-0.0000000000000002
 21
1.0
 31
0.0
 73
     1
 44
1.0
1001
ACAD
1000
MTEXTBEGIN
1070
    73
1070
     1
1070
    44
1040
1.0
1070
    74
1070
     0
1000
MTEXTEND
  0
ENDBLK
  5
13E
330
13C
100
AcDbEntity
  8
0
100
AcDbBlockEnd
  0
BLOCK
  5
14E
330
14D
100
AcDbEntity
  8
0
100
AcDbBlockBegin
  2
Schriftfelder Katalogzeichnung
 70
     2
 10
0.0
 20
0.0
 30
0.0
  3
Schriftfelder Katalogzeichnung
  1

  0
HATCH
  5
153
330
14D
100
AcDbEntity
  8
Schraffur (ISO)
 62
     1
100
AcDbHatch
 10
0.0
 20
0.0
 30
0.0
210
0.0
220
0.0
230
1.0
  2
ANSI31
 70
     0
 71
     0
 91
        1
 92
        1
 93
        3
 72
     1
 10
395.7841604702593
 20
37.30672884538172
 11
391.6341604702594
 21
37.30672884538172
 72
     1
 10
391.6341604702593
 20
37.30672884538172
 11
391.6341604702593
 21
33.15672884538172
 72
     2
 10
391.6341604702593
 20
37.30672884538172
 40
4.15
 50
90.0
 51
360.0
 73
     0
 97
        0
 75
     0
 76
     1
 52
0.0
 41
5.08
 77
     0
 78
     1
 53
45.0
 43
0.0
 44
0.0
 45
-0.4490128060534576
 46
0.4490128060534577
 79
     0
 98
        1
 10
0.0
 20
0.0
  0
HATCH
  5
159
330
14D
100
AcDbEntity
  8
Schraffur (ISO)
 62
     7
100
AcDbHatch
 10
0.0
 20
0.0
 30
0.0
210
0.0
220
0.0
230
1.0
  2
SOLID
 70
     1
 71
     0
 91
        1
 92
        1
 93
        5
 72
     1
 10
392.4841604702593
 20
33.15672884538172
 11
404.4841604702593
 21
33.15672884538172
 72
     1
 10
404.4841604702593
 20
33.15672884538172
 11
404.4841604702593
 21
40.95672884538171
 72
     1
 10
404.4841604702593
 20
40.95672884538171
 11
399.1841604702593
 21
34.05672884538172
 72
     1
 10
399.1841604702593
 20
34.05672884538172
 11
399.1841604702593
 21
40.95672884538171
 72
     1
 10
399.1841604702593
 20
40.95672884538171
 11
392.4841604702592
 21
33.15672884538172
 97
        0
 75
     0
 76
     1
 98
        1
 10
0.0
 20
0.0
  0
CIRCLE
  5
15A
330
14D
100
AcDbEntity
  8
0
  6
Continuous
 62
     5
100
AcDbCircle
 10
402.9841604702583
 20
104.3067288453815
 30
0.0
 40
1.75
  0
CIRCLE
  5
15B
330
14D
100
AcDbEntity
  8
0
  6
Continuous
 62
     5
100
AcDbCircle
 10
402.9841604702583
 20
104.3067288453815
 30
0.0
 40
3.5
  0
LINE
  5
15C
330
14D
100
AcDbEntity
  8
0
  6
Continuous
 62
     5
100
AcDbLine
 10
390.9841604702591
 20
102.5567288453815
 30
0.0
 11
390.9841604702583
 21
106.0567288453815
 31
0.0
  0
LINE
  5
15D
330
14D
100
AcDbEntity
  8
0
  6
Continuous
 62
     5
100
AcDbLine
 10
397.9841604702583
 20
107.806728845382
 30
0.0
 11
390.9841604702583
 21
106.0567288453815
 31
0.0
  0
LINE
  5
15E
330
14D
100
AcDbEntity
  8
0
  6
Continuous
 62
     5
100
AcDbLine
 10
397.9841604702593
 20
100.8067288453819
 30
0.0
 11
397.9841604702583
 21
107.806728845382
 31
0.0
  0
LINE
  5
15F
330
14D
100
AcDbEntity
  8
0
  6
Continuous
 62
     5
100
AcDbLine
 10
397.9841604702593
 20
100.8067288453819
 30
0.0
 11
390.9841604702591
 21
102.5567288453815
 31
0.0
  0
LINE
  5
160
330
14D
100
AcDbEntity
  8
0
  6
ACAD_ISO04W100
 62
     1
100
AcDbLine
 10
407.4841604702583
 20
104.3067288453815
 30
0.0
 11
389.9841604702589
 21
104.3067288453815
 31
0.0
  0
LINE
  5
161
330
14D
100
AcDbEntity
  8
0
  6
ACAD_ISO04W100
 62
     1
100
AcDbLine
 10
402.9841604702583
 20
99.80672884538172
 30
0.0
 11
402.9841604702583
 21
108.8067288453812
 31
0.0
  0
ARC
  5
162
330
14D
100
AcDbEntity
  8
Verdeckt (ISO)
  6
Continuous
 62
     5
370
    35
100
AcDbCircle
 10
309.9841608643611
 20
108.3067288453817
 30
0.0
 40
2.5
100
AcDbArc
 50
90.0
 51
180.0
  0
ARC
  5
163
330
14D
100
AcDbEntity
  8
Verdeckt (ISO)
  6
Continuous
 62
     5
370
    35
100
AcDbCircle
 10
309.9841608643611
 20
97.30672884538172
 30
0.0
 40
2.5
100
AcDbArc
 50
90.0
 51
180.0
  0
ARC
  5
164
330
14D
100
AcDbEntity
  8
Verdeckt (ISO)
  6
Continuous
 62
     5
370
    35
100
AcDbCircle
 10
309.9841608643612
 20
82.30672884538169
 30
0.0
 40
2.5
100
AcDbArc
 50
90.0
 51
180.0
  0
ARC
  5
165
330
14D
100
AcDbEntity
  8
Verdeckt (ISO)
  6
Continuous
 62
     5
370
    35
100
AcDbCircle
 10
309.9841608643612
 20
51.80672884538171
 30
0.0
 40
2.5
100
AcDbArc
 50
90.0
 51
180.0
  0
LINE
  5
166
330
14D
100
AcDbEntity
  8
Verdeckt (ISO)
  6
Continuous
 62
     5
370
    35
100
AcDbLine
 10
407.4841604702593
 20
84.8067288453817
 30
0.0
 11
309.9841608643612
 21
84.80672884538167
 31
0.0
  0
LINE
  5
167
330
14D
100
AcDbEntity
  8
Verdeckt (ISO)
  6
Continuous
 62
     5
370
    35
100
AcDbLine
 10
407.4841604702593
 20
54.30672884538171
 30
0.0
 11
309.9841608643612
 21
54.30672884538171
 31
0.0
  0
LINE
  5
168
330
14D
100
AcDbEntity
  8
Verdeckt (ISO)
  6
Continuous
 62
     5
370
    35
100
AcDbLine
 10
407.4841604702593
 20
20.80672884538171
 30
0.0
 11
307.4841608643612
 21
20.80672884538171
 31
0.0
  0
LINE
  5
169
330
14D
100
AcDbEntity
  8
Verdeckt (ISO)
  6
Continuous
 62
     5
370
    35
100
AcDbLine
 10
407.4841604702583
 20
110.8067288453817
 30
0.0
 11
309.9841608643611
 21
110.8067288453817
 31
0.0
  0
LINE
  5
16A
330
14D
100
AcDbEntity
  8
Verdeckt (ISO)
  6
Continuous
 62
     5
370
    35
100
AcDbLine
 10
407.4841604702583
 20
99.80672884538172
 30
0.0
 11
309.9841608643611
 21
99.80672884538172
 31
0.0
  0
LINE
  5
16B
330
14D
100
AcDbEntity
  8
0
  6
Continuous
 62
     1
370
    25
100
AcDbLine
 10
307.4841608643612
 20
27.80672884538172
 30
0.0
 11
344.4841608643616
 21
27.80672884538172
 31
0.0
  0
LINE
  5
16C
330
14D
100
AcDbEntity
  8
Verdeckt (ISO)
  6
Continuous
 62
     5
370
    35
100
AcDbLine
 10
307.4841608643611
 20
108.3067288453817
 30
0.0
 11
307.4841608643612
 21
11.30672884538171
 31
0.0
  0
LINE
  5
16D
330
14D
100
AcDbEntity
  8
0
  6
Continuous
 62
     1
370
    25
100
AcDbLine
 10
322.4841608643612
 20
54.30672884538171
 30
0.0
 11
322.4841608643612
 21
20.80672884538172
 31
0.0
  0
LINE
  5
16E
330
14D
100
AcDbEntity
  8
Verdeckt (ISO)
  6
Continuous
 62
     5
100
AcDbLine
 10
344.4841608643616
 20
54.30672884538171
 30
0.0
 11
344.4841608643616
 21
20.80672884538172
 31
0.0
  0
LINE
  5
16F
330
14D
100
AcDbEntity
  8
Titel (ISO)
370
    18
100
AcDbLine
 10
410.4841604702592
 20
7.306728845381712
 30
0.0
 11
411.4841604702593
 21
7.306728845381712
 31
0.0
  0
LINE
  5
170
330
14D
100
AcDbEntity
  8
Titel (ISO)
370
    18
100
AcDbLine
 10
411.4841604702593
 20
7.306728845381712
 30
0.0
 11
411.4841604702593
 21
8.306728845381712
 31
0.0
  0
LINE
  5
171
330
14D
100
AcDbEntity
  8
0
  6
Continuous
 62
     7
100
AcDbLine
 10
399.1841604702593
 20
40.95672884538171
 30
0.0
 11
392.4841604702593
 21
33.15672884538172
 31
0.0
  0
LINE
  5
172
330
14D
100
AcDbEntity
  8
0
  6
Continuous
 62
     7
100
AcDbLine
 10
392.4841604702593
 20
33.15672884538172
 30
0.0
 11
404.4841604702593
 21
33.15672884538172
 31
0.0
  0
LINE
  5
173
330
14D
100
AcDbEntity
  8
0
  6
Continuous
 62
     7
100
AcDbLine
 10
404.4841604702593
 20
33.15672884538172
 30
0.0
 11
404.4841604702593
 21
40.95672884538171
 31
0.0
  0
LINE
  5
174
330
14D
100
AcDbEntity
  8
0
  6
Continuous
 62
     7
100
AcDbLine
 10
404.4841604702593
 20
40.95672884538171
 30
0.0
 11
399.1841604702593
 21
34.05672884538172
 31
0.0
  0
LINE
  5
175
330
14D
100
AcDbEntity
  8
0
  6
Continuous
 62
     7
100
AcDbLine
 10
399.1841604702593
 20
34.05672884538172
 30
0.0
 11
399.1841604702593
 21
40.95672884538171
 31
0.0
  0
TEXT
  5
177
330
14D
100
AcDbEntity
  8
Sichtbar schmal (ISO)
 62
     1
100
AcDbText
 10
309.9841608643612
 20
105.8067288453817
 30
0.0
 40
2.5
  1
Maßstab/
 41
1.200000047683715
  7
Textstil68
100
AcDbText
  0
MTEXT
  5
178
330
14D
100
AcDbEntity
  8
0
 62
     7
100
AcDbMText
 10
309.9841608643612
 20
77.64006219858825
 30
0.0
 40
3.499999940395355
 41
0.0
 71
     7
 72
     1
  1
\fISOCPEUR|b0|i0;\W1.30;\H3.5000;Artikel / \fISOCPEUR|b0|i1;\W1.30;\H3.5000;Article:
 73
     2
 44
1.0
1001
ACAD
1000
MTEXTBEGIN
1070
    73
1070
     2
1070
    44
1040
1.0
1070
    74
1070
     0
1000
MTEXTEND
  0
TEXT
  5
17A
330
14D
100
AcDbEntity
  8
Sichtbar schmal (ISO)
 62
     1
100
AcDbText
 10
308.4841608643612
 20
24.80672884538173
 30
0.0
 40
2.000000029802322
  1
Ä.Nr/
 41
1.400000095367431
  7
Textstil144
100
AcDbText
  0
TEXT
  5
17B
330
14D
100
AcDbEntity
  8
Sichtbar schmal (ISO)
 62
     1
100
AcDbText
 10
326.9841608643612
 20
24.80672884538173
 30
0.0
 40
2.000000029802322
  1
Datum/
 41
1.400000095367431
  7
Textstil144
100
AcDbText
  0
TEXT
  5
17D
330
14D
100
AcDbEntity
  8
0
 62
     5
100
AcDbText
 10
308.9841608643611
 20
16.80672884538171
 30
0.0
 40
2.5
  1
DISK:
 41
1.400000095367431
  7
Textstil142
100
AcDbText
  0
MTEXT
  5
17E
330
14D
100
AcDbEntity
  8
0
 62
     5
100
AcDbMText
 10
308.9841608643611
 20
11.72339551204838
 30
0.0
 40
2.5
 41
0.0
 71
     7
 72
     1
  1
\fISOCPEUR|b0|i0;\W1.20;\H2.5000;Datum/\fISOCPEUR|b0|i1;\W1.20;\H2.5000;Date:
 73
     2
 44
1.0
1001
ACAD
1000
MTEXTBEGIN
1070
    73
1070
     2
1070
    44
1040
1.0
1070
    74
1070
     0
1000
MTEXTEND
  0
MTEXT
  5
17F
330
14D
100
AcDbEntity
  8
Titel (ISO)
 62
     5
100
AcDbMText
 10
404.4841604702591
 20
23.80672884538171
 30
0.0
 40
1.599999964237213
 41
34.88244139839253
 71
     9
 72
     5
  1
\fArial|b0|i0;\W1.15;\H1.6000;A Phoenix Mecano Company
  7
Notiztext (DIN)
 73
     1
 44
1.0
1001
ACAD
1000
MTEXTBEGIN
1070
    73
1070
     1
1070
    44
1040
1.0
1070
    74
1070
     0
1000
MTEXTEND
  0
MTEXT
  5
180
330
14D
100
AcDbEntity
  8
Titel (ISO)
 62
     7
100
AcDbMText
 10
404.4841604702593
 20
27.95672884538171
 30
0.0
 40
3.700000047683715
 41
19.88467931747436
 71
     9
 72
     5
  1
\fArial|b1|i0;\H3.7000;BOPLA
  7
Notiztext (DIN)
 73
     1
 44
1.0
1001
ACAD
1000
MTEXTBEGIN
1070
    73
1070
     1
1070
    44
1040
1.0
1070
    74
1070
     0
1000
MTEXTEND
  0
TEXT
  5
182
330
14D
100
AcDbEntity
  8
Sichtbar schmal (ISO)
 62
     1
100
AcDbText
 10
308.4841608643612
 20
22.05672884538172
 30
0.0
 40
2.000000029802322
  1
Alt.No:
 41
1.400000095367431
  7
Textstil249
100
AcDbText
  0
TEXT
  5
183
330
14D
100
AcDbEntity
  8
Sichtbar schmal (ISO)
 62
     1
100
AcDbText
 10
326.9841608643612
 20
22.05672884538172
 30
0.0
 40
2.000000029802322
  1
Date:
 41
1.400000095367431
  7
Textstil249
100
AcDbText
  0
TEXT
  5
185
330
14D
100
AcDbEntity
  8
Sichtbar schmal (ISO)
 62
     1
100
AcDbText
 10
309.9841608643612
 20
101.8067288453817
 30
0.0
 40
2.5
  1
Scale:
 41
1.200000047683715
  7
Textstil248
100
AcDbText
  0
MTEXT
  5
186
330
14D
100
AcDbEntity
  8
Sichtbar schmal (ISO)
 62
     1
100
AcDbMText
 10
309.9841608643612
 20
94.7056157246669
 30
0.0
 40
3.000000119209289
 41
0.0
 71
     7
 72
     1
  1
\fISOCPEUR|b0|i0;\W1.20;\H3.0000;Zeichnungs-Nr. / \fISOCPEUR|b0|i1;\W1.20;\H3.0000;Drawing-No.:
 73
     2
 44
1.0
1001
ACAD
1000
MTEXTBEGIN
1070
    73
1070
     2
1070
    44
1040
1.0
1070
    74
1070
     0
1000
MTEXTEND
  0
ATTDEF
  5
187
102
{ACAD_XDICTIONARY
360
82D
102
}
330
14D
100
AcDbEntity
  8
Sichtbar schmal (ISO)
 62
     1
100
AcDbText
 10
324.4841608643612
 20
39.05672884538171
 30
0.0
 40
2.000000029802322
  1

 41
1.400000095367431
  7
Textstil144
 11
324.4841608643612
 21
41.05672887518403
 31
0.0
100
AcDbAttributeDefinition
  3
14-Datum -5-
  2
14-Datum_-5-
 70
     0
 74
     3
  0
ATTDEF
  5
188
102
{ACAD_XDICTIONARY
360
830
102
}
330
14D
100
AcDbEntity
  8
Sichtbar schmal (ISO)
 62
     1
100
AcDbText
 10
324.4841608643612
 20
31.55672884538172
 30
0.0
 40
2.000000029802322
  1

 41
1.400000095367431
  7
Textstil144
 11
324.4841608643612
 21
33.55672887518404
 31
0.0
100
AcDbAttributeDefinition
  3
11-Datum -2-
  2
11-Datum_-2-
 70
     0
 74
     3
  0
ATTDEF
  5
189
102
{ACAD_XDICTIONARY
360
833
102
}
330
14D
100
AcDbEntity
  8
Sichtbar schmal (ISO)
 62
     1
100
AcDbText
 10
324.4841608643612
 20
34.05672884538172
 30
0.0
 40
2.000000029802322
  1

 41
1.400000095367431
  7
Textstil144
 11
324.4841608643612
 21
36.05672887518404
 31
0.0
100
AcDbAttributeDefinition
  3
12-Datum -3-
  2
12-Datum_-3-
 70
     0
 74
     3
  0
ATTDEF
  5
18A
102
{ACAD_XDICTIONARY
360
836
102
}
330
14D
100
AcDbEntity
  8
Sichtbar schmal (ISO)
 62
     1
100
AcDbText
 10
324.4841608643612
 20
36.55672884538172
 30
0.0
 40
2.000000029802322
  1

 41
1.400000095367431
  7
Textstil144
 11
324.4841608643612
 21
38.55672887518404
 31
0.0
100
AcDbAttributeDefinition
  3
13-Datum -4-
  2
13-Datum_-4-
 70
     0
 74
     3
  0
ATTDEF
  5
18B
102
{ACAD_XDICTIONARY
360
839
102
}
330
14D
100
AcDbEntity
  8
Sichtbar schmal (ISO)
 62
     1
100
AcDbText
 10
324.4841608643612
 20
29.05672884538171
 30
0.0
 40
2.000000029802322
  1

 41
1.400000095367431
  7
Textstil144
 11
324.4841608643612
 21
31.05672887518404
 31
0.0
100
AcDbAttributeDefinition
  3
10-Datum -1-
  2
10-Datum_-1-
 70
     0
 74
     3
  0
ATTDEF
  5
18C
102
{ACAD_XDICTIONARY
360
83C
102
}
330
14D
100
AcDbEntity
  8
Sichtbar schmal (ISO)
 62
     1
100
AcDbText
 10
324.4841608643612
 20
44.05672884538171
 30
0.0
 40
2.000000029802322
  1

 41
1.400000095367431
  7
Textstil144
 11
324.4841608643612
 21
46.05672887518403
 31
0.0
100
AcDbAttributeDefinition
  3
16-Datum -7-
  2
16-Datum_-7-
 70
     0
 74
     3
  0
ATTDEF
  5
18D
102
{ACAD_XDICTIONARY
360
83F
102
}
330
14D
100
AcDbEntity
  8
Sichtbar schmal (ISO)
 62
     1
100
AcDbText
 10
324.4841608643612
 20
46.55672884538171
 30
0.0
 40
2.000000029802322
  1

 41
1.400000095367431
  7
Textstil144
 11
324.4841608643612
 21
48.55672887518403
 31
0.0
100
AcDbAttributeDefinition
  3
17-Datum -8-
  2
17-Datum_-8-
 70
     0
 74
     3
  0
ATTDEF
  5
18E
102
{ACAD_XDICTIONARY
360
842
102
}
330
14D
100
AcDbEntity
  8
Sichtbar schmal (ISO)
 62
     1
100
AcDbText
 10
324.4841608643612
 20
41.55672884538171
 30
0.0
 40
2.000000029802322
  1

 41
1.400000095367431
  7
Textstil144
 11
324.4841608643612
 21
43.55672887518403
 31
0.0
100
AcDbAttributeDefinition
  3
15-Datum -6-
  2
15-Datum_-6-
 70
     0
 74
     3
  0
ATTDEF
  5
18F
102
{ACAD_XDICTIONARY
360
845
102
}
330
14D
100
AcDbEntity
  8
Sichtbar schmal (ISO)
 62
     1
100
AcDbText
 10
309.4841608643612
 20
39.05672884538171
 30
0.0
 40
2.000000029802322
  1

 41
1.400000095367431
  7
Textstil144
 11
309.4841608643612
 21
41.05672887518403
 31
0.0
100
AcDbAttributeDefinition
  3
14-Ä-Nr. -5-
  2
14-Ä-Nr._-5-
 70
     0
 74
     3
  0
ATTDEF
  5
190
102
{ACAD_XDICTIONARY
360
848
102
}
330
14D
100
AcDbEntity
  8
Sichtbar schmal (ISO)
 62
     1
100
AcDbText
 10
309.4841608643612
 20
31.55672884538172
 30
0.0
 40
2.000000029802322
  1

 41
1.400000095367431
  7
Textstil144
 11
309.4841608643612
 21
33.55672887518404
 31
0.0
100
AcDbAttributeDefinition
  3
11-Ä-Nr. -2-
  2
11-Ä-Nr._-2-
 70
     0
 74
     3
  0
ATTDEF
  5
191
102
{ACAD_XDICTIONARY
360
84B
102
}
330
14D
100
AcDbEntity
  8
Sichtbar schmal (ISO)
 62
     1
100
AcDbText
 10
309.4841608643611
 20
34.05672884538172
 30
0.0
 40
2.000000029802322
  1

 41
1.400000095367431
  7
Textstil144
 11
309.4841608643611
 21
36.05672887518404
 31
0.0
100
AcDbAttributeDefinition
  3
12-Ä-Nr. -3-
  2
12-Ä-Nr._-3-
 70
     0
 74
     3
  0
ATTDEF
  5
192
102
{ACAD_XDICTIONARY
360
84E
102
}
330
14D
100
AcDbEntity
  8
Sichtbar schmal (ISO)
 62
     1
100
AcDbText
 10
309.4841608643612
 20
36.55672884538172
 30
0.0
 40
2.000000029802322
  1

 41
1.400000095367431
  7
Textstil144
 11
309.4841608643612
 21
38.55672887518404
 31
0.0
100
AcDbAttributeDefinition
  3
13-Ä-Nr. -4-
  2
13-Ä-Nr._-4-
 70
     0
 74
     3
  0
ATTDEF
  5
193
102
{ACAD_XDICTIONARY
360
851
102
}
330
14D
100
AcDbEntity
  8
Sichtbar schmal (ISO)
 62
     1
100
AcDbText
 10
309.4841608643612
 20
29.05672884538171
 30
0.0
 40
2.000000029802322
  1

 41
1.400000095367431
  7
Textstil144
 11
309.4841608643612
 21
31.05672887518404
 31
0.0
100
AcDbAttributeDefinition
  3
10-Ä-Nr. -1-
  2
10-Ä-Nr._-1-
 70
     0
 74
     3
  0
ATTDEF
  5
194
102
{ACAD_XDICTIONARY
360
854
102
}
330
14D
100
AcDbEntity
  8
Sichtbar schmal (ISO)
 62
     1
100
AcDbText
 10
309.4841608643612
 20
44.05672884538171
 30
0.0
 40
2.000000029802322
  1

 41
1.400000095367431
  7
Textstil144
 11
309.4841608643612
 21
46.05672887518403
 31
0.0
100
AcDbAttributeDefinition
  3
16-Ä-Nr. -7-
  2
16-Ä-Nr._-7-
 70
     0
 74
     3
  0
ATTDEF
  5
195
102
{ACAD_XDICTIONARY
360
857
102
}
330
14D
100
AcDbEntity
  8
Sichtbar schmal (ISO)
 62
     1
100
AcDbText
 10
309.4841608643612
 20
46.55672884538171
 30
0.0
 40
2.000000029802322
  1

 41
1.400000095367431
  7
Textstil144
 11
309.4841608643612
 21
48.55672887518403
 31
0.0
100
AcDbAttributeDefinition
  3
17-Ä-Nr. -8-
  2
17-Ä-Nr._-8-
 70
     0
 74
     3
  0
ATTDEF
  5
196
102
{ACAD_XDICTIONARY
360
85A
102
}
330
14D
100
AcDbEntity
  8
Sichtbar schmal (ISO)
 62
     1
100
AcDbText
 10
309.4841608643612
 20
41.55672884538171
 30
0.0
 40
2.000000029802322
  1

 41
1.400000095367431
  7
Textstil144
 11
309.4841608643612
 21
43.55672887518403
 31
0.0
100
AcDbAttributeDefinition
  3
15-Ä-Nr. -6-
  2
15-Ä-Nr._-6-
 70
     0
 74
     3
  0
ATTDEF
  5
197
102
{ACAD_XDICTIONARY
360
85D
102
}
330
14D
100
AcDbEntity
  8
0
 62
     5
100
AcDbText
 10
334.1841608738607
 20
16.80672884538171
 30
0.0
 40
2.5
  1
2503577.idw
 41
1.199999999999999
  7
Textstil68
100
AcDbAttributeDefinition
  3
DATEINAME
  2
DATEINAME_001
 70
     0
  0
ATTDEF
  5
198
102
{ACAD_XDICTIONARY
360
860
102
}
330
14D
100
AcDbEntity
  8
0
 62
     5
100
AcDbText
 10
334.1841608738607
 20
12.55672884538171
 30
0.0
 40
2.5
  1
01.08.2013
 41
1.199999999999999
  7
Textstil68
100
AcDbAttributeDefinition
  3
ERSTELLUNGSDATUM
  2
ERSTELLUNGSDATUM_001
 70
     0
  0
ATTDEF
  5
199
102
{ACAD_XDICTIONARY
360
863
102
}
330
14D
100
AcDbEntity
  8
Sichtbar schmal (ISO)
 62
     1
100
AcDbText
 10
324.4841608643612
 20
51.55672884538171
 30
0.0
 40
2.000000029802322
  1

 41
1.400000095367431
  7
Textstil144
 11
324.4841608643612
 21
53.55672887518403
 31
0.0
100
AcDbAttributeDefinition
  3
19-Datum -10-
  2
19-Datum_-10-
 70
     0
 74
     3
  0
ATTDEF
  5
19A
102
{ACAD_XDICTIONARY
360
866
102
}
330
14D
100
AcDbEntity
  8
Sichtbar schmal (ISO)
 62
     1
100
AcDbText
 10
324.4841608643612
 20
49.05672884538171
 30
0.0
 40
2.000000029802322
  1

 41
1.400000095367431
  7
Textstil144
 11
324.4841608643612
 21
51.05672887518403
 31
0.0
100
AcDbAttributeDefinition
  3
18-Datum -9-
  2
18-Datum_-9-
 70
     0
 74
     3
  0
ATTDEF
  5
19B
102
{ACAD_XDICTIONARY
360
869
102
}
330
14D
100
AcDbEntity
  8
Sichtbar schmal (ISO)
 62
     1
100
AcDbText
 10
309.4841608643612
 20
51.55672884538171
 30
0.0
 40
2.000000029802322
  1

 41
1.400000095367431
  7
Textstil144
 11
309.4841608643612
 21
53.55672887518403
 31
0.0
100
AcDbAttributeDefinition
  3
19-Ä-Nr. -10-
  2
19-Ä-Nr._-10-
 70
     0
 74
     3
  0
ATTDEF
  5
19C
102
{ACAD_XDICTIONARY
360
86C
102
}
330
14D
100
AcDbEntity
  8
Sichtbar schmal (ISO)
 62
     1
100
AcDbText
 10
309.4841608643612
 20
49.05672884538171
 30
0.0
 40
2.000000029802322
  1

 41
1.400000095367431
  7
Textstil144
 11
309.4841608643612
 21
51.05672887518403
 31
0.0
100
AcDbAttributeDefinition
  3
18-Ä-Nr. -9-
  2
18-Ä-Nr._-9-
 70
     0
 74
     3
  0
ATTDEF
  5
19E
102
{ACAD_XDICTIONARY
360
86F
102
}
330
14D
100
AcDbEntity
  8
Titel (ISO)
 62
     7
100
AcDbText
 10
309.4262928483785
 20
71.80672884538674
 30
0.0
 40
3.98477166891098
  1
BOCUBE
 41
1.399999999999999
  7
Textstil243
100
AcDbAttributeDefinition
  3
07-Artikel-Modell
  2
07-Artikel-Modell_001
 70
     0
  0
ATTDEF
  5
1A0
102
{ACAD_XDICTIONARY
360
872
102
}
330
14D
100
AcDbEntity
  8
Titel (ISO)
 62
     7
100
AcDbText
 10
331.9241608737489
 20
88.30672884538175
 30
0.0
 40
4.000000059604644
  1
3K 5390.137.01
 41
1.399999999999999
  7
Textstil143
100
AcDbAttributeDefinition
  3
03-Zchn.Nr.
  2
03-Zchn.Nr._001
 70
     0
  0
ATTDEF
  5
1A1
102
{ACAD_XDICTIONARY
360
875
102
}
330
14D
100
AcDbEntity
  8
0
 62
     5
100
AcDbText
 10
354.1841608738606
 20
12.55672884538171
 30
0.0
 40
2.5
  1
KH
 41
1.199999999999999
  7
Textstil68
100
AcDbAttributeDefinition
  3
50-Namenskürzel
  2
50-Namenskürzel_001
 70
     0
  0
ATTDEF
  5
1A3
102
{ACAD_XDICTIONARY
360
878
102
}
330
14D
100
AcDbEntity
  8
Titel (ISO)
 62
     7
100
AcDbText
 10
332.0041608724078
 20
103.8067288453817
 30
0.0
 40
4.000000059604644
  1
1:1
 41
1.199999999999999
  7
Textstil242
100
AcDbAttributeDefinition
  3
02-Maßstab
  2
02-Maßstab_001
 70
     0
  0
ATTDEF
  5
1A4
102
{ACAD_XDICTIONARY
360
87B
102
}
330
14D
100
AcDbEntity
  8
Titel (ISO)
 62
     7
100
AcDbText
 10
309.4241608737489
 20
64.80672884538674
 30
0.0
 40
4.000000059604644
  1
B M 1808
 41
1.399999999999999
  7
Textstil143
100
AcDbAttributeDefinition
  3
08-Artikel-Benennung
  2
08-Artikel-Benennung_001
 70
     0
  0
ATTDEF
  5
1A5
102
{ACAD_XDICTIONARY
360
87E
102
}
330
14D
100
AcDbEntity
  8
Titel (ISO)
 62
     7
100
AcDbText
 10
309.4262928483785
 20
57.80672884538674
 30
0.0
 40
3.98477166891098
  1
Katalogzg./Catalogue draw.
 41
1.399999999999999
  7
Textstil243
100
AcDbAttributeDefinition
  3
09-Artikel-Benennung (2.Zeile)
  2
09-Artikel-Benennung_(2.Zeile)_001
 70
     0
  0
ENDBLK
  5
14F
330
14D
100
AcDbEntity
  8
0
100
AcDbBlockEnd
  0
BLOCK
  5
1DE
330
1DD
100
AcDbEntity
  8
0
100
AcDbBlockBegin
  2
*D6
 70
     1
 10
0.0
 20
0.0
 30
0.0
  3
*D6
  1

  0
LINE
  5
2A9
330
1DD
100
AcDbEntity
  8
Bemaßung (ISO)
  6
Continuous
 62
     1
370
    25
100
AcDbLine
 10
70.56963452690957
 20
235.0349857016008
 30
0.0
 11
70.56963452690957
 21
250.3716999545908
 31
0.0
  0
LINE
  5
2AA
330
1DD
100
AcDbEntity
  8
Bemaßung (ISO)
  6
Continuous
 62
     1
370
    25
100
AcDbLine
 10
221.0696345269095
 20
235.0349857016008
 30
0.0
 11
221.0696345269095
 21
250.3716999545908
 31
0.0
  0
LINE
  5
2AB
330
1DD
100
AcDbEntity
  8
Bemaßung (ISO)
  6
Continuous
 62
     1
370
    25
100
AcDbLine
 10
73.06963452690957
 20
249.3716999545908
 30
0.0
 11
218.5696345269096
 21
249.3716999545908
 31
0.0
  0
SOLID
  5
2AC
330
1DD
100
AcDbEntity
  8
Bemaßung (ISO)
  6
Continuous
 62
     1
100
AcDbTrace
 10
73.06963452690957
 20
249.7883666212574
 30
0.0
 11
73.06963452690957
 21
248.9550332879241
 31
0.0
 12
70.56963452690957
 22
249.3716999545908
 32
0.0
 13
70.56963452690957
 23
249.3716999545908
 33
0.0
  0
SOLID
  5
2AD
330
1DD
100
AcDbEntity
  8
Bemaßung (ISO)
  6
Continuous
 62
     1
100
AcDbTrace
 10
218.5696345269096
 20
249.7883666212574
 30
0.0
 11
218.5696345269096
 21
248.9550332879241
 31
0.0
 12
221.0696345269095
 22
249.3716999545908
 32
0.0
 13
221.0696345269095
 23
249.3716999545908
 33
0.0
  0
MTEXT
  5
2AE
330
1DD
100
AcDbEntity
  8
Bemaßung (ISO)
  6
Continuous
 62
     5
370
    25
100
AcDbMText
 10
139.4880014934832
 20
249.5716999545908
 30
0.0
 40
3.5
 41
0.0
 71
     7
 72
     1
  1
\A1;150,5
  7
3_5
 73
     1
 44
1.0
1001
ACAD
1000
MTEXTBEGIN
1070
    73
1070
     1
1070
    44
1040
1.0
1070
    74
1070
     0
1000
MTEXTEND
  0
POINT
  5
2AF
330
1DD
100
AcDbEntity
  8
Defpoints
  6
Continuous
 62
     0
100
AcDbPoint
 10
70.56963452690957
 20
235.0349857016008
 30
0.0
  0
POINT
  5
2B0
330
1DD
100
AcDbEntity
  8
Defpoints
  6
Continuous
 62
     0
100
AcDbPoint
 10
221.0696345269095
 20
235.0349857016008
 30
0.0
  0
POINT
  5
2B1
330
1DD
100
AcDbEntity
  8
Defpoints
  6
Continuous
 62
     0
100
AcDbPoint
 10
221.0696345269095
 20
249.3716999545908
 30
0.0
  0
ENDBLK
  5
1DF
330
1DD
100
AcDbEntity
  8
0
100
AcDbBlockEnd
  0
BLOCK
  5
2B4
330
2B3
100
AcDbEntity
  8
0
100
AcDbBlockBegin
  2
*D7
 70
     1
 10
0.0
 20
0.0
 30
0.0
  3
*D7
  1

  0
LINE
  5
37F
330
2B3
100
AcDbEntity
  8
Bemaßung (ISO)
  6
Continuous
 62
     1
370
    25
100
AcDbLine
 10
221.0696345269095
 20
235.0349857016008
 30
0.0
 11
239.0696345269096
 21
235.0349857016008
 31
0.0
  0
LINE
  5
380
330
2B3
100
AcDbEntity
  8
Bemaßung (ISO)
  6
Continuous
 62
     1
370
    25
100
AcDbLine
 10
221.0696345269095
 20
165.0349857016008
 30
0.0
 11
239.0696345269096
 21
165.0349857016008
 31
0.0
  0
LINE
  5
381
330
2B3
100
AcDbEntity
  8
Bemaßung (ISO)
  6
Continuous
 62
     1
370
    25
100
AcDbLine
 10
238.0696345269096
 20
232.5349857016008
 30
0.0
 11
238.0696345269096
 21
167.5349857016008
 31
0.0
  0
SOLID
  5
382
330
2B3
100
AcDbEntity
  8
Bemaßung (ISO)
  6
Continuous
 62
     1
100
AcDbTrace
 10
237.6529678602429
 20
232.5349857016008
 30
0.0
 11
238.4863011935763
 21
232.5349857016008
 31
0.0
 12
238.0696345269096
 22
235.0349857016008
 32
0.0
 13
238.0696345269096
 23
235.0349857016008
 33
0.0
  0
SOLID
  5
383
330
2B3
100
AcDbEntity
  8
Bemaßung (ISO)
  6
Continuous
 62
     1
100
AcDbTrace
 10
237.6529678602429
 20
167.5349857016008
 30
0.0
 11
238.4863011935762
 21
167.5349857016008
 31
0.0
 12
238.0696345269096
 22
165.0349857016008
 32
0.0
 13
238.0696345269096
 23
165.0349857016008
 33
0.0
  0
MTEXT
  5
384
330
2B3
100
AcDbEntity
  8
Bemaßung (ISO)
  6
Continuous
 62
     5
370
    25
100
AcDbMText
 10
237.8696345269096
 20
197.7249857246789
 30
0.0
 40
3.5
 41
0.0
 71
     7
 72
     1
  1
\A1;70
  7
3_5
 11
0.0000000000000001
 21
1.0
 31
0.0
 73
     1
 44
1.0
1001
ACAD
1000
MTEXTBEGIN
1070
    73
1070
     1
1070
    44
1040
1.0
1070
    74
1070
     0
1000
MTEXTEND
  0
POINT
  5
385
330
2B3
100
AcDbEntity
  8
Defpoints
  6
Continuous
 62
     0
100
AcDbPoint
 10
221.0696345269095
 20
235.0349857016008
 30
0.0
  0
POINT
  5
386
330
2B3
100
AcDbEntity
  8
Defpoints
  6
Continuous
 62
     0
100
AcDbPoint
 10
221.0696345269095
 20
165.0349857016008
 30
0.0
  0
POINT
  5
387
330
2B3
100
AcDbEntity
  8
Defpoints
  6
Continuous
 62
     0
100
AcDbPoint
 10
238.0696345269096
 20
165.0349857016008
 30
0.0
  0
ENDBLK
  5
2B5
330
2B3
100
AcDbEntity
  8
0
100
AcDbBlockEnd
  0
BLOCK
  5
38A
330
389
100
AcDbEntity
  8
0
100
AcDbBlockBegin
  2
*D8
 70
     1
 10
0.0
 20
0.0
 30
0.0
  3
*D8
  1

  0
LINE
  5
47B
330
389
100
AcDbEntity
  8
Bemaßung (ISO)
  6
Continuous
 62
     1
370
    25
100
AcDbLine
 10
265.5331123242311
 20
235.0349857016008
 30
0.0
 11
265.5331123242311
 21
243.0349857016008
 31
0.0
  0
LINE
  5
47C
330
389
100
AcDbEntity
  8
Bemaßung (ISO)
  6
Continuous
 62
     1
370
    25
100
AcDbLine
 10
267.5331123242311
 20
235.0349857016008
 30
0.0
 11
267.5331123242311
 21
243.0349857016008
 31
0.0
  0
LINE
  5
47D
330
389
100
AcDbEntity
  8
Bemaßung (ISO)
  6
Continuous
 62
     1
370
    25
100
AcDbLine
 10
263.033112324231
 20
242.0349857016008
 30
0.0
 11
260.5331123242311
 21
242.0349857016008
 31
0.0
  0
LINE
  5
47E
330
389
100
AcDbEntity
  8
Bemaßung (ISO)
  6
Continuous
 62
     1
370
    25
100
AcDbLine
 10
270.0331123242311
 20
242.0349857016008
 30
0.0
 11
275.328952136732
 21
242.0349857016008
 31
0.0
  0
LINE
  5
47F
330
389
100
AcDbEntity
  8
Bemaßung (ISO)
  6
Continuous
 62
     1
370
    25
100
AcDbLine
 10
265.5331123242311
 20
242.0349857016008
 30
0.0
 11
267.5331123242311
 21
242.0349857016008
 31
0.0
  0
SOLID
  5
480
330
389
100
AcDbEntity
  8
Bemaßung (ISO)
  6
Continuous
 62
     1
100
AcDbTrace
 10
263.033112324231
 20
242.4516523682675
 30
0.0
 11
263.033112324231
 21
241.6183190349342
 31
0.0
 12
265.5331123242311
 22
242.0349857016008
 32
0.0
 13
265.5331123242311
 23
242.0349857016008
 33
0.0
  0
SOLID
  5
481
330
389
100
AcDbEntity
  8
Bemaßung (ISO)
  6
Continuous
 62
     1
100
AcDbTrace
 10
270.0331123242311
 20
242.4516523682675
 30
0.0
 11
270.0331123242311
 21
241.6183190349342
 31
0.0
 12
267.5331123242311
 22
242.0349857016008
 32
0.0
 13
267.5331123242311
 23
242.0349857016008
 33
0.0
  0
MTEXT
  5
482
330
389
100
AcDbEntity
  8
Bemaßung (ISO)
  6
Continuous
 62
     5
370
    25
100
AcDbMText
 10
273.2039521559638
 20
242.2349857016008
 30
0.0
 40
3.5
 41
0.0
 71
     7
 72
     1
  1
\A1;2
  7
3_5
 73
     1
 44
1.0
1001
ACAD
1000
MTEXTBEGIN
1070
    73
1070
     1
1070
    44
1040
1.0
1070
    74
1070
     0
1000
MTEXTEND
  0
POINT
  5
483
330
389
100
AcDbEntity
  8
Defpoints
  6
Continuous
 62
     0
100
AcDbPoint
 10
265.5331123242311
 20
235.0349857016008
 30
0.0
  0
POINT
  5
484
330
389
100
AcDbEntity
  8
Defpoints
  6
Continuous
 62
     0
100
AcDbPoint
 10
267.5331123242311
 20
235.0349857016008
 30
0.0
  0
POINT
  5
485
330
389
100
AcDbEntity
  8
Defpoints
  6
Continuous
 62
     0
100
AcDbPoint
 10
267.5331123242311
 20
242.0349857016008
 30
0.0
  0
ENDBLK
  5
38B
330
389
100
AcDbEntity
  8
0
100
AcDbBlockEnd
  0
BLOCK
  5
494
330
493
100
AcDbEntity
  8
0
100
AcDbBlockBegin
  2
*D9
 70
     1
 10
0.0
 20
0.0
 30
0.0
  3
*D9
  1

  0
LINE
  5
55F
330
493
100
AcDbEntity
  8
Bemaßung (ISO)
  6
Continuous
 62
     1
370
    25
100
AcDbLine
 10
75.81963452690956
 20
230.0349857016008
 30
0.0
 11
75.81963452690956
 21
243.2244310698852
 31
0.0
  0
LINE
  5
560
330
493
100
AcDbEntity
  8
Bemaßung (ISO)
  6
Continuous
 62
     1
370
    25
100
AcDbLine
 10
215.8196345269096
 20
234.2849857016009
 30
0.0
 11
215.8196345269096
 21
243.2244310698852
 31
0.0
  0
LINE
  5
561
330
493
100
AcDbEntity
  8
Bemaßung (ISO)
  6
Continuous
 62
     1
370
    25
100
AcDbLine
 10
78.31963452690956
 20
242.2244310698852
 30
0.0
 11
213.3196345269096
 21
242.2244310698852
 31
0.0
  0
SOLID
  5
562
330
493
100
AcDbEntity
  8
Bemaßung (ISO)
  6
Continuous
 62
     1
100
AcDbTrace
 10
78.31963452690956
 20
242.6410977365519
 30
0.0
 11
78.31963452690956
 21
241.8077644032186
 31
0.0
 12
75.81963452690956
 22
242.2244310698852
 32
0.0
 13
75.81963452690956
 23
242.2244310698852
 33
0.0
  0
SOLID
  5
563
330
493
100
AcDbEntity
  8
Bemaßung (ISO)
  6
Continuous
 62
     1
100
AcDbTrace
 10
213.3196345269096
 20
242.6410977365519
 30
0.0
 11
213.3196345269096
 21
241.8077644032186
 31
0.0
 12
215.8196345269096
 22
242.2244310698852
 32
0.0
 13
215.8196345269096
 23
242.2244310698852
 33
0.0
  0
MTEXT
  5
564
330
493
100
AcDbEntity
  8
Bemaßung (ISO)
  6
Continuous
 62
     5
370
    25
100
AcDbMText
 10
141.316751475213
 20
242.4244310698852
 30
0.0
 40
3.5
 41
0.0
 71
     7
 72
     1
  1
\A1;140
  7
3_5
 73
     1
 44
1.0
1001
ACAD
1000
MTEXTBEGIN
1070
    73
1070
     1
1070
    44
1040
1.0
1070
    74
1070
     0
1000
MTEXTEND
  0
POINT
  5
565
330
493
100
AcDbEntity
  8
Defpoints
  6
Continuous
 62
     0
100
AcDbPoint
 10
75.81963452690956
 20
230.0349857016008
 30
0.0
  0
POINT
  5
566
330
493
100
AcDbEntity
  8
Defpoints
  6
Continuous
 62
     0
100
AcDbPoint
 10
215.8196345269096
 20
234.2849857016009
 30
0.0
  0
POINT
  5
567
330
493
100
AcDbEntity
  8
Defpoints
  6
Continuous
 62
     0
100
AcDbPoint
 10
215.8196345269096
 20
242.2244310698852
 30
0.0
  0
ENDBLK
  5
495
330
493
100
AcDbEntity
  8
0
100
AcDbBlockEnd
  0
BLOCK
  5
56A
330
569
100
AcDbEntity
  8
0
100
AcDbBlockBegin
  2
*D10
 70
     1
 10
0.0
 20
0.0
 30
0.0
  3
*D10
  1

  0
LINE
  5
635
330
569
100
AcDbEntity
  8
Bemaßung (ISO)
  6
Continuous
 62
     1
370
    25
100
AcDbLine
 10
215.8196345269096
 20
230.0349857016008
 30
0.0
 11
231.4786778906281
 21
230.0349857016008
 31
0.0
  0
LINE
  5
636
330
569
100
AcDbEntity
  8
Bemaßung (ISO)
  6
Continuous
 62
     1
370
    25
100
AcDbLine
 10
215.8196345269096
 20
170.0349857016008
 30
0.0
 11
231.4786778906281
 21
170.0349857016008
 31
0.0
  0
LINE
  5
637
330
569
100
AcDbEntity
  8
Bemaßung (ISO)
  6
Continuous
 62
     1
370
    25
100
AcDbLine
 10
230.4786778906282
 20
227.5349857016008
 30
0.0
 11
230.4786778906281
 21
172.5349857016008
 31
0.0
  0
SOLID
  5
638
330
569
100
AcDbEntity
  8
Bemaßung (ISO)
  6
Continuous
 62
     1
100
AcDbTrace
 10
230.0620112239615
 20
227.5349857016008
 30
0.0
 11
230.8953445572948
 21
227.5349857016008
 31
0.0
 12
230.4786778906282
 22
230.0349857016008
 32
0.0
 13
230.4786778906282
 23
230.0349857016008
 33
0.0
  0
SOLID
  5
639
330
569
100
AcDbEntity
  8
Bemaßung (ISO)
  6
Continuous
 62
     1
100
AcDbTrace
 10
230.0620112239615
 20
172.5349857016008
 30
0.0
 11
230.8953445572948
 21
172.5349857016008
 31
0.0
 12
230.4786778906281
 22
170.0349857016008
 32
0.0
 13
230.4786778906281
 23
170.0349857016008
 33
0.0
  0
MTEXT
  5
63A
330
569
100
AcDbEntity
  8
Bemaßung (ISO)
  6
Continuous
 62
     5
370
    25
100
AcDbMText
 10
230.2786778906281
 20
197.7249857246789
 30
0.0
 40
3.5
 41
0.0
 71
     7
 72
     1
  1
\A1;60
  7
3_5
 11
0.0000000000000001
 21
1.0
 31
0.0
 73
     1
 44
1.0
1001
ACAD
1000
MTEXTBEGIN
1070
    73
1070
     1
1070
    44
1040
1.0
1070
    74
1070
     0
1000
MTEXTEND
  0
POINT
  5
63B
330
569
100
AcDbEntity
  8
Defpoints
  6
Continuous
 62
     0
100
AcDbPoint
 10
215.8196345269096
 20
230.0349857016008
 30
0.0
  0
POINT
  5
63C
330
569
100
AcDbEntity
  8
Defpoints
  6
Continuous
 62
     0
100
AcDbPoint
 10
215.8196345269096
 20
170.0349857016008
 30
0.0
  0
POINT
  5
63D
330
569
100
AcDbEntity
  8
Defpoints
  6
Continuous
 62
     0
100
AcDbPoint
 10
230.4786778906281
 20
170.0349857016008
 30
0.0
  0
ENDBLK
  5
56B
330
569
100
AcDbEntity
  8
0
100
AcDbBlockEnd
  0
BLOCK
  5
640
330
63F
100
AcDbEntity
  8
0
100
AcDbBlockBegin
  2
*D11
 70
     1
 10
0.0
 20
0.0
 30
0.0
  3
*D11
  1

  0
LINE
  5
70B
330
63F
100
AcDbEntity
  8
Bemaßung (ISO)
  6
Continuous
 62
     1
370
    25
100
AcDbLine
 10
76.81963452690957
 20
200.0349857016008
 30
0.0
 11
76.81963452690957
 21
210.9112608573958
 31
0.0
  0
LINE
  5
70C
330
63F
100
AcDbEntity
  8
Bemaßung (ISO)
  6
Continuous
 62
     1
370
    25
100
AcDbLine
 10
214.8196345269095
 20
200.0349857016008
 30
0.0
 11
214.8196345269095
 21
210.9112608573958
 31
0.0
  0
LINE
  5
70D
330
63F
100
AcDbEntity
  8
Bemaßung (ISO)
  6
Continuous
 62
     1
370
    25
100
AcDbLine
 10
79.31963452690957
 20
209.9112608573958
 30
0.0
 11
212.3196345269096
 21
209.9112608573958
 31
0.0
  0
SOLID
  5
70E
330
63F
100
AcDbEntity
  8
Bemaßung (ISO)
  6
Continuous
 62
     1
100
AcDbTrace
 10
79.31963452690957
 20
210.3279275240624
 30
0.0
 11
79.31963452690957
 21
209.4945941907291
 31
0.0
 12
76.81963452690957
 22
209.9112608573958
 32
0.0
 13
76.81963452690957
 23
209.9112608573958
 33
0.0
  0
SOLID
  5
70F
330
63F
100
AcDbEntity
  8
Bemaßung (ISO)
  6
Continuous
 62
     1
100
AcDbTrace
 10
212.3196345269096
 20
210.3279275240624
 30
0.0
 11
212.3196345269096
 21
209.4945941907291
 31
0.0
 12
214.8196345269095
 22
209.9112608573958
 32
0.0
 13
214.8196345269095
 23
209.9112608573958
 33
0.0
  0
MTEXT
  5
710
330
63F
100
AcDbEntity
  8
Bemaßung (ISO)
  6
Continuous
 62
     5
370
    25
100
AcDbMText
 10
128.5322581702496
 20
210.1112608573957
 30
0.0
 40
3.5
 41
0.0
 71
     7
 72
     1
  1
\A1;138
  7
3_5
 73
     1
 44
1.0
1001
ACAD
1000
MTEXTBEGIN
1070
    73
1070
     1
1070
    44
1040
1.0
1070
    74
1070
     0
1000
MTEXTEND
  0
POINT
  5
711
330
63F
100
AcDbEntity
  8
Defpoints
  6
Continuous
 62
     0
100
AcDbPoint
 10
76.81963452690957
 20
200.0349857016008
 30
0.0
  0
POINT
  5
712
330
63F
100
AcDbEntity
  8
Defpoints
  6
Continuous
 62
     0
100
AcDbPoint
 10
214.8196345269095
 20
200.0349857016008
 30
0.0
  0
POINT
  5
713
330
63F
100
AcDbEntity
  8
Defpoints
  6
Continuous
 62
     0
100
AcDbPoint
 10
214.8196345269095
 20
209.9112608573958
 30
0.0
  0
ENDBLK
  5
641
330
63F
100
AcDbEntity
  8
0
100
AcDbBlockEnd
  0
BLOCK
  5
716
330
715
100
AcDbEntity
  8
0
100
AcDbBlockBegin
  2
*D12
 70
     1
 10
0.0
 20
0.0
 30
0.0
  3
*D12
  1

  0
LINE
  5
80A
330
715
100
AcDbEntity
  8
Bemaßung (ISO)
  6
Continuous
 62
     1
370
    25
100
AcDbLine
 10
75.81963452690956
 20
228.2849857016008
 30
0.0
 11
61.58653976219161
 21
228.2849857016008
 31
0.0
  0
LINE
  5
80B
330
715
100
AcDbEntity
  8
Bemaßung (ISO)
  6
Continuous
 62
     1
370
    25
100
AcDbLine
 10
75.81963452690956
 20
231.7849857016009
 30
0.0
 11
61.58653976219161
 21
231.7849857016009
 31
0.0
  0
LINE
  5
80C
330
715
100
AcDbEntity
  8
Bemaßung (ISO)
  6
Continuous
 62
     1
370
    25
100
AcDbLine
 10
62.58653976219161
 20
234.2849857016009
 30
0.0
 11
62.58653976219161
 21
236.7849857016009
 31
0.0
  0
LINE
  5
80D
330
715
100
AcDbEntity
  8
Bemaßung (ISO)
  6
Continuous
 62
     1
370
    25
100
AcDbLine
 10
62.58653976219161
 20
225.7849857016009
 30
0.0
 11
62.58653976219161
 21
223.2849857016008
 31
0.0
  0
LINE
  5
80E
330
715
100
AcDbEntity
  8
Bemaßung (ISO)
  6
Continuous
 62
     1
370
    25
100
AcDbLine
 10
62.58653976219161
 20
231.7849857016009
 30
0.0
 11
62.58653976219161
 21
228.2849857016008
 31
0.0
  0
SOLID
  5
80F
330
715
100
AcDbEntity
  8
Bemaßung (ISO)
  6
Continuous
 62
     1
100
AcDbTrace
 10
62.16987309552495
 20
234.2849857016009
 30
0.0
 11
63.00320642885828
 21
234.2849857016009
 31
0.0
 12
62.58653976219161
 22
231.7849857016009
 32
0.0
 13
62.58653976219161
 23
231.7849857016009
 33
0.0
  0
SOLID
  5
810
330
715
100
AcDbEntity
  8
Bemaßung (ISO)
  6
Continuous
 62
     1
100
AcDbTrace
 10
62.16987309552495
 20
225.7849857016009
 30
0.0
 11
63.00320642885828
 21
225.7849857016009
 31
0.0
 12
62.58653976219161
 22
228.2849857016008
 32
0.0
 13
62.58653976219161
 23
228.2849857016008
 33
0.0
  0
MTEXT
  5
811
330
715
100
AcDbEntity
  8
Bemaßung (ISO)
  6
Continuous
 62
     5
370
    25
100
AcDbMText
 10
65.21958831529865
 20
212.5738786850275
 30
0.0
 40
3.5
 41
0.0
 71
     7
 72
     1
  1
\A1;\fAIGDT|b0|i0;\H3.5000;\ln\fISOCPEUR|b0|i0;\H3.5000;3,5
  7
3_5
 11
0.0000000000000001
 21
1.0
 31
0.0
 73
     1
 44
1.0
1001
ACAD
1000
MTEXTBEGIN
1070
    73
1070
     1
1070
    44
1040
1.0
1070
    74
1070
     0
1000
MTEXTEND
  0
POINT
  5
812
330
715
100
AcDbEntity
  8
Defpoints
  6
Continuous
 62
     0
100
AcDbPoint
 10
75.81963452690956
 20
228.2849857016008
 30
0.0
  0
POINT
  5
813
330
715
100
AcDbEntity
  8
Defpoints
  6
Continuous
 62
     0
100
AcDbPoint
 10
75.81963452690956
 20
231.7849857016009
 30
0.0
  0
POINT
  5
814
330
715
100
AcDbEntity
  8
Defpoints
  6
Continuous
 62
     0
100
AcDbPoint
 10
62.58653976219161
 20
231.7849857016009
 30
0.0
  0
ENDBLK
  5
717
330
715
100
AcDbEntity
  8
0
100
AcDbBlockEnd
  0
ENDSEC
  0
SECTION
  2
ENTITIES
  0
INSERT
  5
14C
330
71
100
AcDbEntity
  8
0
100
AcDbBlockReference
  2
Ränder Bopla-A3-Rahmen
 10
0.0
 20
0.0
 30
0.0
  0
INSERT
  5
1A6
330
71
100
AcDbEntity
  8
0
100
AcDbBlockReference
 66
     1
  2
Schriftfelder Katalogzeichnung
 10
7.515839529740802
 20
-6.306728845381716
 30
0.0
  0
ATTRIB
  5
1A8
102
{ACAD_XDICTIONARY
360
881
102
}
330
1A6
100
AcDbEntity
  8
Sichtbar schmal (ISO)
 62
     1
100
AcDbText
 10
332.000000394102
 20
32.75
 30
0.0
 40
2.000000029802322
  1

 41
1.400000095367431
  7
Textstil144
 11
332.000000394102
 21
34.75000002980233
 31
0.0
100
AcDbAttribute
  2
14-Datum_-5-
 70
     0
 74
     3
  0
ATTRIB
  5
1A9
102
{ACAD_XDICTIONARY
360
884
102
}
330
1A6
100
AcDbEntity
  8
Sichtbar schmal (ISO)
 62
     1
100
AcDbText
 10
332.000000394102
 20
25.25
 30
0.0
 40
2.000000029802322
  1

 41
1.400000095367431
  7
Textstil144
 11
332.000000394102
 21
27.25000002980233
 31
0.0
100
AcDbAttribute
  2
11-Datum_-2-
 70
     0
 74
     3
  0
ATTRIB
  5
1AA
102
{ACAD_XDICTIONARY
360
887
102
}
330
1A6
100
AcDbEntity
  8
Sichtbar schmal (ISO)
 62
     1
100
AcDbText
 10
332.000000394102
 20
27.75
 30
0.0
 40
2.000000029802322
  1

 41
1.400000095367431
  7
Textstil144
 11
332.000000394102
 21
29.75000002980232
 31
0.0
100
AcDbAttribute
  2
12-Datum_-3-
 70
     0
 74
     3
  0
ATTRIB
  5
1AB
102
{ACAD_XDICTIONARY
360
88A
102
}
330
1A6
100
AcDbEntity
  8
Sichtbar schmal (ISO)
 62
     1
100
AcDbText
 10
332.000000394102
 20
30.25
 30
0.0
 40
2.000000029802322
  1

 41
1.400000095367431
  7
Textstil144
 11
332.000000394102
 21
32.25000002980233
 31
0.0
100
AcDbAttribute
  2
13-Datum_-4-
 70
     0
 74
     3
  0
ATTRIB
  5
1AC
102
{ACAD_XDICTIONARY
360
88D
102
}
330
1A6
100
AcDbEntity
  8
Sichtbar schmal (ISO)
 62
     1
100
AcDbText
 10
332.000000394102
 20
22.75
 30
0.0
 40
2.000000029802322
  1

 41
1.400000095367431
  7
Textstil144
 11
332.000000394102
 21
24.75000002980233
 31
0.0
100
AcDbAttribute
  2
10-Datum_-1-
 70
     0
 74
     3
  0
ATTRIB
  5
1AD
102
{ACAD_XDICTIONARY
360
890
102
}
330
1A6
100
AcDbEntity
  8
Sichtbar schmal (ISO)
 62
     1
100
AcDbText
 10
332.000000394102
 20
37.75
 30
0.0
 40
2.000000029802322
  1

 41
1.400000095367431
  7
Textstil144
 11
332.000000394102
 21
39.75000002980232
 31
0.0
100
AcDbAttribute
  2
16-Datum_-7-
 70
     0
 74
     3
  0
ATTRIB
  5
1AE
102
{ACAD_XDICTIONARY
360
893
102
}
330
1A6
100
AcDbEntity
  8
Sichtbar schmal (ISO)
 62
     1
100
AcDbText
 10
332.000000394102
 20
40.25
 30
0.0
 40
2.000000029802322
  1

 41
1.400000095367431
  7
Textstil144
 11
332.000000394102
 21
42.25000002980232
 31
0.0
100
AcDbAttribute
  2
17-Datum_-8-
 70
     0
 74
     3
  0
ATTRIB
  5
1AF
102
{ACAD_XDICTIONARY
360
896
102
}
330
1A6
100
AcDbEntity
  8
Sichtbar schmal (ISO)
 62
     1
100
AcDbText
 10
332.000000394102
 20
35.25
 30
0.0
 40
2.000000029802322
  1

 41
1.400000095367431
  7
Textstil144
 11
332.000000394102
 21
37.25000002980233
 31
0.0
100
AcDbAttribute
  2
15-Datum_-6-
 70
     0
 74
     3
  0
ATTRIB
  5
1B0
102
{ACAD_XDICTIONARY
360
899
102
}
330
1A6
100
AcDbEntity
  8
Sichtbar schmal (ISO)
 62
     1
100
AcDbText
 10
317.000000394102
 20
32.75
 30
0.0
 40
2.000000029802322
  1

 41
1.400000095367431
  7
Textstil144
 11
317.000000394102
 21
34.75000002980233
 31
0.0
100
AcDbAttribute
  2
14-Ä-Nr._-5-
 70
     0
 74
     3
  0
ATTRIB
  5
1B1
102
{ACAD_XDICTIONARY
360
89C
102
}
330
1A6
100
AcDbEntity
  8
Sichtbar schmal (ISO)
 62
     1
100
AcDbText
 10
317.000000394102
 20
25.25
 30
0.0
 40
2.000000029802322
  1

 41
1.400000095367431
  7
Textstil144
 11
317.000000394102
 21
27.25000002980233
 31
0.0
100
AcDbAttribute
  2
11-Ä-Nr._-2-
 70
     0
 74
     3
  0
ATTRIB
  5
1B2
102
{ACAD_XDICTIONARY
360
89F
102
}
330
1A6
100
AcDbEntity
  8
Sichtbar schmal (ISO)
 62
     1
100
AcDbText
 10
317.0000003941019
 20
27.75
 30
0.0
 40
2.000000029802322
  1

 41
1.400000095367431
  7
Textstil144
 11
317.0000003941019
 21
29.75000002980232
 31
0.0
100
AcDbAttribute
  2
12-Ä-Nr._-3-
 70
     0
 74
     3
  0
ATTRIB
  5
1B3
102
{ACAD_XDICTIONARY
360
8A2
102
}
330
1A6
100
AcDbEntity
  8
Sichtbar schmal (ISO)
 62
     1
100
AcDbText
 10
317.000000394102
 20
30.25
 30
0.0
 40
2.000000029802322
  1

 41
1.400000095367431
  7
Textstil144
 11
317.000000394102
 21
32.25000002980233
 31
0.0
100
AcDbAttribute
  2
13-Ä-Nr._-4-
 70
     0
 74
     3
  0
ATTRIB
  5
1B4
102
{ACAD_XDICTIONARY
360
8A5
102
}
330
1A6
100
AcDbEntity
  8
Sichtbar schmal (ISO)
 62
     1
100
AcDbText
 10
317.000000394102
 20
22.75
 30
0.0
 40
2.000000029802322
  1

 41
1.400000095367431
  7
Textstil144
 11
317.000000394102
 21
24.75000002980233
 31
0.0
100
AcDbAttribute
  2
10-Ä-Nr._-1-
 70
     0
 74
     3
  0
ATTRIB
  5
1B5
102
{ACAD_XDICTIONARY
360
8A8
102
}
330
1A6
100
AcDbEntity
  8
Sichtbar schmal (ISO)
 62
     1
100
AcDbText
 10
317.000000394102
 20
37.75
 30
0.0
 40
2.000000029802322
  1

 41
1.400000095367431
  7
Textstil144
 11
317.000000394102
 21
39.75000002980232
 31
0.0
100
AcDbAttribute
  2
16-Ä-Nr._-7-
 70
     0
 74
     3
  0
ATTRIB
  5
1B6
102
{ACAD_XDICTIONARY
360
8AB
102
}
330
1A6
100
AcDbEntity
  8
Sichtbar schmal (ISO)
 62
     1
100
AcDbText
 10
317.000000394102
 20
40.25
 30
0.0
 40
2.000000029802322
  1

 41
1.400000095367431
  7
Textstil144
 11
317.000000394102
 21
42.25000002980232
 31
0.0
100
AcDbAttribute
  2
17-Ä-Nr._-8-
 70
     0
 74
     3
  0
ATTRIB
  5
1B7
102
{ACAD_XDICTIONARY
360
8AE
102
}
330
1A6
100
AcDbEntity
  8
Sichtbar schmal (ISO)
 62
     1
100
AcDbText
 10
317.000000394102
 20
35.25
 30
0.0
 40
2.000000029802322
  1

 41
1.400000095367431
  7
Textstil144
 11
317.000000394102
 21
37.25000002980233
 31
0.0
100
AcDbAttribute
  2
15-Ä-Nr._-6-
 70
     0
 74
     3
  0
ATTRIB
  5
1B8
102
{ACAD_XDICTIONARY
360
8B1
102
}
330
1A6
100
AcDbEntity
  8
0
 62
     5
100
AcDbText
 10
341.7000004036015
 20
10.49999999999999
 30
0.0
 40
2.5
  1
2503577.idw
 41
1.199999999999999
  7
Textstil68
100
AcDbAttribute
  2
DATEINAME_001
 70
     0
  0
ATTRIB
  5
1B9
102
{ACAD_XDICTIONARY
360
8B4
102
}
330
1A6
100
AcDbEntity
  8
0
 62
     5
100
AcDbText
 10
341.7000004036015
 20
6.249999999999996
 30
0.0
 40
2.5
  1
01.08.2013
 41
1.199999999999999
  7
Textstil68
100
AcDbAttribute
  2
ERSTELLUNGSDATUM_001
 70
     0
  0
ATTRIB
  5
1BA
102
{ACAD_XDICTIONARY
360
8B7
102
}
330
1A6
100
AcDbEntity
  8
Sichtbar schmal (ISO)
 62
     1
100
AcDbText
 10
332.000000394102
 20
45.25
 30
0.0
 40
2.000000029802322
  1

 41
1.400000095367431
  7
Textstil144
 11
332.000000394102
 21
47.25000002980232
 31
0.0
100
AcDbAttribute
  2
19-Datum_-10-
 70
     0
 74
     3
  0
ATTRIB
  5
1BB
102
{ACAD_XDICTIONARY
360
8BA
102
}
330
1A6
100
AcDbEntity
  8
Sichtbar schmal (ISO)
 62
     1
100
AcDbText
 10
332.000000394102
 20
42.75
 30
0.0
 40
2.000000029802322
  1

 41
1.400000095367431
  7
Textstil144
 11
332.000000394102
 21
44.75000002980232
 31
0.0
100
AcDbAttribute
  2
18-Datum_-9-
 70
     0
 74
     3
  0
ATTRIB
  5
1BC
102
{ACAD_XDICTIONARY
360
8BD
102
}
330
1A6
100
AcDbEntity
  8
Sichtbar schmal (ISO)
 62
     1
100
AcDbText
 10
317.000000394102
 20
45.25
 30
0.0
 40
2.000000029802322
  1

 41
1.400000095367431
  7
Textstil144
 11
317.000000394102
 21
47.25000002980232
 31
0.0
100
AcDbAttribute
  2
19-Ä-Nr._-10-
 70
     0
 74
     3
  0
ATTRIB
  5
1BD
102
{ACAD_XDICTIONARY
360
8C0
102
}
330
1A6
100
AcDbEntity
  8
Sichtbar schmal (ISO)
 62
     1
100
AcDbText
 10
317.000000394102
 20
42.75
 30
0.0
 40
2.000000029802322
  1

 41
1.400000095367431
  7
Textstil144
 11
317.000000394102
 21
44.75000002980232
 31
0.0
100
AcDbAttribute
  2
18-Ä-Nr._-9-
 70
     0
 74
     3
  0
ATTRIB
  5
1BE
102
{ACAD_XDICTIONARY
360
8C3
102
}
330
1A6
100
AcDbEntity
  8
Titel (ISO)
 62
     7
100
AcDbText
 10
316.9421323781193
 20
65.50000000000503
 30
0.0
 40
3.98477166891098
  1
BOCUBE
 41
1.399999999999999
  7
Textstil243
100
AcDbAttribute
  2
07-Artikel-Modell_001
 70
     0
  0
ATTRIB
  5
1BF
102
{ACAD_XDICTIONARY
360
8C6
102
}
330
1A6
100
AcDbEntity
  8
Titel (ISO)
 62
     7
100
AcDbText
 10
339.4400004034897
 20
82.00000000000004
 30
0.0
 40
4.000000059604644
  1
3K 5390.137.01
 41
1.399999999999999
  7
Textstil143
100
AcDbAttribute
  2
03-Zchn.Nr._001
 70
     0
  0
ATTRIB
  5
1C0
102
{ACAD_XDICTIONARY
360
8C9
102
}
330
1A6
100
AcDbEntity
  8
0
 62
     5
100
AcDbText
 10
361.7000004036014
 20
6.249999999999996
 30
0.0
 40
2.5
  1
KH
 41
1.199999999999999
  7
Textstil68
100
AcDbAttribute
  2
50-Namenskürzel_001
 70
     0
  0
ATTRIB
  5
1C1
102
{ACAD_XDICTIONARY
360
8CC
102
}
330
1A6
100
AcDbEntity
  8
Titel (ISO)
 62
     7
100
AcDbText
 10
339.5200004021485
 20
97.5
 30
0.0
 40
4.000000059604644
  1
1:1
 41
1.199999999999999
  7
Textstil242
100
AcDbAttribute
  2
02-Maßstab_001
 70
     0
  0
ATTRIB
  5
1C2
102
{ACAD_XDICTIONARY
360
8CF
102
}
330
1A6
100
AcDbEntity
  8
Titel (ISO)
 62
     7
100
AcDbText
 10
316.9400004034896
 20
58.50000000000502
 30
0.0
 40
4.000000059604644
  1
B M 1808
 41
1.399999999999999
  7
Textstil143
100
AcDbAttribute
  2
08-Artikel-Benennung_001
 70
     0
  0
ATTRIB
  5
1C3
102
{ACAD_XDICTIONARY
360
8D2
102
}
330
1A6
100
AcDbEntity
  8
Titel (ISO)
 62
     7
100
AcDbText
 10
316.9421323781193
 20
51.50000000000503
 30
0.0
 40
3.98477166891098
  1
Katalogzg./Catalogue draw.
 41
1.399999999999999
  7
Textstil243
100
AcDbAttribute
  2
09-Artikel-Benennung_(2.Zeile)_001
 70
     0
  0
SEQEND
  5
1A7
330
1A6
100
AcDbEntity
  8
0
  0
CIRCLE
  5
1C4
330
71
100
AcDbEntity
  8
Sichtbar (ISO)
100
AcDbCircle
 10
75.81963452690956
 20
170.0349857016008
 30
0.0
 40
1.75
  0
CIRCLE
  5
1C5
330
71
100
AcDbEntity
  8
Sichtbar (ISO)
100
AcDbCircle
 10
214.8196345269095
 20
200.0349857016008
 30
0.0
 40
1.75
  0
CIRCLE
  5
1C6
330
71
100
AcDbEntity
  8
Sichtbar (ISO)
100
AcDbCircle
 10
215.8196345269096
 20
170.0349857016008
 30
0.0
 40
1.75
  0
CIRCLE
  5
1C7
330
71
100
AcDbEntity
  8
Sichtbar (ISO)
100
AcDbCircle
 10
75.81963452690956
 20
230.0349857016008
 30
0.0
 40
1.75
  0
CIRCLE
  5
1C8
330
71
100
AcDbEntity
  8
Sichtbar (ISO)
100
AcDbCircle
 10
76.81963452690957
 20
200.0349857016008
 30
0.0
 40
1.75
  0
CIRCLE
  5
1C9
330
71
100
AcDbEntity
  8
Sichtbar (ISO)
100
AcDbCircle
 10
215.8196345269096
 20
230.0349857016008
 30
0.0
 40
1.75
  0
LINE
  5
1CA
330
71
100
AcDbEntity
  8
Sichtbar (ISO)
100
AcDbLine
 10
221.0696345269095
 20
165.0349857016008
 30
0.0
 11
70.56963452690957
 21
165.0349857016008
 31
0.0
  0
LINE
  5
1CB
330
71
100
AcDbEntity
  8
Sichtbar (ISO)
100
AcDbLine
 10
70.56963452690957
 20
165.0349857016008
 30
0.0
 11
70.56963452690957
 21
235.0349857016008
 31
0.0
  0
LINE
  5
1CC
330
71
100
AcDbEntity
  8
Sichtbar (ISO)
100
AcDbLine
 10
70.56963452690957
 20
235.0349857016008
 30
0.0
 11
221.0696345269095
 21
235.0349857016008
 31
0.0
  0
LINE
  5
1CD
330
71
100
AcDbEntity
  8
Sichtbar (ISO)
100
AcDbLine
 10
221.0696345269095
 20
235.0349857016008
 30
0.0
 11
221.0696345269095
 21
165.0349857016008
 31
0.0
  0
LINE
  5
1CE
330
71
100
AcDbEntity
  8
Mittellinie (ISO)
  6
CHAIN
 48
23.99096870422363
100
AcDbLine
 10
145.8196345269096
 20
237.5349857016008
 30
0.0
 11
145.8196345269096
 21
162.5349857016008
 31
0.0
  0
LINE
  5
1CF
330
71
100
AcDbEntity
  8
Mittellinie (ISO)
  6
CHAIN
 48
23.99096870422363
100
AcDbLine
 10
68.06963452690957
 20
200.0349857016008
 30
0.0
 11
223.5696345269096
 21
200.0349857016008
 31
0.0
  0
LINE
  5
1D0
330
71
100
AcDbEntity
  8
Sichtbar (ISO)
100
AcDbLine
 10
265.5331123242311
 20
165.0349857016008
 30
0.0
 11
267.5331123242311
 21
165.0349857016008
 31
0.0
  0
LINE
  5
1D1
330
71
100
AcDbEntity
  8
Sichtbar (ISO)
100
AcDbLine
 10
267.5331123242311
 20
165.0349857016008
 30
0.0
 11
267.5331123242311
 21
235.0349857016008
 31
0.0
  0
LINE
  5
1D2
330
71
100
AcDbEntity
  8
Sichtbar (ISO)
100
AcDbLine
 10
265.5331123242311
 20
235.0349857016008
 30
0.0
 11
267.5331123242311
 21
235.0349857016008
 31
0.0
  0
LINE
  5
1D3
330
71
100
AcDbEntity
  8
Sichtbar (ISO)
100
AcDbLine
 10
265.5331123242311
 20
165.0349857016008
 30
0.0
 11
265.5331123242311
 21
235.0349857016008
 31
0.0
  0
LINE
  5
1D4
330
71
100
AcDbEntity
  8
Verdeckt (ISO)
 48
3.809293270111083
100
AcDbLine
 10
265.5331123242326
 20
171.7849857016008
 30
0.0
 11
267.5331123242326
 21
171.7849857016008
 31
0.0
  0
LINE
  5
1D5
330
71
100
AcDbEntity
  8
Verdeckt (ISO)
 48
3.809293270111083
100
AcDbLine
 10
265.5331123242326
 20
168.2849857016008
 30
0.0
 11
267.5331123242326
 21
168.2849857016008
 31
0.0
  0
LINE
  5
1D6
330
71
100
AcDbEntity
  8
Verdeckt (ISO)
 48
3.809293270111083
100
AcDbLine
 10
265.5331123242326
 20
231.7849857016008
 30
0.0
 11
267.5331123242326
 21
231.7849857016008
 31
0.0
  0
LINE
  5
1D7
330
71
100
AcDbEntity
  8
Verdeckt (ISO)
 48
3.809293270111083
100
AcDbLine
 10
265.5331123242326
 20
228.2849857016008
 30
0.0
 11
267.5331123242326
 21
228.2849857016008
 31
0.0
  0
LINE
  5
1D8
330
71
100
AcDbEntity
  8
Verdeckt (ISO)
 48
3.809293270111083
100
AcDbLine
 10
265.533112324233
 20
201.7849857016008
 30
0.0
 11
267.533112324233
 21
201.7849857016008
 31
0.0
  0
LINE
  5
1D9
330
71
100
AcDbEntity
  8
Verdeckt (ISO)
 48
3.809293270111083
100
AcDbLine
 10
265.533112324233
 20
198.2849857016008
 30
0.0
 11
267.533112324233
 21
198.2849857016008
 31
0.0
  0
LINE
  5
1DA
330
71
100
AcDbEntity
  8
Mittellinie (ISO)
  6
CHAIN
 48
7.778351783752441
100
AcDbLine
 10
263.033112324231
 20
200.0349857016008
 30
0.0
 11
270.0331123242311
 21
200.0349857016008
 31
0.0
  0
DIMENSION
  5
1DB
330
71
100
AcDbEntity
  8
Bemaßung (ISO)
  6
Continuous
 62
     1
370
    25
100
AcDbDimension
  2
*D6
 10
221.0696345269095
 20
249.3716999545908
 30
0.0
 11
144.7817514405957
 21
249.3716999545908
 31
0.0
 70
   160
  1
<>
 71
     7
 42
150.5
  3
18-Bopla 3_5
100
AcDbAlignedDimension
 13
70.56963452690957
 23
235.0349857016008
 33
0.0
 14
221.0696345269095
 24
235.0349857016008
 34
0.0
100
AcDbRotatedDimension
1001
ACAD
1000
DSTYLE
1002
{
1070
   172
1070
     0
1070
   289
1070
     1
1070
   271
1070
     6
1070
   272
1070
     3
1070
    48
1040
0.0
1070
    47
1040
0.0
1002
}
  0
DIMENSION
  5
2B2
330
71
100
AcDbEntity
  8
Bemaßung (ISO)
  6
Continuous
 62
     1
370
    25
100
AcDbDimension
  2
*D7
 10
238.0696345269096
 20
165.0349857016008
 30
0.0
 11
238.0696345269095
 21
200.0349857016008
 31
0.0
 70
   160
  1
<>
 71
     7
 42
70.0
  3
18-Bopla 3_5
100
AcDbAlignedDimension
 13
221.0696345269095
 23
235.0349857016008
 33
0.0
 14
221.0696345269095
 24
165.0349857016008
 34
0.0
 50
270.0
100
AcDbRotatedDimension
1001
ACAD
1000
DSTYLE
1002
{
1070
   172
1070
     0
1070
   289
1070
     1
1070
   271
1070
     6
1070
   272
1070
     3
1070
    48
1040
0.0
1070
    47
1040
0.0
1002
}
  0
DIMENSION
  5
388
330
71
100
AcDbEntity
  8
Bemaßung (ISO)
  6
Continuous
 62
     1
370
    25
100
AcDbDimension
  2
*D8
 10
267.5331123242311
 20
242.0349857016008
 30
0.0
 11
274.1664521463479
 21
242.0349857016008
 31
0.0
 70
   160
  1
<>
 71
     7
 42
2.0
  3
18-Bopla 3_5
100
AcDbAlignedDimension
 13
265.5331123242311
 23
235.0349857016008
 33
0.0
 14
267.5331123242311
 24
235.0349857016008
 34
0.0
100
AcDbRotatedDimension
1001
ACAD
1000
DSTYLE
1002
{
1070
   172
1070
     1
1070
   289
1070
     1
1070
   271
1070
     6
1070
   272
1070
     3
1070
    48
1040
0.0
1070
    47
1040
0.0
1002
}
  0
LINE
  5
486
330
71
100
AcDbEntity
  8
Mittelpunktmarkierung (ISO)
  6
CHAIN
 48
9.445162773132324
100
AcDbLine
 10
80.06963452690957
 20
230.0349857016008
 30
0.0
 11
71.56963452690956
 21
230.0349857016008
 31
0.0
  0
LINE
  5
487
330
71
100
AcDbEntity
  8
Mittelpunktmarkierung (ISO)
  6
CHAIN
 48
9.445162773132324
100
AcDbLine
 10
75.81963452690956
 20
234.2849857016009
 30
0.0
 11
75.81963452690956
 21
225.7849857016008
 31
0.0
  0
LINE
  5
488
330
71
100
AcDbEntity
  8
Mittelpunktmarkierung (ISO)
  6
CHAIN
 48
9.445162773132324
100
AcDbLine
 10
81.06963452690957
 20
200.0349857016008
 30
0.0
 11
72.56963452690957
 21
200.0349857016008
 31
0.0
  0
LINE
  5
489
330
71
100
AcDbEntity
  8
Mittelpunktmarkierung (ISO)
  6
CHAIN
 48
9.445162773132324
100
AcDbLine
 10
76.81963452690957
 20
204.2849857016008
 30
0.0
 11
76.81963452690957
 21
195.7849857016008
 31
0.0
  0
LINE
  5
48A
330
71
100
AcDbEntity
  8
Mittelpunktmarkierung (ISO)
  6
CHAIN
 48
9.445162773132324
100
AcDbLine
 10
80.06963452690957
 20
170.0349857016008
 30
0.0
 11
71.56963452690956
 21
170.0349857016008
 31
0.0
  0
LINE
  5
48B
330
71
100
AcDbEntity
  8
Mittelpunktmarkierung (ISO)
  6
CHAIN
 48
9.445162773132324
100
AcDbLine
 10
75.81963452690956
 20
174.2849857016008
 30
0.0
 11
75.81963452690956
 21
165.7849857016008
 31
0.0
  0
LINE
  5
48C
330
71
100
AcDbEntity
  8
Mittelpunktmarkierung (ISO)
  6
CHAIN
 48
9.445162773132324
100
AcDbLine
 10
220.0696345269096
 20
170.0349857016008
 30
0.0
 11
211.5696345269096
 21
170.0349857016008
 31
0.0
  0
LINE
  5
48D
330
71
100
AcDbEntity
  8
Mittelpunktmarkierung (ISO)
  6
CHAIN
 48
9.445162773132324
100
AcDbLine
 10
215.8196345269096
 20
174.2849857016008
 30
0.0
 11
215.8196345269096
 21
165.7849857016008
 31
0.0
  0
LINE
  5
48E
330
71
100
AcDbEntity
  8
Mittelpunktmarkierung (ISO)
  6
CHAIN
 48
9.445162773132324
100
AcDbLine
 10
219.0696345269095
 20
200.0349857016008
 30
0.0
 11
210.5696345269095
 21
200.0349857016008
 31
0.0
  0
LINE
  5
48F
330
71
100
AcDbEntity
  8
Mittelpunktmarkierung (ISO)
  6
CHAIN
 48
9.445162773132324
100
AcDbLine
 10
214.8196345269095
 20
204.2849857016008
 30
0.0
 11
214.8196345269095
 21
195.7849857016008
 31
0.0
  0
LINE
  5
490
330
71
100
AcDbEntity
  8
Mittelpunktmarkierung (ISO)
  6
CHAIN
 48
9.445162773132324
100
AcDbLine
 10
220.0696345269096
 20
230.0349857016008
 30
0.0
 11
211.5696345269096
 21
230.0349857016008
 31
0.0
  0
LINE
  5
491
330
71
100
AcDbEntity
  8
Mittelpunktmarkierung (ISO)
  6
CHAIN
 48
9.445162773132324
100
AcDbLine
 10
215.8196345269096
 20
234.2849857016009
 30
0.0
 11
215.8196345269096
 21
225.7849857016008
 31
0.0
  0
DIMENSION
  5
492
330
71
100
AcDbEntity
  8
Bemaßung (ISO)
  6
Continuous
 62
     1
370
    25
100
AcDbDimension
  2
*D9
 10
215.8196345269096
 20
242.2244310698852
 30
0.0
 11
144.7817514405957
 21
242.2244310698852
 31
0.0
 70
   160
  1
<>
 71
     7
 42
140.0
  3
18-Bopla 3_5
100
AcDbAlignedDimension
 13
75.81963452690956
 23
230.0349857016008
 33
0.0
 14
215.8196345269096
 24
234.2849857016009
 34
0.0
 50
180.0
100
AcDbRotatedDimension
1001
ACAD
1000
DSTYLE
1002
{
1070
   172
1070
     0
1070
   289
1070
     1
1070
   271
1070
     6
1070
   272
1070
     3
1070
    48
1040
0.0
1070
    47
1040
0.0
1002
}
  0
DIMENSION
  5
568
330
71
100
AcDbEntity
  8
Bemaßung (ISO)
  6
Continuous
 62
     1
370
    25
100
AcDbDimension
  2
*D10
 10
230.4786778906281
 20
170.0349857016008
 30
0.0
 11
230.4786778906281
 21
200.0349857016008
 31
0.0
 70
   160
  1
<>
 71
     7
 42
60.0
  3
18-Bopla 3_5
100
AcDbAlignedDimension
 13
215.8196345269096
 23
230.0349857016008
 33
0.0
 14
215.8196345269096
 24
170.0349857016008
 34
0.0
 50
90.0
100
AcDbRotatedDimension
1001
ACAD
1000
DSTYLE
1002
{
1070
   172
1070
     0
1070
   289
1070
     1
1070
   271
1070
     6
1070
   272
1070
     3
1070
    48
1040
0.0
1070
    47
1040
0.0
1002
}
  0
DIMENSION
  5
63E
330
71
100
AcDbEntity
  8
Bemaßung (ISO)
  6
Continuous
 62
     1
370
    25
100
AcDbDimension
  2
*D11
 10
214.8196345269095
 20
209.9112608573958
 30
0.0
 11
131.8047581375555
 21
209.9112608573958
 31
0.0
 70
   160
  1
<>
 71
     7
 42
138.0
  3
18-Bopla 3_5
100
AcDbAlignedDimension
 13
76.81963452690957
 23
200.0349857016008
 33
0.0
 14
214.8196345269095
 24
200.0349857016008
 34
0.0
 50
180.0
100
AcDbRotatedDimension
1001
ACAD
1000
DSTYLE
1002
{
1070
   172
1070
     0
1070
   289
1070
     1
1070
   271
1070
     6
1070
   272
1070
     3
1070
    48
1040
0.0
1070
    47
1040
0.0
1002
}
  0
DIMENSION
  5
714
330
71
100
AcDbEntity
  8
Bemaßung (ISO)
  6
Continuous
 62
     1
370
    25
100
AcDbDimension
  2
*D12
 10
62.58653976219161
 20
231.7849857016009
 30
0.0
 11
62.58653976219157
 21
217.8294321933142
 31
0.0
 70
   160
  1
\fAIGDT|b0|i0;\H3.5000;\ln\fISOCPEUR|b0|i0;\H3.5000;<>
 71
     7
 42
3.500000000000028
  3
18-Bopla 3_5
100
AcDbAlignedDimension
 13
75.81963452690956
 23
228.2849857016008
 33
0.0
 14
75.81963452690956
 24
231.7849857016009
 34
0.0
 50
90.0
100
AcDbRotatedDimension
1001
ACAD
1000
DSTYLE
1002
{
1070
   172
1070
     1
1070
   289
1070
     1
1070
    77
1070
     0
1070
   271
1070
     6
1070
   272
1070
     3
1070
    48
1040
0.0
1070
    47
1040
0.0
1002
}
  0
ENDSEC
  0
SECTION
  2
OBJECTS
  0
DICTIONARY
  5
C
330
0
100
AcDbDictionary
281
     1
  3
ACAD_CIP_PREVIOUS_PRODUCT_INFO
350
815
  3
ACAD_COLOR
350
63
  3
ACAD_DETAILVIEWSTYLE
350
6B
  3
ACAD_GROUP
350
D
  3
ACAD_LAYOUT
350
62
  3
ACAD_MATERIAL
350
10
  3
ACAD_MLEADERSTYLE
350
66
  3
ACAD_MLINESTYLE
350
5F
  3
ACAD_PLOTSETTINGS
350
61
  3
ACAD_PLOTSTYLENAME
350
E
  3
ACAD_SCALELIST
350
42
  3
ACAD_SECTIONVIEWSTYLE
350
68
  3
ACAD_TABLESTYLE
350
64
  3
ACAD_VISUALSTYLE
350
29
  3
ACDB_RECOMPOSE_DATA
350
8D5
  3
AcDbVariableDictionary
350
816
  3
DWGPROPS
350
8D6
  0
DICTIONARY
  5
828
330
135
100
AcDbDictionary
280
     1
281
     1
  3
ACAD_MLATT
360
82A
  3
ACAD_XREC_ROUNDTRIP
360
829
  0
DICTIONARY
  5
82D
330
187
100
AcDbDictionary
280
     1
281
     1
  3
ACAD_MLATT
360
82F
  3
ACAD_XREC_ROUNDTRIP
360
82E
  0
DICTIONARY
  5
830
330
188
100
AcDbDictionary
280
     1
281
     1
  3
ACAD_MLATT
360
832
  3
ACAD_XREC_ROUNDTRIP
360
831
  0
DICTIONARY
  5
833
330
189
100
AcDbDictionary
280
     1
281
     1
  3
ACAD_MLATT
360
835
  3
ACAD_XREC_ROUNDTRIP
360
834
  0
DICTIONARY
  5
836
330
18A
100
AcDbDictionary
280
     1
281
     1
  3
ACAD_MLATT
360
838
  3
ACAD_XREC_ROUNDTRIP
360
837
  0
DICTIONARY
  5
839
330
18B
100
AcDbDictionary
280
     1
281
     1
  3
ACAD_MLATT
360
83B
  3
ACAD_XREC_ROUNDTRIP
360
83A
  0
DICTIONARY
  5
83C
330
18C
100
AcDbDictionary
280
     1
281
     1
  3
ACAD_MLATT
360
83E
  3
ACAD_XREC_ROUNDTRIP
360
83D
  0
DICTIONARY
  5
83F
330
18D
100
AcDbDictionary
280
     1
281
     1
  3
ACAD_MLATT
360
841
  3
ACAD_XREC_ROUNDTRIP
360
840
  0
DICTIONARY
  5
842
330
18E
100
AcDbDictionary
280
     1
281
     1
  3
ACAD_MLATT
360
844
  3
ACAD_XREC_ROUNDTRIP
360
843
  0
DICTIONARY
  5
845
330
18F
100
AcDbDictionary
280
     1
281
     1
  3
ACAD_MLATT
360
847
  3
ACAD_XREC_ROUNDTRIP
360
846
  0
DICTIONARY
  5
848
330
190
100
AcDbDictionary
280
     1
281
     1
  3
ACAD_MLATT
360
84A
  3
ACAD_XREC_ROUNDTRIP
360
849
  0
DICTIONARY
  5
84B
330
191
100
AcDbDictionary
280
     1
281
     1
  3
ACAD_MLATT
360
84D
  3
ACAD_XREC_ROUNDTRIP
360
84C
  0
DICTIONARY
  5
84E
330
192
100
AcDbDictionary
280
     1
281
     1
  3
ACAD_MLATT
360
850
  3
ACAD_XREC_ROUNDTRIP
360
84F
  0
DICTIONARY
  5
851
330
193
100
AcDbDictionary
280
     1
281
     1
  3
ACAD_MLATT
360
853
  3
ACAD_XREC_ROUNDTRIP
360
852
  0
DICTIONARY
  5
854
330
194
100
AcDbDictionary
280
     1
281
     1
  3
ACAD_MLATT
360
856
  3
ACAD_XREC_ROUNDTRIP
360
855
  0
DICTIONARY
  5
857
330
195
100
AcDbDictionary
280
     1
281
     1
  3
ACAD_MLATT
360
859
  3
ACAD_XREC_ROUNDTRIP
360
858
  0
DICTIONARY
  5
85A
330
196
100
AcDbDictionary
280
     1
281
     1
  3
ACAD_MLATT
360
85C
  3
ACAD_XREC_ROUNDTRIP
360
85B
  0
DICTIONARY
  5
85D
330
197
100
AcDbDictionary
280
     1
281
     1
  3
ACAD_MLATT
360
85F
  3
ACAD_XREC_ROUNDTRIP
360
85E
  0
DICTIONARY
  5
860
330
198
100
AcDbDictionary
280
     1
281
     1
  3
ACAD_MLATT
360
862
  3
ACAD_XREC_ROUNDTRIP
360
861
  0
DICTIONARY
  5
863
330
199
100
AcDbDictionary
280
     1
281
     1
  3
ACAD_MLATT
360
865
  3
ACAD_XREC_ROUNDTRIP
360
864
  0
DICTIONARY
  5
866
330
19A
100
AcDbDictionary
280
     1
281
     1
  3
ACAD_MLATT
360
868
  3
ACAD_XREC_ROUNDTRIP
360
867
  0
DICTIONARY
  5
869
330
19B
100
AcDbDictionary
280
     1
281
     1
  3
ACAD_MLATT
360
86B
  3
ACAD_XREC_ROUNDTRIP
360
86A
  0
DICTIONARY
  5
86C
330
19C
100
AcDbDictionary
280
     1
281
     1
  3
ACAD_MLATT
360
86E
  3
ACAD_XREC_ROUNDTRIP
360
86D
  0
DICTIONARY
  5
86F
330
19E
100
AcDbDictionary
280
     1
281
     1
  3
ACAD_MLATT
360
871
  3
ACAD_XREC_ROUNDTRIP
360
870
  0
DICTIONARY
  5
872
330
1A0
100
AcDbDictionary
280
     1
281
     1
  3
ACAD_MLATT
360
874
  3
ACAD_XREC_ROUNDTRIP
360
873
  0
DICTIONARY
  5
875
330
1A1
100
AcDbDictionary
280
     1
281
     1
  3
ACAD_MLATT
360
877
  3
ACAD_XREC_ROUNDTRIP
360
876
  0
DICTIONARY
  5
878
330
1A3
100
AcDbDictionary
280
     1
281
     1
  3
ACAD_MLATT
360
87A
  3
ACAD_XREC_ROUNDTRIP
360
879
  0
DICTIONARY
  5
87B
330
1A4
100
AcDbDictionary
280
     1
281
     1
  3
ACAD_MLATT
360
87D
  3
ACAD_XREC_ROUNDTRIP
360
87C
  0
DICTIONARY
  5
87E
330
1A5
100
AcDbDictionary
280
     1
281
     1
  3
ACAD_MLATT
360
880
  3
ACAD_XREC_ROUNDTRIP
360
87F
  0
DICTIONARY
  5
881
330
1A8
100
AcDbDictionary
280
     1
281
     1
  3
ACAD_MLATT
360
883
  3
ACAD_XREC_ROUNDTRIP
360
882
  0
DICTIONARY
  5
884
330
1A9
100
AcDbDictionary
280
     1
281
     1
  3
ACAD_MLATT
360
886
  3
ACAD_XREC_ROUNDTRIP
360
885
  0
DICTIONARY
  5
887
330
1AA
100
AcDbDictionary
280
     1
281
     1
  3
ACAD_MLATT
360
889
  3
ACAD_XREC_ROUNDTRIP
360
888
  0
DICTIONARY
  5
88A
330
1AB
100
AcDbDictionary
280
     1
281
     1
  3
ACAD_MLATT
360
88C
  3
ACAD_XREC_ROUNDTRIP
360
88B
  0
DICTIONARY
  5
88D
330
1AC
100
AcDbDictionary
280
     1
281
     1
  3
ACAD_MLATT
360
88F
  3
ACAD_XREC_ROUNDTRIP
360
88E
  0
DICTIONARY
  5
890
330
1AD
100
AcDbDictionary
280
     1
281
     1
  3
ACAD_MLATT
360
892
  3
ACAD_XREC_ROUNDTRIP
360
891
  0
DICTIONARY
  5
893
330
1AE
100
AcDbDictionary
280
     1
281
     1
  3
ACAD_MLATT
360
895
  3
ACAD_XREC_ROUNDTRIP
360
894
  0
DICTIONARY
  5
896
330
1AF
100
AcDbDictionary
280
     1
281
     1
  3
ACAD_MLATT
360
898
  3
ACAD_XREC_ROUNDTRIP
360
897
  0
DICTIONARY
  5
899
330
1B0
100
AcDbDictionary
280
     1
281
     1
  3
ACAD_MLATT
360
89B
  3
ACAD_XREC_ROUNDTRIP
360
89A
  0
DICTIONARY
  5
89C
330
1B1
100
AcDbDictionary
280
     1
281
     1
  3
ACAD_MLATT
360
89E
  3
ACAD_XREC_ROUNDTRIP
360
89D
  0
DICTIONARY
  5
89F
330
1B2
100
AcDbDictionary
280
     1
281
     1
  3
ACAD_MLATT
360
8A1
  3
ACAD_XREC_ROUNDTRIP
360
8A0
  0
DICTIONARY
  5
8A2
330
1B3
100
AcDbDictionary
280
     1
281
     1
  3
ACAD_MLATT
360
8A4
  3
ACAD_XREC_ROUNDTRIP
360
8A3
  0
DICTIONARY
  5
8A5
330
1B4
100
AcDbDictionary
280
     1
281
     1
  3
ACAD_MLATT
360
8A7
  3
ACAD_XREC_ROUNDTRIP
360
8A6
  0
DICTIONARY
  5
8A8
330
1B5
100
AcDbDictionary
280
     1
281
     1
  3
ACAD_MLATT
360
8AA
  3
ACAD_XREC_ROUNDTRIP
360
8A9
  0
DICTIONARY
  5
8AB
330
1B6
100
AcDbDictionary
280
     1
281
     1
  3
ACAD_MLATT
360
8AD
  3
ACAD_XREC_ROUNDTRIP
360
8AC
  0
DICTIONARY
  5
8AE
330
1B7
100
AcDbDictionary
280
     1
281
     1
  3
ACAD_MLATT
360
8B0
  3
ACAD_XREC_ROUNDTRIP
360
8AF
  0
DICTIONARY
  5
8B1
330
1B8
100
AcDbDictionary
280
     1
281
     1
  3
ACAD_MLATT
360
8B3
  3
ACAD_XREC_ROUNDTRIP
360
8B2
  0
DICTIONARY
  5
8B4
330
1B9
100
AcDbDictionary
280
     1
281
     1
  3
ACAD_MLATT
360
8B6
  3
ACAD_XREC_ROUNDTRIP
360
8B5
  0
DICTIONARY
  5
8B7
330
1BA
100
AcDbDictionary
280
     1
281
     1
  3
ACAD_MLATT
360
8B9
  3
ACAD_XREC_ROUNDTRIP
360
8B8
  0
DICTIONARY
  5
8BA
330
1BB
100
AcDbDictionary
280
     1
281
     1
  3
ACAD_MLATT
360
8BC
  3
ACAD_XREC_ROUNDTRIP
360
8BB
  0
DICTIONARY
  5
8BD
330
1BC
100
AcDbDictionary
280
     1
281
     1
  3
ACAD_MLATT
360
8BF
  3
ACAD_XREC_ROUNDTRIP
360
8BE
  0
DICTIONARY
  5
8C0
330
1BD
100
AcDbDictionary
280
     1
281
     1
  3
ACAD_MLATT
360
8C2
  3
ACAD_XREC_ROUNDTRIP
360
8C1
  0
DICTIONARY
  5
8C3
330
1BE
100
AcDbDictionary
280
     1
281
     1
  3
ACAD_MLATT
360
8C5
  3
ACAD_XREC_ROUNDTRIP
360
8C4
  0
DICTIONARY
  5
8C6
330
1BF
100
AcDbDictionary
280
     1
281
     1
  3
ACAD_MLATT
360
8C8
  3
ACAD_XREC_ROUNDTRIP
360
8C7
  0
DICTIONARY
  5
8C9
330
1C0
100
AcDbDictionary
280
     1
281
     1
  3
ACAD_MLATT
360
8CB
  3
ACAD_XREC_ROUNDTRIP
360
8CA
  0
DICTIONARY
  5
8CC
330
1C1
100
AcDbDictionary
280
     1
281
     1
  3
ACAD_MLATT
360
8CE
  3
ACAD_XREC_ROUNDTRIP
360
8CD
  0
DICTIONARY
  5
8CF
330
1C2
100
AcDbDictionary
280
     1
281
     1
  3
ACAD_MLATT
360
8D1
  3
ACAD_XREC_ROUNDTRIP
360
8D0
  0
DICTIONARY
  5
8D2
330
1C3
100
AcDbDictionary
280
     1
281
     1
  3
ACAD_MLATT
360
8D4
  3
ACAD_XREC_ROUNDTRIP
360
8D3
  0
XRECORD
  5
815
102
{ACAD_REACTORS
330
C
102
}
330
C
100
AcDbXrecord
280
     1
300
INVNTOR
300
2013
300
PDSP_F_S
  0
DICTIONARY
  5
63
102
{ACAD_REACTORS
330
C
102
}
330
C
100
AcDbDictionary
281
     1
  0
DICTIONARY
  5
6B
102
{ACAD_REACTORS
330
C
102
}
330
C
100
AcDbDictionary
281
     1
  3
Imperial24
350
6C
  0
DICTIONARY
  5
D
102
{ACAD_REACTORS
330
C
102
}
330
C
100
AcDbDictionary
281
     1
  0
DICTIONARY
  5
62
102
{ACAD_REACTORS
330
C
102
}
330
C
100
AcDbDictionary
281
     1
  3
Layout1
350
70
  3
Layout2
350
78
  3
Model
350
74
  0
DICTIONARY
  5
10
102
{ACAD_REACTORS
330
C
102
}
330
C
100
AcDbDictionary
281
     1
  3
ByBlock
350
19
  3
ByLayer
350
11
  3
Global
350
21
  0
DICTIONARY
  5
66
102
{ACAD_REACTORS
330
C
102
}
330
C
100
AcDbDictionary
281
     1
  3
Standard
350
67
  0
DICTIONARY
  5
5F
102
{ACAD_REACTORS
330
C
102
}
330
C
100
AcDbDictionary
281
     1
  3
Standard
350
60
  0
DICTIONARY
  5
61
102
{ACAD_REACTORS
330
C
102
}
330
C
100
AcDbDictionary
281
     1
  0
ACDBDICTIONARYWDFLT
  5
E
102
{ACAD_REACTORS
330
C
102
}
330
C
100
AcDbDictionary
281
     1
  3
Normal
350
F
100
AcDbDictionaryWithDefault
340
F
  0
DICTIONARY
  5
42
102
{ACAD_REACTORS
330
C
102
}
330
C
100
AcDbDictionary
281
     1
  3
A0
350
43
  3
A1
350
44
  3
A2
350
45
  3
A3
350
46
  3
A4
350
47
  3
A5
350
48
  3
A6
350
49
  3
A7
350
4A
  3
A8
350
4B
  3
A9
350
4C
  3
B0
350
4D
  3
B1
350
4E
  3
B2
350
4F
  3
B3
350
50
  3
B4
350
51
  3
B5
350
52
  3
B6
350
53
  0
DICTIONARY
  5
68
102
{ACAD_REACTORS
330
C
102
}
330
C
100
AcDbDictionary
281
     1
  3
Imperial24
350
6A
  0
DICTIONARY
  5
64
102
{ACAD_REACTORS
330
C
102
}
330
C
100
AcDbDictionary
281
     1
  3
Standard
350
65
  0
DICTIONARY
  5
29
102
{ACAD_REACTORS
330
C
102
}
330
C
100
AcDbDictionary
281
     1
  3
2dWireframe
350
2F
  3
Basic
350
2E
  3
Brighten
350
35
  3
ColorChange
350
39
  3
Conceptual
350
32
  3
Dim
350
34
  3
EdgeColorOff
350
41
  3
Facepattern
350
38
  3
Flat
350
2A
  3
FlatWithEdges
350
2B
  3
Gouraud
350
2C
  3
GouraudWithEdges
350
2D
  3
Hidden
350
31
  3
JitterOff
350
3F
  3
Linepattern
350
37
  3
OverhangOff
350
40
  3
Realistic
350
33
  3
Shaded
350
3E
  3
Shaded with edges
350
3D
  3
Shades of Gray
350
3A
  3
Sketchy
350
3B
  3
Thicken
350
36
  3
Wireframe
350
30
  3
X-Ray
350
3C
  0
XRECORD
  5
8D5
102
{ACAD_REACTORS
330
C
102
}
330
C
100
AcDbXrecord
280
     1
 90
        1
330
65
330
135
330
187
330
188
330
189
330
18A
330
18B
330
18C
330
18D
330
18E
330
18F
330
190
330
191
330
192
330
193
330
194
330
195
330
196
330
197
330
198
330
199
330
19A
330
19B
330
19C
330
19E
330
1A0
330
1A1
330
1A3
330
1A4
330
1A5
330
1A8
330
1A9
330
1AA
330
1AB
330
1AC
330
1AD
330
1AE
330
1AF
330
1B0
330
1B1
330
1B2
330
1B3
330
1B4
330
1B5
330
1B6
330
1B7
330
1B8
330
1B9
330
1BA
330
1BB
330
1BC
330
1BD
330
1BE
330
1BF
330
1C0
330
1C1
330
1C2
330
1C3
  0
DICTIONARY
  5
816
102
{ACAD_REACTORS
330
C
102
}
330
C
100
AcDbDictionary
281
     1
  3
CANNOSCALE
350
81C
  3
CMLEADERSTYLE
350
818
  3
CTABLESTYLE
350
817
  3
CVIEWDETAILSTYLE
350
819
  3
CVIEWSECTIONSTYLE
350
81A
  3
DIMASSOC
350
823
  3
HIDETEXT
350
822
  3
INDEXCTL
350
821
  3
LAYEREVAL
350
81E
  3
LAYERNOTIFY
350
81F
  3
LIGHTINGUNITS
350
81D
  3
MSLTSCALE
350
81B
  3
SORTENTS
350
820
  3
XCLIPFRAME
350
824
  0
XRECORD
  5
8D6
102
{ACAD_REACTORS
330
C
102
}
330
C
100
AcDbXrecord
280
     1
  1
DWGPROPS COOKIE
  2

  3

  4
haertel
  6

  7

  8

  9
1
300
Manager=
301
Firma=
302
Kategorie=
303
Bauteilnummer=2503577
304
Bezeichnung=
305
Projekt=
306
Konstrukteur=haertel
307
Ingenieur=
308
Bevollmächtigter=
309
Kostenstelle=
 40
0.0000578356481481
 41
2456521.371088125
 42
2456521.371088125
  1

 90
       43
300
Zulieferer=
300
Benutzerstatus=
300
Konstruktionsstatus=InBearbeitung
300
Kontrolliert von=
300
Konstruktion genehmigt von=
300
Fertigung genehmigt von=
300
01-Material=
300
02-Maßstab=1:1
300
03-Zchn.Nr.=3K 5390.137.01
300
04-Zchn-Nr.(2.Zeile)=
300
05-Zus. Zchn=
300
06-Zus. Zchn (2.Zeile)=
300
10-Ä-Nr. -1-=
300
11-Ä-Nr. -2-=
300
30-Entwicklungsstand=08/01/2013
300
12-Ä-Nr. -3-=
300
13-Ä-Nr. -4-=
300
14-Ä-Nr. -5-=
300
15-Ä-Nr. -6-=
300
16-Ä-Nr. -7-=
300
17-Ä-Nr. -8-=
300
18-Ä-Nr. -9-=
300
19-Ä-Nr. -10-=
300
20-Ä-Nr. -11-=
300
21-Ä-Nr. -12-=
300
25-ges. Blattanzahl=1
300
40-Artikel-Nr.=
300
50-Namenskürzel=KH
300
01-Material (2.Zeile)=
300
07-Artikel-Modell=BOCUBE
300
08-Artikel-Benennung=B M 1808
300
09-Artikel-Benennung (2.Zeile)=Katalogzg./Catalogue draw.
300
055-Bem. erstellt n. Kd-Zchng.=
  0
XRECORD
  5
82A
102
{ACAD_REACTORS
330
828
102
}
330
828
100
AcDbXrecord
280
     1
 70
     4
 70
     0
 70
     0
 40
1.0
  2
30-Entwicklungsstand
  1
Embedded Object
 10
-34.00000000000006
 20
10.49999994039535
 30
0.0
 40
3.499999940395355
 41
0.0
 46
0.0
 71
     1
 72
     5
  1
\W1.2500;01.08.2013
  7
Textstil159
 73
     1
 44
1.0
  0
XRECORD
  5
829
102
{ACAD_REACTORS
330
828
102
}
330
828
100
AcDbXrecord
280
     1
102
ACAD_MATT_HEIGHT
140
3.499999940395355
  0
XRECORD
  5
82F
102
{ACAD_REACTORS
330
82D
102
}
330
82D
100
AcDbXrecord
280
     1
 70
     4
 70
     0
 70
     0
 40
1.0
  2
14-Datum_-5-
  1
Embedded Object
 10
324.4841608643612
 20
41.05672887518403
 30
0.0
 40
2.000000029802322
 41
0.0
 46
0.0
 71
     1
 72
     5
  1
\W1.4000;
  7
Textstil144
 73
     1
 44
1.0
  0
XRECORD
  5
82E
102
{ACAD_REACTORS
330
82D
102
}
330
82D
100
AcDbXrecord
280
     1
102
ACAD_MATT_HEIGHT
140
2.000000029802322
  0
XRECORD
  5
832
102
{ACAD_REACTORS
330
830
102
}
330
830
100
AcDbXrecord
280
     1
 70
     4
 70
     0
 70
     0
 40
1.0
  2
11-Datum_-2-
  1
Embedded Object
 10
324.4841608643612
 20
33.55672887518404
 30
0.0
 40
2.000000029802322
 41
0.0
 46
0.0
 71
     1
 72
     5
  1
\W1.4000;
  7
Textstil144
 73
     1
 44
1.0
  0
XRECORD
  5
831
102
{ACAD_REACTORS
330
830
102
}
330
830
100
AcDbXrecord
280
     1
102
ACAD_MATT_HEIGHT
140
2.000000029802322
  0
XRECORD
  5
835
102
{ACAD_REACTORS
330
833
102
}
330
833
100
AcDbXrecord
280
     1
 70
     4
 70
     0
 70
     0
 40
1.0
  2
12-Datum_-3-
  1
Embedded Object
 10
324.4841608643612
 20
36.05672887518404
 30
0.0
 40
2.000000029802322
 41
0.0
 46
0.0
 71
     1
 72
     5
  1
\W1.4000;
  7
Textstil144
 73
     1
 44
1.0
  0
XRECORD
  5
834
102
{ACAD_REACTORS
330
833
102
}
330
833
100
AcDbXrecord
280
     1
102
ACAD_MATT_HEIGHT
140
2.000000029802322
  0
XRECORD
  5
838
102
{ACAD_REACTORS
330
836
102
}
330
836
100
AcDbXrecord
280
     1
 70
     4
 70
     0
 70
     0
 40
1.0
  2
13-Datum_-4-
  1
Embedded Object
 10
324.4841608643612
 20
38.55672887518404
 30
0.0
 40
2.000000029802322
 41
0.0
 46
0.0
 71
     1
 72
     5
  1
\W1.4000;
  7
Textstil144
 73
     1
 44
1.0
  0
XRECORD
  5
837
102
{ACAD_REACTORS
330
836
102
}
330
836
100
AcDbXrecord
280
     1
102
ACAD_MATT_HEIGHT
140
2.000000029802322
  0
XRECORD
  5
83B
102
{ACAD_REACTORS
330
839
102
}
330
839
100
AcDbXrecord
280
     1
 70
     4
 70
     0
 70
     0
 40
1.0
  2
10-Datum_-1-
  1
Embedded Object
 10
324.4841608643612
 20
31.05672887518404
 30
0.0
 40
2.000000029802322
 41
0.0
 46
0.0
 71
     1
 72
     5
  1
\W1.4000;
  7
Textstil144
 73
     1
 44
1.0
  0
XRECORD
  5
83A
102
{ACAD_REACTORS
330
839
102
}
330
839
100
AcDbXrecord
280
     1
102
ACAD_MATT_HEIGHT
140
2.000000029802322
  0
XRECORD
  5
83E
102
{ACAD_REACTORS
330
83C
102
}
330
83C
100
AcDbXrecord
280
     1
 70
     4
 70
     0
 70
     0
 40
1.0
  2
16-Datum_-7-
  1
Embedded Object
 10
324.4841608643612
 20
46.05672887518403
 30
0.0
 40
2.000000029802322
 41
0.0
 46
0.0
 71
     1
 72
     5
  1
\W1.4000;
  7
Textstil144
 73
     1
 44
1.0
  0
XRECORD
  5
83D
102
{ACAD_REACTORS
330
83C
102
}
330
83C
100
AcDbXrecord
280
     1
102
ACAD_MATT_HEIGHT
140
2.000000029802322
  0
XRECORD
  5
841
102
{ACAD_REACTORS
330
83F
102
}
330
83F
100
AcDbXrecord
280
     1
 70
     4
 70
     0
 70
     0
 40
1.0
  2
17-Datum_-8-
  1
Embedded Object
 10
324.4841608643612
 20
48.55672887518403
 30
0.0
 40
2.000000029802322
 41
0.0
 46
0.0
 71
     1
 72
     5
  1
\W1.4000;
  7
Textstil144
 73
     1
 44
1.0
  0
XRECORD
  5
840
102
{ACAD_REACTORS
330
83F
102
}
330
83F
100
AcDbXrecord
280
     1
102
ACAD_MATT_HEIGHT
140
2.000000029802322
  0
XRECORD
  5
844
102
{ACAD_REACTORS
330
842
102
}
330
842
100
AcDbXrecord
280
     1
 70
     4
 70
     0
 70
     0
 40
1.0
  2
15-Datum_-6-
  1
Embedded Object
 10
324.4841608643612
 20
43.55672887518403
 30
0.0
 40
2.000000029802322
 41
0.0
 46
0.0
 71
     1
 72
     5
  1
\W1.4000;
  7
Textstil144
 73
     1
 44
1.0
  0
XRECORD
  5
843
102
{ACAD_REACTORS
330
842
102
}
330
842
100
AcDbXrecord
280
     1
102
ACAD_MATT_HEIGHT
140
2.000000029802322
  0
XRECORD
  5
847
102
{ACAD_REACTORS
330
845
102
}
330
845
100
AcDbXrecord
280
     1
 70
     4
 70
     0
 70
     0
 40
1.0
  2
14-Ä-Nr._-5-
  1
Embedded Object
 10
309.4841608643612
 20
41.05672887518403
 30
0.0
 40
2.000000029802322
 41
0.0
 46
0.0
 71
     1
 72
     5
  1
\W1.4000;
  7
Textstil144
 73
     1
 44
1.0
  0
XRECORD
  5
846
102
{ACAD_REACTORS
330
845
102
}
330
845
100
AcDbXrecord
280
     1
102
ACAD_MATT_HEIGHT
140
2.000000029802322
  0
XRECORD
  5
84A
102
{ACAD_REACTORS
330
848
102
}
330
848
100
AcDbXrecord
280
     1
 70
     4
 70
     0
 70
     0
 40
1.0
  2
11-Ä-Nr._-2-
  1
Embedded Object
 10
309.4841608643612
 20
33.55672887518404
 30
0.0
 40
2.000000029802322
 41
0.0
 46
0.0
 71
     1
 72
     5
  1
\W1.4000;
  7
Textstil144
 73
     1
 44
1.0
  0
XRECORD
  5
849
102
{ACAD_REACTORS
330
848
102
}
330
848
100
AcDbXrecord
280
     1
102
ACAD_MATT_HEIGHT
140
2.000000029802322
  0
XRECORD
  5
84D
102
{ACAD_REACTORS
330
84B
102
}
330
84B
100
AcDbXrecord
280
     1
 70
     4
 70
     0
 70
     0
 40
1.0
  2
12-Ä-Nr._-3-
  1
Embedded Object
 10
309.4841608643611
 20
36.05672887518404
 30
0.0
 40
2.000000029802322
 41
0.0
 46
0.0
 71
     1
 72
     5
  1
\W1.4000;
  7
Textstil144
 73
     1
 44
1.0
  0
XRECORD
  5
84C
102
{ACAD_REACTORS
330
84B
102
}
330
84B
100
AcDbXrecord
280
     1
102
ACAD_MATT_HEIGHT
140
2.000000029802322
  0
XRECORD
  5
850
102
{ACAD_REACTORS
330
84E
102
}
330
84E
100
AcDbXrecord
280
     1
 70
     4
 70
     0
 70
     0
 40
1.0
  2
13-Ä-Nr._-4-
  1
Embedded Object
 10
309.4841608643612
 20
38.55672887518404
 30
0.0
 40
2.000000029802322
 41
0.0
 46
0.0
 71
     1
 72
     5
  1
\W1.4000;
  7
Textstil144
 73
     1
 44
1.0
  0
XRECORD
  5
84F
102
{ACAD_REACTORS
330
84E
102
}
330
84E
100
AcDbXrecord
280
     1
102
ACAD_MATT_HEIGHT
140
2.000000029802322
  0
XRECORD
  5
853
102
{ACAD_REACTORS
330
851
102
}
330
851
100
AcDbXrecord
280
     1
 70
     4
 70
     0
 70
     0
 40
1.0
  2
10-Ä-Nr._-1-
  1
Embedded Object
 10
309.4841608643612
 20
31.05672887518404
 30
0.0
 40
2.000000029802322
 41
0.0
 46
0.0
 71
     1
 72
     5
  1
\W1.4000;
  7
Textstil144
 73
     1
 44
1.0
  0
XRECORD
  5
852
102
{ACAD_REACTORS
330
851
102
}
330
851
100
AcDbXrecord
280
     1
102
ACAD_MATT_HEIGHT
140
2.000000029802322
  0
XRECORD
  5
856
102
{ACAD_REACTORS
330
854
102
}
330
854
100
AcDbXrecord
280
     1
 70
     4
 70
     0
 70
     0
 40
1.0
  2
16-Ä-Nr._-7-
  1
Embedded Object
 10
309.4841608643612
 20
46.05672887518403
 30
0.0
 40
2.000000029802322
 41
0.0
 46
0.0
 71
     1
 72
     5
  1
\W1.4000;
  7
Textstil144
 73
     1
 44
1.0
  0
XRECORD
  5
855
102
{ACAD_REACTORS
330
854
102
}
330
854
100
AcDbXrecord
280
     1
102
ACAD_MATT_HEIGHT
140
2.000000029802322
  0
XRECORD
  5
859
102
{ACAD_REACTORS
330
857
102
}
330
857
100
AcDbXrecord
280
     1
 70
     4
 70
     0
 70
     0
 40
1.0
  2
17-Ä-Nr._-8-
  1
Embedded Object
 10
309.4841608643612
 20
48.55672887518403
 30
0.0
 40
2.000000029802322
 41
0.0
 46
0.0
 71
     1
 72
     5
  1
\W1.4000;
  7
Textstil144
 73
     1
 44
1.0
  0
XRECORD
  5
858
102
{ACAD_REACTORS
330
857
102
}
330
857
100
AcDbXrecord
280
     1
102
ACAD_MATT_HEIGHT
140
2.000000029802322
  0
XRECORD
  5
85C
102
{ACAD_REACTORS
330
85A
102
}
330
85A
100
AcDbXrecord
280
     1
 70
     4
 70
     0
 70
     0
 40
1.0
  2
15-Ä-Nr._-6-
  1
Embedded Object
 10
309.4841608643612
 20
43.55672887518403
 30
0.0
 40
2.000000029802322
 41
0.0
 46
0.0
 71
     1
 72
     5
  1
\W1.4000;
  7
Textstil144
 73
     1
 44
1.0
  0
XRECORD
  5
85B
102
{ACAD_REACTORS
330
85A
102
}
330
85A
100
AcDbXrecord
280
     1
102
ACAD_MATT_HEIGHT
140
2.000000029802322
  0
XRECORD
  5
85F
102
{ACAD_REACTORS
330
85D
102
}
330
85D
100
AcDbXrecord
280
     1
 70
     4
 70
     0
 70
     0
 40
1.0
  2
DATEINAME
  1
Embedded Object
 10
334.4841608643612
 20
19.30672884538171
 30
0.0
 40
2.5
 41
0.0
 46
0.0
 71
     1
 72
     5
  1
\W1.2000;2503577.idw
  7
Textstil68
 73
     1
 44
1.0
  0
XRECORD
  5
85E
102
{ACAD_REACTORS
330
85D
102
}
330
85D
100
AcDbXrecord
280
     1
102
ACAD_MATT_HEIGHT
140
2.5
  0
XRECORD
  5
862
102
{ACAD_REACTORS
330
860
102
}
330
860
100
AcDbXrecord
280
     1
 70
     4
 70
     0
 70
     0
 40
1.0
  2
ERSTELLUNGSDATUM
  1
Embedded Object
 10
334.4841608643612
 20
15.05672884538171
 30
0.0
 40
2.5
 41
0.0
 46
0.0
 71
     1
 72
     5
  1
\W1.2000;01.08.2013
  7
Textstil68
 73
     1
 44
1.0
  0
XRECORD
  5
861
102
{ACAD_REACTORS
330
860
102
}
330
860
100
AcDbXrecord
280
     1
102
ACAD_MATT_HEIGHT
140
2.5
  0
XRECORD
  5
865
102
{ACAD_REACTORS
330
863
102
}
330
863
100
AcDbXrecord
280
     1
 70
     4
 70
     0
 70
     0
 40
1.0
  2
19-Datum_-10-
  1
Embedded Object
 10
324.4841608643612
 20
53.55672887518403
 30
0.0
 40
2.000000029802322
 41
0.0
 46
0.0
 71
     1
 72
     5
  1
\W1.4000;
  7
Textstil144
 73
     1
 44
1.0
  0
XRECORD
  5
864
102
{ACAD_REACTORS
330
863
102
}
330
863
100
AcDbXrecord
280
     1
102
ACAD_MATT_HEIGHT
140
2.000000029802322
  0
XRECORD
  5
868
102
{ACAD_REACTORS
330
866
102
}
330
866
100
AcDbXrecord
280
     1
 70
     4
 70
     0
 70
     0
 40
1.0
  2
18-Datum_-9-
  1
Embedded Object
 10
324.4841608643612
 20
51.05672887518403
 30
0.0
 40
2.000000029802322
 41
0.0
 46
0.0
 71
     1
 72
     5
  1
\W1.4000;
  7
Textstil144
 73
     1
 44
1.0
  0
XRECORD
  5
867
102
{ACAD_REACTORS
330
866
102
}
330
866
100
AcDbXrecord
280
     1
102
ACAD_MATT_HEIGHT
140
2.000000029802322
  0
XRECORD
  5
86B
102
{ACAD_REACTORS
330
869
102
}
330
869
100
AcDbXrecord
280
     1
 70
     4
 70
     0
 70
     0
 40
1.0
  2
19-Ä-Nr._-10-
  1
Embedded Object
 10
309.4841608643612
 20
53.55672887518403
 30
0.0
 40
2.000000029802322
 41
0.0
 46
0.0
 71
     1
 72
     5
  1
\W1.4000;
  7
Textstil144
 73
     1
 44
1.0
  0
XRECORD
  5
86A
102
{ACAD_REACTORS
330
869
102
}
330
869
100
AcDbXrecord
280
     1
102
ACAD_MATT_HEIGHT
140
2.000000029802322
  0
XRECORD
  5
86E
102
{ACAD_REACTORS
330
86C
102
}
330
86C
100
AcDbXrecord
280
     1
 70
     4
 70
     0
 70
     0
 40
1.0
  2
18-Ä-Nr._-9-
  1
Embedded Object
 10
309.4841608643612
 20
51.05672887518403
 30
0.0
 40
2.000000029802322
 41
0.0
 46
0.0
 71
     1
 72
     5
  1
\W1.4000;
  7
Textstil144
 73
     1
 44
1.0
  0
XRECORD
  5
86D
102
{ACAD_REACTORS
330
86C
102
}
330
86C
100
AcDbXrecord
280
     1
102
ACAD_MATT_HEIGHT
140
2.000000029802322
  0
XRECORD
  5
871
102
{ACAD_REACTORS
330
86F
102
}
330
86F
100
AcDbXrecord
280
     1
 70
     4
 70
     0
 70
     0
 40
1.0
  2
07-Artikel-Modell
  1
Embedded Object
 10
309.9841608643611
 20
75.79150051429772
 30
0.0
 40
3.98477166891098
 41
0.0
 46
0.0
 71
     1
 72
     5
  1
\W1.4000;BOCUBE
  7
Textstil243
 73
     1
 44
1.0
  0
XRECORD
  5
870
102
{ACAD_REACTORS
330
86F
102
}
330
86F
100
AcDbXrecord
280
     1
102
ACAD_MATT_HEIGHT
140
3.98477166891098
  0
XRECORD
  5
874
102
{ACAD_REACTORS
330
872
102
}
330
872
100
AcDbXrecord
280
     1
 70
     4
 70
     0
 70
     0
 40
1.0
  2
03-Zchn.Nr.
  1
Embedded Object
 10
332.4841608643612
 20
92.3067289049864
 30
0.0
 40
4.000000059604644
 41
0.0
 46
0.0
 71
     1
 72
     5
  1
\W1.4000;3K 5390.137.01
  7
Textstil143
 73
     1
 44
1.0
  0
XRECORD
  5
873
102
{ACAD_REACTORS
330
872
102
}
330
872
100
AcDbXrecord
280
     1
102
ACAD_MATT_HEIGHT
140
4.000000059604644
  0
XRECORD
  5
877
102
{ACAD_REACTORS
330
875
102
}
330
875
100
AcDbXrecord
280
     1
 70
     4
 70
     0
 70
     0
 40
1.0
  2
50-Namenskürzel
  1
Embedded Object
 10
354.4841608643611
 20
15.05672884538171
 30
0.0
 40
2.5
 41
0.0
 46
0.0
 71
     1
 72
     5
  1
\W1.2000;KH
  7
Textstil68
 73
     1
 44
1.0
  0
XRECORD
  5
876
102
{ACAD_REACTORS
330
875
102
}
330
875
100
AcDbXrecord
280
     1
102
ACAD_MATT_HEIGHT
140
2.5
  0
XRECORD
  5
87A
102
{ACAD_REACTORS
330
878
102
}
330
878
100
AcDbXrecord
280
     1
 70
     4
 70
     0
 70
     0
 40
1.0
  2
02-Maßstab
  1
Embedded Object
 10
332.4841608643611
 20
107.8067289049863
 30
0.0
 40
4.000000059604644
 41
41.21706962585449
 46
0.0
 71
     1
 72
     5
  1
\W1.2000;1:1
  7
Textstil242
 73
     1
 44
1.0
  0
XRECORD
  5
879
102
{ACAD_REACTORS
330
878
102
}
330
878
100
AcDbXrecord
280
     1
102
ACAD_MATT_HEIGHT
140
4.000000059604644
  0
XRECORD
  5
87D
102
{ACAD_REACTORS
330
87B
102
}
330
87B
100
AcDbXrecord
280
     1
 70
     4
 70
     0
 70
     0
 40
1.0
  2
08-Artikel-Benennung
  1
Embedded Object
 10
309.9841608643611
 20
68.80672890499138
 30
0.0
 40
4.000000059604644
 41
0.0
 46
0.0
 71
     1
 72
     5
  1
\W1.4000;B M 1808
  7
Textstil143
 73
     1
 44
1.0
  0
XRECORD
  5
87C
102
{ACAD_REACTORS
330
87B
102
}
330
87B
100
AcDbXrecord
280
     1
102
ACAD_MATT_HEIGHT
140
4.000000059604644
  0
XRECORD
  5
880
102
{ACAD_REACTORS
330
87E
102
}
330
87E
100
AcDbXrecord
280
     1
 70
     4
 70
     0
 70
     0
 40
1.0
  2
09-Artikel-Benennung_(2.Zeile)
  1
Embedded Object
 10
309.9841608643611
 20
61.79150051429772
 30
0.0
 40
3.98477166891098
 41
0.0
 46
0.0
 71
     1
 72
     5
  1
\W1.4000;Katalogzg./Catalogue draw.
  7
Textstil243
 73
     1
 44
1.0
  0
XRECORD
  5
87F
102
{ACAD_REACTORS
330
87E
102
}
330
87E
100
AcDbXrecord
280
     1
102
ACAD_MATT_HEIGHT
140
3.98477166891098
  0
XRECORD
  5
883
102
{ACAD_REACTORS
330
881
102
}
330
881
100
AcDbXrecord
280
     1
 70
     2
 70
     0
 70
     0
 40
1.0
  2
14-Datum_-5-
  1
Embedded Object
 10
332.000000394102
 20
34.75000002980233
 30
0.0
 40
2.000000029802322
 41
0.0
 46
0.0
 71
     1
 72
     5
  1
\W1.4000;
  7
Textstil144
 73
     1
 44
1.0
  0
XRECORD
  5
882
102
{ACAD_REACTORS
330
881
102
}
330
881
100
AcDbXrecord
280
     1
102
ACAD_MATT_HEIGHT
140
2.000000029802322
  0
XRECORD
  5
886
102
{ACAD_REACTORS
330
884
102
}
330
884
100
AcDbXrecord
280
     1
 70
     2
 70
     0
 70
     0
 40
1.0
  2
11-Datum_-2-
  1
Embedded Object
 10
332.000000394102
 20
27.25000002980233
 30
0.0
 40
2.000000029802322
 41
0.0
 46
0.0
 71
     1
 72
     5
  1
\W1.4000;
  7
Textstil144
 73
     1
 44
1.0
  0
XRECORD
  5
885
102
{ACAD_REACTORS
330
884
102
}
330
884
100
AcDbXrecord
280
     1
102
ACAD_MATT_HEIGHT
140
2.000000029802322
  0
XRECORD
  5
889
102
{ACAD_REACTORS
330
887
102
}
330
887
100
AcDbXrecord
280
     1
 70
     2
 70
     0
 70
     0
 40
1.0
  2
12-Datum_-3-
  1
Embedded Object
 10
332.000000394102
 20
29.75000002980232
 30
0.0
 40
2.000000029802322
 41
0.0
 46
0.0
 71
     1
 72
     5
  1
\W1.4000;
  7
Textstil144
 73
     1
 44
1.0
  0
XRECORD
  5
888
102
{ACAD_REACTORS
330
887
102
}
330
887
100
AcDbXrecord
280
     1
102
ACAD_MATT_HEIGHT
140
2.000000029802322
  0
XRECORD
  5
88C
102
{ACAD_REACTORS
330
88A
102
}
330
88A
100
AcDbXrecord
280
     1
 70
     2
 70
     0
 70
     0
 40
1.0
  2
13-Datum_-4-
  1
Embedded Object
 10
332.000000394102
 20
32.25000002980233
 30
0.0
 40
2.000000029802322
 41
0.0
 46
0.0
 71
     1
 72
     5
  1
\W1.4000;
  7
Textstil144
 73
     1
 44
1.0
  0
XRECORD
  5
88B
102
{ACAD_REACTORS
330
88A
102
}
330
88A
100
AcDbXrecord
280
     1
102
ACAD_MATT_HEIGHT
140
2.000000029802322
  0
XRECORD
  5
88F
102
{ACAD_REACTORS
330
88D
102
}
330
88D
100
AcDbXrecord
280
     1
 70
     2
 70
     0
 70
     0
 40
1.0
  2
10-Datum_-1-
  1
Embedded Object
 10
332.000000394102
 20
24.75000002980233
 30
0.0
 40
2.000000029802322
 41
0.0
 46
0.0
 71
     1
 72
     5
  1
\W1.4000;
  7
Textstil144
 73
     1
 44
1.0
  0
XRECORD
  5
88E
102
{ACAD_REACTORS
330
88D
102
}
330
88D
100
AcDbXrecord
280
     1
102
ACAD_MATT_HEIGHT
140
2.000000029802322
  0
XRECORD
  5
892
102
{ACAD_REACTORS
330
890
102
}
330
890
100
AcDbXrecord
280
     1
 70
     2
 70
     0
 70
     0
 40
1.0
  2
16-Datum_-7-
  1
Embedded Object
 10
332.000000394102
 20
39.75000002980232
 30
0.0
 40
2.000000029802322
 41
0.0
 46
0.0
 71
     1
 72
     5
  1
\W1.4000;
  7
Textstil144
 73
     1
 44
1.0
  0
XRECORD
  5
891
102
{ACAD_REACTORS
330
890
102
}
330
890
100
AcDbXrecord
280
     1
102
ACAD_MATT_HEIGHT
140
2.000000029802322
  0
XRECORD
  5
895
102
{ACAD_REACTORS
330
893
102
}
330
893
100
AcDbXrecord
280
     1
 70
     2
 70
     0
 70
     0
 40
1.0
  2
17-Datum_-8-
  1
Embedded Object
 10
332.000000394102
 20
42.25000002980232
 30
0.0
 40
2.000000029802322
 41
0.0
 46
0.0
 71
     1
 72
     5
  1
\W1.4000;
  7
Textstil144
 73
     1
 44
1.0
  0
XRECORD
  5
894
102
{ACAD_REACTORS
330
893
102
}
330
893
100
AcDbXrecord
280
     1
102
ACAD_MATT_HEIGHT
140
2.000000029802322
  0
XRECORD
  5
898
102
{ACAD_REACTORS
330
896
102
}
330
896
100
AcDbXrecord
280
     1
 70
     2
 70
     0
 70
     0
 40
1.0
  2
15-Datum_-6-
  1
Embedded Object
 10
332.000000394102
 20
37.25000002980233
 30
0.0
 40
2.000000029802322
 41
0.0
 46
0.0
 71
     1
 72
     5
  1
\W1.4000;
  7
Textstil144
 73
     1
 44
1.0
  0
XRECORD
  5
897
102
{ACAD_REACTORS
330
896
102
}
330
896
100
AcDbXrecord
280
     1
102
ACAD_MATT_HEIGHT
140
2.000000029802322
  0
XRECORD
  5
89B
102
{ACAD_REACTORS
330
899
102
}
330
899
100
AcDbXrecord
280
     1
 70
     2
 70
     0
 70
     0
 40
1.0
  2
14-Ä-Nr._-5-
  1
Embedded Object
 10
317.000000394102
 20
34.75000002980233
 30
0.0
 40
2.000000029802322
 41
0.0
 46
0.0
 71
     1
 72
     5
  1
\W1.4000;
  7
Textstil144
 73
     1
 44
1.0
  0
XRECORD
  5
89A
102
{ACAD_REACTORS
330
899
102
}
330
899
100
AcDbXrecord
280
     1
102
ACAD_MATT_HEIGHT
140
2.000000029802322
  0
XRECORD
  5
89E
102
{ACAD_REACTORS
330
89C
102
}
330
89C
100
AcDbXrecord
280
     1
 70
     2
 70
     0
 70
     0
 40
1.0
  2
11-Ä-Nr._-2-
  1
Embedded Object
 10
317.000000394102
 20
27.25000002980233
 30
0.0
 40
2.000000029802322
 41
0.0
 46
0.0
 71
     1
 72
     5
  1
\W1.4000;
  7
Textstil144
 73
     1
 44
1.0
  0
XRECORD
  5
89D
102
{ACAD_REACTORS
330
89C
102
}
330
89C
100
AcDbXrecord
280
     1
102
ACAD_MATT_HEIGHT
140
2.000000029802322
  0
XRECORD
  5
8A1
102
{ACAD_REACTORS
330
89F
102
}
330
89F
100
AcDbXrecord
280
     1
 70
     2
 70
     0
 70
     0
 40
1.0
  2
12-Ä-Nr._-3-
  1
Embedded Object
 10
317.0000003941019
 20
29.75000002980232
 30
0.0
 40
2.000000029802322
 41
0.0
 46
0.0
 71
     1
 72
     5
  1
\W1.4000;
  7
Textstil144
 73
     1
 44
1.0
  0
XRECORD
  5
8A0
102
{ACAD_REACTORS
330
89F
102
}
330
89F
100
AcDbXrecord
280
     1
102
ACAD_MATT_HEIGHT
140
2.000000029802322
  0
XRECORD
  5
8A4
102
{ACAD_REACTORS
330
8A2
102
}
330
8A2
100
AcDbXrecord
280
     1
 70
     2
 70
     0
 70
     0
 40
1.0
  2
13-Ä-Nr._-4-
  1
Embedded Object
 10
317.000000394102
 20
32.25000002980233
 30
0.0
 40
2.000000029802322
 41
0.0
 46
0.0
 71
     1
 72
     5
  1
\W1.4000;
  7
Textstil144
 73
     1
 44
1.0
  0
XRECORD
  5
8A3
102
{ACAD_REACTORS
330
8A2
102
}
330
8A2
100
AcDbXrecord
280
     1
102
ACAD_MATT_HEIGHT
140
2.000000029802322
  0
XRECORD
  5
8A7
102
{ACAD_REACTORS
330
8A5
102
}
330
8A5
100
AcDbXrecord
280
     1
 70
     2
 70
     0
 70
     0
 40
1.0
  2
10-Ä-Nr._-1-
  1
Embedded Object
 10
317.000000394102
 20
24.75000002980233
 30
0.0
 40
2.000000029802322
 41
0.0
 46
0.0
 71
     1
 72
     5
  1
\W1.4000;
  7
Textstil144
 73
     1
 44
1.0
  0
XRECORD
  5
8A6
102
{ACAD_REACTORS
330
8A5
102
}
330
8A5
100
AcDbXrecord
280
     1
102
ACAD_MATT_HEIGHT
140
2.000000029802322
  0
XRECORD
  5
8AA
102
{ACAD_REACTORS
330
8A8
102
}
330
8A8
100
AcDbXrecord
280
     1
 70
     2
 70
     0
 70
     0
 40
1.0
  2
16-Ä-Nr._-7-
  1
Embedded Object
 10
317.000000394102
 20
39.75000002980232
 30
0.0
 40
2.000000029802322
 41
0.0
 46
0.0
 71
     1
 72
     5
  1
\W1.4000;
  7
Textstil144
 73
     1
 44
1.0
  0
XRECORD
  5
8A9
102
{ACAD_REACTORS
330
8A8
102
}
330
8A8
100
AcDbXrecord
280
     1
102
ACAD_MATT_HEIGHT
140
2.000000029802322
  0
XRECORD
  5
8AD
102
{ACAD_REACTORS
330
8AB
102
}
330
8AB
100
AcDbXrecord
280
     1
 70
     2
 70
     0
 70
     0
 40
1.0
  2
17-Ä-Nr._-8-
  1
Embedded Object
 10
317.000000394102
 20
42.25000002980232
 30
0.0
 40
2.000000029802322
 41
0.0
 46
0.0
 71
     1
 72
     5
  1
\W1.4000;
  7
Textstil144
 73
     1
 44
1.0
  0
XRECORD
  5
8AC
102
{ACAD_REACTORS
330
8AB
102
}
330
8AB
100
AcDbXrecord
280
     1
102
ACAD_MATT_HEIGHT
140
2.000000029802322
  0
XRECORD
  5
8B0
102
{ACAD_REACTORS
330
8AE
102
}
330
8AE
100
AcDbXrecord
280
     1
 70
     2
 70
     0
 70
     0
 40
1.0
  2
15-Ä-Nr._-6-
  1
Embedded Object
 10
317.000000394102
 20
37.25000002980233
 30
0.0
 40
2.000000029802322
 41
0.0
 46
0.0
 71
     1
 72
     5
  1
\W1.4000;
  7
Textstil144
 73
     1
 44
1.0
  0
XRECORD
  5
8AF
102
{ACAD_REACTORS
330
8AE
102
}
330
8AE
100
AcDbXrecord
280
     1
102
ACAD_MATT_HEIGHT
140
2.000000029802322
  0
XRECORD
  5
8B3
102
{ACAD_REACTORS
330
8B1
102
}
330
8B1
100
AcDbXrecord
280
     1
 70
     2
 70
     0
 70
     0
 40
1.0
  2
DATEINAME
  1
Embedded Object
 10
342.000000394102
 20
12.99999999999999
 30
0.0
 40
2.5
 41
0.0
 46
0.0
 71
     1
 72
     5
  1
\W1.2000;2503577.idw
  7
Textstil68
 73
     1
 44
1.0
  0
XRECORD
  5
8B2
102
{ACAD_REACTORS
330
8B1
102
}
330
8B1
100
AcDbXrecord
280
     1
102
ACAD_MATT_HEIGHT
140
2.5
  0
XRECORD
  5
8B6
102
{ACAD_REACTORS
330
8B4
102
}
330
8B4
100
AcDbXrecord
280
     1
 70
     2
 70
     0
 70
     0
 40
1.0
  2
ERSTELLUNGSDATUM
  1
Embedded Object
 10
342.000000394102
 20
8.749999999999996
 30
0.0
 40
2.5
 41
0.0
 46
0.0
 71
     1
 72
     5
  1
\W1.2000;01.08.2013
  7
Textstil68
 73
     1
 44
1.0
  0
XRECORD
  5
8B5
102
{ACAD_REACTORS
330
8B4
102
}
330
8B4
100
AcDbXrecord
280
     1
102
ACAD_MATT_HEIGHT
140
2.5
  0
XRECORD
  5
8B9
102
{ACAD_REACTORS
330
8B7
102
}
330
8B7
100
AcDbXrecord
280
     1
 70
     2
 70
     0
 70
     0
 40
1.0
  2
19-Datum_-10-
  1
Embedded Object
 10
332.000000394102
 20
47.25000002980232
 30
0.0
 40
2.000000029802322
 41
0.0
 46
0.0
 71
     1
 72
     5
  1
\W1.4000;
  7
Textstil144
 73
     1
 44
1.0
  0
XRECORD
  5
8B8
102
{ACAD_REACTORS
330
8B7
102
}
330
8B7
100
AcDbXrecord
280
     1
102
ACAD_MATT_HEIGHT
140
2.000000029802322
  0
XRECORD
  5
8BC
102
{ACAD_REACTORS
330
8BA
102
}
330
8BA
100
AcDbXrecord
280
     1
 70
     2
 70
     0
 70
     0
 40
1.0
  2
18-Datum_-9-
  1
Embedded Object
 10
332.000000394102
 20
44.75000002980232
 30
0.0
 40
2.000000029802322
 41
0.0
 46
0.0
 71
     1
 72
     5
  1
\W1.4000;
  7
Textstil144
 73
     1
 44
1.0
  0
XRECORD
  5
8BB
102
{ACAD_REACTORS
330
8BA
102
}
330
8BA
100
AcDbXrecord
280
     1
102
ACAD_MATT_HEIGHT
140
2.000000029802322
  0
XRECORD
  5
8BF
102
{ACAD_REACTORS
330
8BD
102
}
330
8BD
100
AcDbXrecord
280
     1
 70
     2
 70
     0
 70
     0
 40
1.0
  2
19-Ä-Nr._-10-
  1
Embedded Object
 10
317.000000394102
 20
47.25000002980232
 30
0.0
 40
2.000000029802322
 41
0.0
 46
0.0
 71
     1
 72
     5
  1
\W1.4000;
  7
Textstil144
 73
     1
 44
1.0
  0
XRECORD
  5
8BE
102
{ACAD_REACTORS
330
8BD
102
}
330
8BD
100
AcDbXrecord
280
     1
102
ACAD_MATT_HEIGHT
140
2.000000029802322
  0
XRECORD
  5
8C2
102
{ACAD_REACTORS
330
8C0
102
}
330
8C0
100
AcDbXrecord
280
     1
 70
     2
 70
     0
 70
     0
 40
1.0
  2
18-Ä-Nr._-9-
  1
Embedded Object
 10
317.000000394102
 20
44.75000002980232
 30
0.0
 40
2.000000029802322
 41
0.0
 46
0.0
 71
     1
 72
     5
  1
\W1.4000;
  7
Textstil144
 73
     1
 44
1.0
  0
XRECORD
  5
8C1
102
{ACAD_REACTORS
330
8C0
102
}
330
8C0
100
AcDbXrecord
280
     1
102
ACAD_MATT_HEIGHT
140
2.000000029802322
  0
XRECORD
  5
8C5
102
{ACAD_REACTORS
330
8C3
102
}
330
8C3
100
AcDbXrecord
280
     1
 70
     2
 70
     0
 70
     0
 40
1.0
  2
07-Artikel-Modell
  1
Embedded Object
 10
317.5000003941019
 20
69.48477166891601
 30
0.0
 40
3.98477166891098
 41
0.0
 46
0.0
 71
     1
 72
     5
  1
\W1.4000;BOCUBE
  7
Textstil243
 73
     1
 44
1.0
  0
XRECORD
  5
8C4
102
{ACAD_REACTORS
330
8C3
102
}
330
8C3
100
AcDbXrecord
280
     1
102
ACAD_MATT_HEIGHT
140
3.98477166891098
  0
XRECORD
  5
8C8
102
{ACAD_REACTORS
330
8C6
102
}
330
8C6
100
AcDbXrecord
280
     1
 70
     2
 70
     0
 70
     0
 40
1.0
  2
03-Zchn.Nr.
  1
Embedded Object
 10
340.000000394102
 20
86.00000005960469
 30
0.0
 40
4.000000059604644
 41
0.0
 46
0.0
 71
     1
 72
     5
  1
\W1.4000;3K 5390.137.01
  7
Textstil143
 73
     1
 44
1.0
  0
XRECORD
  5
8C7
102
{ACAD_REACTORS
330
8C6
102
}
330
8C6
100
AcDbXrecord
280
     1
102
ACAD_MATT_HEIGHT
140
4.000000059604644
  0
XRECORD
  5
8CB
102
{ACAD_REACTORS
330
8C9
102
}
330
8C9
100
AcDbXrecord
280
     1
 70
     2
 70
     0
 70
     0
 40
1.0
  2
50-Namenskürzel
  1
Embedded Object
 10
362.0000003941019
 20
8.749999999999996
 30
0.0
 40
2.5
 41
0.0
 46
0.0
 71
     1
 72
     5
  1
\W1.2000;KH
  7
Textstil68
 73
     1
 44
1.0
  0
XRECORD
  5
8CA
102
{ACAD_REACTORS
330
8C9
102
}
330
8C9
100
AcDbXrecord
280
     1
102
ACAD_MATT_HEIGHT
140
2.5
  0
XRECORD
  5
8CE
102
{ACAD_REACTORS
330
8CC
102
}
330
8CC
100
AcDbXrecord
280
     1
 70
     2
 70
     0
 70
     0
 40
1.0
  2
02-Maßstab
  1
Embedded Object
 10
340.0000003941019
 20
101.5000000596046
 30
0.0
 40
4.000000059604644
 41
41.21706962585449
 46
0.0
 71
     1
 72
     5
  1
\W1.2000;1:1
  7
Textstil242
 73
     1
 44
1.0
  0
XRECORD
  5
8CD
102
{ACAD_REACTORS
330
8CC
102
}
330
8CC
100
AcDbXrecord
280
     1
102
ACAD_MATT_HEIGHT
140
4.000000059604644
  0
XRECORD
  5
8D1
102
{ACAD_REACTORS
330
8CF
102
}
330
8CF
100
AcDbXrecord
280
     1
 70
     2
 70
     0
 70
     0
 40
1.0
  2
08-Artikel-Benennung
  1
Embedded Object
 10
317.5000003941019
 20
62.50000005960966
 30
0.0
 40
4.000000059604644
 41
0.0
 46
0.0
 71
     1
 72
     5
  1
\W1.4000;B M 1808
  7
Textstil143
 73
     1
 44
1.0
  0
XRECORD
  5
8D0
102
{ACAD_REACTORS
330
8CF
102
}
330
8CF
100
AcDbXrecord
280
     1
102
ACAD_MATT_HEIGHT
140
4.000000059604644
  0
XRECORD
  5
8D4
102
{ACAD_REACTORS
330
8D2
102
}
330
8D2
100
AcDbXrecord
280
     1
 70
     2
 70
     0
 70
     0
 40
1.0
  2
09-Artikel-Benennung_(2.Zeile)
  1
Embedded Object
 10
317.5000003941019
 20
55.48477166891601
 30
0.0
 40
3.98477166891098
 41
0.0
 46
0.0
 71
     1
 72
     5
  1
\W1.4000;Katalogzg./Catalogue draw.
  7
Textstil243
 73
     1
 44
1.0
  0
XRECORD
  5
8D3
102
{ACAD_REACTORS
330
8D2
102
}
330
8D2
100
AcDbXrecord
280
     1
102
ACAD_MATT_HEIGHT
140
3.98477166891098
  0
ACDBDETAILVIEWSTYLE
  5
6C
102
{ACAD_REACTORS
330
6B
102
}
330
6B
100
AcDbModelDocViewStyle
 70
     0
  3
Imperial24
290
     0
100
AcDbDetailViewStyle
 70
     0
 71
     0
 90
        3
 71
     1
340
55
 40
0.24
340
0
 40
0.24
300

 40
0.36
280
     3
 71
     2
340
5D
 90
       25
 71
     3
340
55
 40
0.24
 90
        1
 40
0.75
 90
        1
300
%<\AcVar ViewType \f "%tc1">% %<\AcVar ViewDetailId>%\PVARIA %<\AcVar ViewScale \f "%sn">%
 71
     4
340
5D
 90
       25
340
5D
 90
       25
280
     0
  0
LAYOUT
  5
70
102
{ACAD_XDICTIONARY
360
90E
102
}
102
{ACAD_REACTORS
330
62
102
}
330
62
100
AcDbPlotSettings
  1

  2

  4

  6

 40
0.0
 41
0.0
 42
0.0
 43
0.0
 44
0.0
 45
0.0
 46
0.0
 47
0.0
 48
0.0
 49
0.0
140
0.0
141
0.0
142
1.0
143
1.0
 70
   688
 72
     0
 73
     0
 74
     5
  7

 75
    16
147
1.0
148
0.0
149
0.0
100
AcDbLayout
  1
Layout1
 70
     1
 71
     1
 10
0.0
 20
0.0
 11
12.0
 21
9.0
 12
0.0
 22
0.0
 32
0.0
 14
0.0
 24
0.0
 34
0.0
 15
0.0
 25
0.0
 35
0.0
146
0.0
 13
0.0
 23
0.0
 33
0.0
 16
1.0
 26
0.0
 36
0.0
 17
0.0
 27
1.0
 37
0.0
 76
     0
330
6D
  0
LAYOUT
  5
78
102
{ACAD_XDICTIONARY
360
912
102
}
102
{ACAD_REACTORS
330
62
102
}
330
62
100
AcDbPlotSettings
  1

  2

  4

  6

 40
0.0
 41
0.0
 42
0.0
 43
0.0
 44
0.0
 45
0.0
 46
0.0
 47
0.0
 48
0.0
 49
0.0
140
0.0
141
0.0
142
1.0
143
1.0
 70
   688
 72
     0
 73
     0
 74
     5
  7

 75
    16
147
1.0
148
0.0
149
0.0
100
AcDbLayout
  1
Layout2
 70
     1
 71
     2
 10
0.0
 20
0.0
 11
12.0
 21
9.0
 12
0.0
 22
0.0
 32
0.0
 14
0.0
 24
0.0
 34
0.0
 15
0.0
 25
0.0
 35
0.0
146
0.0
 13
0.0
 23
0.0
 33
0.0
 16
1.0
 26
0.0
 36
0.0
 17
0.0
 27
1.0
 37
0.0
 76
     0
330
75
  0
LAYOUT
  5
74
102
{ACAD_XDICTIONARY
360
910
102
}
102
{ACAD_REACTORS
330
62
102
}
330
62
100
AcDbPlotSettings
  1

  2

  4

  6

 40
0.0
 41
0.0
 42
0.0
 43
0.0
 44
0.0
 45
0.0
 46
0.0
 47
0.0
 48
0.0
 49
0.0
140
0.0
141
0.0
142
1.0
143
1.0
 70
  1712
 72
     0
 73
     0
 74
     0
  7

 75
     0
147
1.0
148
0.0
149
0.0
100
AcDbLayout
  1
Model
 70
     1
 71
     0
 10
0.0
 20
0.0
 11
12.0
 21
9.0
 12
0.0
 22
0.0
 32
0.0
 14
0.0
 24
0.0
 34
0.0
 15
0.0
 25
0.0
 35
0.0
146
0.0
 13
0.0
 23
0.0
 33
0.0
 16
1.0
 26
0.0
 36
0.0
 17
0.0
 27
1.0
 37
0.0
 76
     0
330
71
  0
MATERIAL
  5
19
102
{ACAD_XDICTIONARY
360
1A
102
}
102
{ACAD_REACTORS
330
10
102
}
330
10
100
AcDbMaterial
  1
ByBlock
 72
     0
 43
0.0208333333333333
 43
0.0
 43
0.0
 43
0.0
 43
0.0
 43
0.0208333333333333
 43
0.0
 43
0.0
 43
0.0
 43
0.0
 43
1.0
 43
0.0
 43
0.0
 43
0.0
 43
0.0
 43
1.0
 77
     0
 47
0.0208333333333333
 47
0.0
 47
0.0
 47
0.0
 47
0.0
 47
0.0208333333333333
 47
0.0
 47
0.0
 47
0.0
 47
0.0
 47
1.0
 47
0.0
 47
0.0
 47
0.0
 47
0.0
 47
1.0
171
     0
 49
0.0208333333333333
 49
0.0
 49
0.0
 49
0.0
 49
0.0
 49
0.0208333333333333
 49
0.0
 49
0.0
 49
0.0
 49
0.0
 49
1.0
 49
0.0
 49
0.0
 49
0.0
 49
0.0
 49
1.0
175
     0
142
0.0208333333333333
142
0.0
142
0.0
142
0.0
142
0.0
142
0.0208333333333333
142
0.0
142
0.0
142
0.0
142
0.0
142
1.0
142
0.0
142
0.0
142
0.0
142
0.0
142
1.0
179
     0
144
0.0208333333333333
144
0.0
144
0.0
144
0.0
144
0.0
144
0.0208333333333333
144
0.0
144
0.0
144
0.0
144
0.0
144
1.0
144
0.0
144
0.0
144
0.0
144
0.0
144
1.0
147
0.0208333333333333
147
0.0
147
0.0
147
0.0
147
0.0
147
0.0208333333333333
147
0.0
147
0.0
147
0.0
147
0.0
147
1.0
147
0.0
147
0.0
147
0.0
147
0.0
147
1.0
  0
MATERIAL
  5
11
102
{ACAD_XDICTIONARY
360
12
102
}
102
{ACAD_REACTORS
330
10
102
}
330
10
100
AcDbMaterial
  1
ByLayer
 72
     0
 43
0.0208333333333333
 43
0.0
 43
0.0
 43
0.0
 43
0.0
 43
0.0208333333333333
 43
0.0
 43
0.0
 43
0.0
 43
0.0
 43
1.0
 43
0.0
 43
0.0
 43
0.0
 43
0.0
 43
1.0
 77
     0
 47
0.0208333333333333
 47
0.0
 47
0.0
 47
0.0
 47
0.0
 47
0.0208333333333333
 47
0.0
 47
0.0
 47
0.0
 47
0.0
 47
1.0
 47
0.0
 47
0.0
 47
0.0
 47
0.0
 47
1.0
171
     0
 49
0.0208333333333333
 49
0.0
 49
0.0
 49
0.0
 49
0.0
 49
0.0208333333333333
 49
0.0
 49
0.0
 49
0.0
 49
0.0
 49
1.0
 49
0.0
 49
0.0
 49
0.0
 49
0.0
 49
1.0
175
     0
142
0.0208333333333333
142
0.0
142
0.0
142
0.0
142
0.0
142
0.0208333333333333
142
0.0
142
0.0
142
0.0
142
0.0
142
1.0
142
0.0
142
0.0
142
0.0
142
0.0
142
1.0
179
     0
144
0.0208333333333333
144
0.0
144
0.0
144
0.0
144
0.0
144
0.0208333333333333
144
0.0
144
0.0
144
0.0
144
0.0
144
1.0
144
0.0
144
0.0
144
0.0
144
0.0
144
1.0
147
0.0208333333333333
147
0.0
147
0.0
147
0.0
147
0.0
147
0.0208333333333333
147
0.0
147
0.0
147
0.0
147
0.0
147
1.0
147
0.0
147
0.0
147
0.0
147
0.0
147
1.0
  0
MATERIAL
  5
21
102
{ACAD_XDICTIONARY
360
22
102
}
102
{ACAD_REACTORS
330
10
102
}
330
10
100
AcDbMaterial
  1
Global
 72
     0
 43
0.0208333333333333
 43
0.0
 43
0.0
 43
0.0
 43
0.0
 43
0.0208333333333333
 43
0.0
 43
0.0
 43
0.0
 43
0.0
 43
1.0
 43
0.0
 43
0.0
 43
0.0
 43
0.0
 43
1.0
 77
     0
 47
0.0208333333333333
 47
0.0
 47
0.0
 47
0.0
 47
0.0
 47
0.0208333333333333
 47
0.0
 47
0.0
 47
0.0
 47
0.0
 47
1.0
 47
0.0
 47
0.0
 47
0.0
 47
0.0
 47
1.0
171
     0
 49
0.0208333333333333
 49
0.0
 49
0.0
 49
0.0
 49
0.0
 49
0.0208333333333333
 49
0.0
 49
0.0
 49
0.0
 49
0.0
 49
1.0
 49
0.0
 49
0.0
 49
0.0
 49
0.0
 49
1.0
175
     0
142
0.0208333333333333
142
0.0
142
0.0
142
0.0
142
0.0
142
0.0208333333333333
142
0.0
142
0.0
142
0.0
142
0.0
142
1.0
142
0.0
142
0.0
142
0.0
142
0.0
142
1.0
179
     0
144
0.0208333333333333
144
0.0
144
0.0
144
0.0
144
0.0
144
0.0208333333333333
144
0.0
144
0.0
144
0.0
144
0.0
144
1.0
144
0.0
144
0.0
144
0.0
144
0.0
144
1.0
147
0.0208333333333333
147
0.0
147
0.0
147
0.0
147
0.0
147
0.0208333333333333
147
0.0
147
0.0
147
0.0
147
0.0
147
1.0
147
0.0
147
0.0
147
0.0
147
0.0
147
1.0
  0
MLEADERSTYLE
  5
67
102
{ACAD_XDICTIONARY
360
90C
102
}
102
{ACAD_REACTORS
330
66
102
}
330
66
100
AcDbMLeaderStyle
170
     2
171
     1
172
     0
 90
        2
 40
0.0
 41
0.0
173
     1
 91
-1056964608
340
5B
 92
       -2
290
     1
 42
0.09
291
     1
 43
0.36
  3
Standard
 44
0.18
300

342
55
174
     1
178
     6
175
     1
176
     0
 93
-1056964608
 45
0.18
292
     0
297
     0
 46
0.18
 94
-1056964608
 47
1.0
 49
1.0
140
1.0
293
     1
141
0.0
294
     1
177
     0
142
1.0
295
     0
296
     0
143
0.125
1001
ACAD_MLEADERVER
1070
     2
  0
MLINESTYLE
  5
60
102
{ACAD_REACTORS
330
5F
102
}
330
5F
100
AcDbMlineStyle
  2
STANDARD
 70
     0
  3

 62
   256
 51
90.0
 52
90.0
 71
     2
 49
0.5
 62
   256
  6
BYLAYER
 49
-0.5
 62
   256
  6
BYLAYER
  0
ACDBPLACEHOLDER
  5
F
102
{ACAD_REACTORS
330
E
102
}
330
E
  0
SCALE
  5
43
102
{ACAD_REACTORS
330
42
102
}
330
42
100
AcDbScale
 70
     0
300
1:1
140
1.0
141
1.0
290
     1
  0
SCALE
  5
44
102
{ACAD_REACTORS
330
42
102
}
330
42
100
AcDbScale
 70
     0
300
1/128" = 1'-0"
140
0.0078125
141
12.0
290
     0
  0
SCALE
  5
45
102
{ACAD_REACTORS
330
42
102
}
330
42
100
AcDbScale
 70
     0
300
1/64" = 1'-0"
140
0.015625
141
12.0
290
     0
  0
SCALE
  5
46
102
{ACAD_REACTORS
330
42
102
}
330
42
100
AcDbScale
 70
     0
300
1/32" = 1'-0"
140
0.03125
141
12.0
290
     0
  0
SCALE
  5
47
102
{ACAD_REACTORS
330
42
102
}
330
42
100
AcDbScale
 70
     0
300
1/16" = 1'-0"
140
0.0625
141
12.0
290
     0
  0
SCALE
  5
48
102
{ACAD_REACTORS
330
42
102
}
330
42
100
AcDbScale
 70
     0
300
3/32" = 1'-0"
140
0.09375
141
12.0
290
     0
  0
SCALE
  5
49
102
{ACAD_REACTORS
330
42
102
}
330
42
100
AcDbScale
 70
     0
300
1/8" = 1'-0"
140
0.125
141
12.0
290
     0
  0
SCALE
  5
4A
102
{ACAD_REACTORS
330
42
102
}
330
42
100
AcDbScale
 70
     0
300
3/16" = 1'-0"
140
0.1875
141
12.0
290
     0
  0
SCALE
  5
4B
102
{ACAD_REACTORS
330
42
102
}
330
42
100
AcDbScale
 70
     0
300
1/4" = 1'-0"
140
0.25
141
12.0
290
     0
  0
SCALE
  5
4C
102
{ACAD_REACTORS
330
42
102
}
330
42
100
AcDbScale
 70
     0
300
3/8" = 1'-0"
140
0.375
141
12.0
290
     0
  0
SCALE
  5
4D
102
{ACAD_REACTORS
330
42
102
}
330
42
100
AcDbScale
 70
     0
300
1/2" = 1'-0"
140
0.5
141
12.0
290
     0
  0
SCALE
  5
4E
102
{ACAD_REACTORS
330
42
102
}
330
42
100
AcDbScale
 70
     0
300
3/4" = 1'-0"
140
0.75
141
12.0
290
     0
  0
SCALE
  5
4F
102
{ACAD_REACTORS
330
42
102
}
330
42
100
AcDbScale
 70
     0
300
1" = 1'-0"
140
1.0
141
12.0
290
     0
  0
SCALE
  5
50
102
{ACAD_REACTORS
330
42
102
}
330
42
100
AcDbScale
 70
     0
300
1-1/2" = 1'-0"
140
1.5
141
12.0
290
     0
  0
SCALE
  5
51
102
{ACAD_REACTORS
330
42
102
}
330
42
100
AcDbScale
 70
     0
300
3" = 1'-0"
140
3.0
141
12.0
290
     0
  0
SCALE
  5
52
102
{ACAD_REACTORS
330
42
102
}
330
42
100
AcDbScale
 70
     0
300
6" = 1'-0"
140
6.0
141
12.0
290
     0
  0
SCALE
  5
53
102
{ACAD_REACTORS
330
42
102
}
330
42
100
AcDbScale
 70
     0
300
1'-0" = 1'-0"
140
12.0
141
12.0
290
     0
  0
ACDBSECTIONVIEWSTYLE
  5
6A
102
{ACAD_REACTORS
330
68
102
}
330
68
100
AcDbModelDocViewStyle
 70
     0
  3
Imperial24
290
     0
100
AcDbSectionViewStyle
 70
     0
 71
     0
 90
       78
 71
     1
340
55
 40
0.24
340
0
340
0
 40
0.24
300
I, O, Q, S, X, Z
 40
0.48
 90
        3
 40
0.18
 90
        1
 71
     2
340
69
 90
       25
340
5D
 90
       50
 40
0.24
 40
0.0
 40
0.24
 71
     3
340
55
 40
0.24
 90
        1
 40
0.75
 90
        1
300
%<\AcVar ViewType \f "%tc1">% %<\AcVar ViewSectionStartId>%-%<\AcVar ViewSectionEndId>%\PVARIA %<\AcVar ViewScale \f "%sn">%
 71
     4
300
ANSI31
 40
1.0
 90
        0
290
     0
290
     0
 90
        6
 40
0.0
 40
1.570796326794896
 40
0.2617993877991494
 40
1.308996938995747
 40
-0.2617993877991494
 40
1.832595714594046
  0
TABLESTYLE
  5
65
102
{ACAD_XDICTIONARY
360
825
102
}
102
{ACAD_REACTORS
330
64
102
}
330
64
100
AcDbTableStyle
  3
Standard
 70
     0
 71
     0
 40
0.06
 41
0.06
280
     0
281
     0
  7
Standard
140
0.18
170
     2
 62
     0
 63
     7
283
     0
274
    -2
284
     1
 64
     0
275
    -2
285
     1
 65
     0
276
    -2
286
     1
 66
     0
277
    -2
287
     1
 67
     0
278
    -2
288
     1
 68
     0
279
    -2
289
     1
 69
     0
  7
Standard
140
0.25
170
     5
 62
     0
 63
     7
283
     0
274
    -2
284
     1
 64
     0
275
    -2
285
     1
 65
     0
276
    -2
286
     1
 66
     0
277
    -2
287
     1
 67
     0
278
    -2
288
     1
 68
     0
279
    -2
289
     1
 69
     0
  7
Standard
140
0.18
170
     5
 62
     0
 63
     7
283
     0
274
    -2
284
     1
 64
     0
275
    -2
285
     1
 65
     0
276
    -2
286
     1
 66
     0
277
    -2
287
     1
 67
     0
278
    -2
288
     1
 68
     0
279
    -2
289
     1
 69
     0
  0
VISUALSTYLE
  5
2F
102
{ACAD_XDICTIONARY
360
8E4
102
}
102
{ACAD_REACTORS
330
29
102
}
330
29
100
AcDbVisualStyle
  2
2dWireframe
 70
     4
 71
     0
 72
     2
 73
     0
 90
        0
 40
-0.6
 41
-30.0
 62
     5
 63
     7
 74
     1
 91
        4
 64
     7
 65
   257
 75
     1
175
     1
 42
1.0
 92
        0
 66
   257
 43
1.0
 76
     1
 77
     6
 78
     2
 67
     7
 79
     5
170
     0
171
     0
290
     0
174
     0
 93
        1
 44
0.0
173
     0
291
     0
 45
0.0
1001
ACAD
1000
AcDbSavedByObjectVersion
1070
     0
  0
VISUALSTYLE
  5
2E
102
{ACAD_XDICTIONARY
360
8E2
102
}
102
{ACAD_REACTORS
330
29
102
}
330
29
100
AcDbVisualStyle
  2
Basic
 70
     7
 71
     1
 72
     0
 73
     1
 90
        0
 40
-0.6
 41
-30.0
 62
     5
 63
     7
 74
     0
 91
        4
 64
     7
 65
   257
 75
     1
175
     1
 42
1.0
 92
        8
 66
     7
 43
1.0
 76
     1
 77
     6
 78
     2
 67
     7
 79
     5
170
     0
171
     0
290
     0
174
     0
 93
        1
 44
0.0
173
     0
291
     1
 45
0.0
1001
ACAD
1000
AcDbSavedByObjectVersion
1070
     0
  0
VISUALSTYLE
  5
35
102
{ACAD_XDICTIONARY
360
8F0
102
}
102
{ACAD_REACTORS
330
29
102
}
330
29
100
AcDbVisualStyle
  2
Brighten
 70
    12
 71
     2
 72
     2
 73
     0
 90
        0
 40
-0.6
 41
-30.0
 62
     5
 63
     7
 74
     1
 91
        4
 64
     7
 65
   257
 75
     1
175
     1
 42
1.0
 92
        8
 66
     7
 43
1.0
 76
     1
 77
     6
 78
     2
 67
     7
 79
     5
170
     0
171
     0
290
     0
174
     0
 93
        1
 44
50.0
173
     0
291
     1
 45
0.0
1001
ACAD
1000
AcDbSavedByObjectVersion
1070
     0
  0
VISUALSTYLE
  5
39
102
{ACAD_XDICTIONARY
360
8F8
102
}
102
{ACAD_REACTORS
330
29
102
}
330
29
100
AcDbVisualStyle
  2
ColorChange
 70
    16
 71
     2
 72
     2
 73
     3
 90
        0
 40
-0.6
 41
-30.0
 62
     5
 63
     8
 74
     1
 91
        4
 64
     7
 65
   257
 75
     1
175
     1
 42
1.0
 92
        8
 66
     8
 43
1.0
 76
     1
 77
     6
 78
     2
 67
     7
 79
     5
170
     0
171
     0
290
     0
174
     0
 93
        1
 44
0.0
173
     0
291
     1
 45
0.0
1001
ACAD
1000
AcDbSavedByObjectVersion
1070
     0
  0
VISUALSTYLE
  5
32
102
{ACAD_XDICTIONARY
360
8EA
102
}
102
{ACAD_REACTORS
330
29
102
}
330
29
100
AcDbVisualStyle
  2
Conceptual
 70
     9
 71
     3
 72
     2
 73
     0
 90
        0
 40
-0.6
 41
-30.0
 62
     5
 63
     7
 74
     2
 91
        2
 64
     7
 65
   257
 75
     1
175
     1
 42
179.0
 92
        8
 66
     7
 43
1.0
 76
     1
 77
     6
 78
     2
 67
     7
 79
     3
170
     0
171
     0
290
     0
174
     0
 93
        1
 44
0.0
173
     0
291
     0
 45
0.0
1001
ACAD
1000
AcDbSavedByObjectVersion
1070
     0
  0
VISUALSTYLE
  5
34
102
{ACAD_XDICTIONARY
360
8EE
102
}
102
{ACAD_REACTORS
330
29
102
}
330
29
100
AcDbVisualStyle
  2
Dim
 70
    11
 71
     2
 72
     2
 73
     0
 90
        0
 40
-0.6
 41
-30.0
 62
     5
 63
     7
 74
     1
 91
        4
 64
     7
 65
   257
 75
     1
175
     1
 42
1.0
 92
        8
 66
     7
 43
1.0
 76
     1
 77
     6
 78
     2
 67
     7
 79
     5
170
     0
171
     0
290
     0
174
     0
 93
        1
 44
-50.0
173
     0
291
     1
 45
0.0
1001
ACAD
1000
AcDbSavedByObjectVersion
1070
     0
  0
VISUALSTYLE
  5
41
102
{ACAD_XDICTIONARY
360
908
102
}
102
{ACAD_REACTORS
330
29
102
}
330
29
100
AcDbVisualStyle
  2
EdgeColorOff
 70
    22
 71
     2
 72
     2
 73
     0
 90
        0
 40
-0.6
 41
-30.0
 62
     5
 63
     7
 74
     1
 91
        4
 64
     7
 65
   257
 75
     1
175
     1
 42
1.0
 92
        8
 66
     7
 43
1.0
 76
     1
 77
     6
 78
     2
 67
     7
 79
     5
170
     0
171
     0
290
     0
174
     0
 93
        1
 44
0.0
173
     0
291
     1
 45
0.0
1001
ACAD
1000
AcDbSavedByObjectVersion
1070
     0
  0
VISUALSTYLE
  5
38
102
{ACAD_XDICTIONARY
360
8F6
102
}
102
{ACAD_REACTORS
330
29
102
}
330
29
100
AcDbVisualStyle
  2
Facepattern
 70
    15
 71
     2
 72
     2
 73
     0
 90
        0
 40
-0.6
 41
-30.0
 62
     5
 63
     7
 74
     1
 91
        4
 64
     7
 65
   257
 75
     1
175
     1
 42
1.0
 92
        8
 66
     7
 43
1.0
 76
     1
 77
     6
 78
     2
 67
     7
 79
     5
170
     0
171
     0
290
     0
174
     0
 93
        1
 44
0.0
173
     0
291
     1
 45
0.0
1001
ACAD
1000
AcDbSavedByObjectVersion
1070
     0
  0
VISUALSTYLE
  5
2A
102
{ACAD_XDICTIONARY
360
8DA
102
}
102
{ACAD_REACTORS
330
29
102
}
330
29
100
AcDbVisualStyle
  2
Flat
 70
     0
 71
     2
 72
     1
 73
     1
 90
        2
 40
-0.6
 41
30.0
 62
     5
 63
     7
 74
     0
 91
        0
 64
     7
 65
   257
 75
     1
175
     1
 42
1.0
 92
        8
 66
     7
 43
1.0
 76
     1
 77
     6
 78
     2
 67
     7
 79
     5
170
     0
171
     0
290
     0
174
     0
 93
       13
 44
0.0
173
     0
291
     1
 45
0.0
1001
ACAD
1000
AcDbSavedByObjectVersion
1070
     0
  0
VISUALSTYLE
  5
2B
102
{ACAD_XDICTIONARY
360
8DC
102
}
102
{ACAD_REACTORS
330
29
102
}
330
29
100
AcDbVisualStyle
  2
FlatWithEdges
 70
     1
 71
     2
 72
     1
 73
     1
 90
        2
 40
-0.6
 41
30.0
 62
     5
 63
     7
 74
     1
 91
        0
 64
     7
 65
   257
 75
     1
175
     1
 42
1.0
 92
        0
 66
   257
 43
1.0
 76
     1
 77
     6
 78
     2
 67
     7
 79
     5
170
     0
171
     0
290
     0
174
     0
 93
       13
 44
0.0
173
     0
291
     1
 45
0.0
1001
ACAD
1000
AcDbSavedByObjectVersion
1070
     0
  0
VISUALSTYLE
  5
2C
102
{ACAD_XDICTIONARY
360
8DE
102
}
102
{ACAD_REACTORS
330
29
102
}
330
29
100
AcDbVisualStyle
  2
Gouraud
 70
     2
 71
     2
 72
     2
 73
     1
 90
        2
 40
-0.6
 41
30.0
 62
     5
 63
     7
 74
     0
 91
        0
 64
     7
 65
   257
 75
     1
175
     1
 42
1.0
 92
        0
 66
     7
 43
1.0
 76
     1
 77
     6
 78
     2
 67
     7
 79
     5
170
     0
171
     0
290
     0
174
     0
 93
       13
 44
0.0
173
     0
291
     1
 45
0.0
1001
ACAD
1000
AcDbSavedByObjectVersion
1070
     0
  0
VISUALSTYLE
  5
2D
102
{ACAD_XDICTIONARY
360
8E0
102
}
102
{ACAD_REACTORS
330
29
102
}
330
29
100
AcDbVisualStyle
  2
GouraudWithEdges
 70
     3
 71
     2
 72
     2
 73
     1
 90
        2
 40
-0.6
 41
30.0
 62
     5
 63
     7
 74
     1
 91
        0
 64
     7
 65
   257
 75
     1
175
     1
 42
1.0
 92
        0
 66
   257
 43
1.0
 76
     1
 77
     6
 78
     2
 67
     7
 79
     5
170
     0
171
     0
290
     0
174
     0
 93
       13
 44
0.0
173
     0
291
     1
 45
0.0
1001
ACAD
1000
AcDbSavedByObjectVersion
1070
     0
  0
VISUALSTYLE
  5
31
102
{ACAD_XDICTIONARY
360
8E8
102
}
102
{ACAD_REACTORS
330
29
102
}
330
29
100
AcDbVisualStyle
  2
Hidden
 70
     6
 71
     1
 72
     2
 73
     2
 90
        0
 40
-0.6
 41
-30.0
 62
     5
 63
     7
 74
     2
 91
        2
 64
     7
 65
   257
 75
     2
175
     1
 42
40.0
 92
        0
 66
   257
 43
1.0
 76
     1
 77
     6
 78
     2
 67
     7
 79
     3
170
     0
171
     0
290
     0
174
     0
 93
        1
 44
0.0
173
     0
291
     0
 45
0.0
1001
ACAD
1000
AcDbSavedByObjectVersion
1070
     0
  0
VISUALSTYLE
  5
3F
102
{ACAD_XDICTIONARY
360
904
102
}
102
{ACAD_REACTORS
330
29
102
}
330
29
100
AcDbVisualStyle
  2
JitterOff
 70
    20
 71
     2
 72
     2
 73
     0
 90
        0
 40
-0.6
 41
-30.0
 62
     5
 63
     7
 74
     1
 91
        4
 64
     7
 65
   257
 75
     1
175
     1
 42
1.0
 92
       10
 66
     7
 43
1.0
 76
     1
 77
     6
 78
     2
 67
     7
 79
     5
170
     0
171
     0
290
     0
174
     0
 93
        1
 44
0.0
173
     0
291
     1
 45
0.0
1001
ACAD
1000
AcDbSavedByObjectVersion
1070
     0
  0
VISUALSTYLE
  5
37
102
{ACAD_XDICTIONARY
360
8F4
102
}
102
{ACAD_REACTORS
330
29
102
}
330
29
100
AcDbVisualStyle
  2
Linepattern
 70
    14
 71
     2
 72
     2
 73
     0
 90
        0
 40
-0.6
 41
-30.0
 62
     5
 63
     7
 74
     1
 91
        4
 64
     7
 65
   257
 75
     7
175
     7
 42
1.0
 92
        8
 66
     7
 43
1.0
 76
     1
 77
     6
 78
     2
 67
     7
 79
     5
170
     0
171
     0
290
     0
174
     0
 93
        1
 44
0.0
173
     0
291
     1
 45
0.0
1001
ACAD
1000
AcDbSavedByObjectVersion
1070
     0
  0
VISUALSTYLE
  5
40
102
{ACAD_XDICTIONARY
360
906
102
}
102
{ACAD_REACTORS
330
29
102
}
330
29
100
AcDbVisualStyle
  2
OverhangOff
 70
    21
 71
     2
 72
     2
 73
     0
 90
        0
 40
-0.6
 41
-30.0
 62
     5
 63
     7
 74
     1
 91
        4
 64
     7
 65
   257
 75
     1
175
     1
 42
1.0
 92
        9
 66
     7
 43
1.0
 76
     1
 77
     6
 78
     2
 67
     7
 79
     5
170
     0
171
     0
290
     0
174
     0
 93
        1
 44
0.0
173
     0
291
     1
 45
0.0
1001
ACAD
1000
AcDbSavedByObjectVersion
1070
     0
  0
VISUALSTYLE
  5
33
102
{ACAD_XDICTIONARY
360
8EC
102
}
102
{ACAD_REACTORS
330
29
102
}
330
29
100
AcDbVisualStyle
  2
Realistic
 70
     8
 71
     2
 72
     3
 73
     0
 90
        2
 40
-0.6
 41
30.0
 62
     5
 63
     7
 74
     0
 91
        0
 64
     7
 65
   257
 75
     1
175
     1
 42
1.0
 92
        8
 66
   257
 43
1.0
 76
     1
 77
     6
 78
     2
 67
     7
 79
     3
170
     0
171
     0
290
     0
174
     0
 93
       13
 44
0.0
173
     0
291
     0
 45
0.0
1001
ACAD
1000
AcDbSavedByObjectVersion
1070
     0
  0
VISUALSTYLE
  5
3E
102
{ACAD_XDICTIONARY
360
902
102
}
102
{ACAD_REACTORS
330
29
102
}
330
29
100
AcDbVisualStyle
  2
Shaded
 70
    27
 71
     2
 72
     2
 73
     1
 90
        2
 40
-0.6
 41
30.0
 62
     5
 63
     7
 74
     0
 91
        4
 64
     7
 65
   257
 75
     1
175
     1
 42
1.0
 92
        8
 66
   257
 43
1.0
 76
     1
 77
     6
 78
     2
 67
     8
 79
     3
170
     0
171
     0
290
     0
174
     0
 93
        5
 44
0.0
173
     0
291
     0
 45
0.0
1001
ACAD
1000
AcDbSavedByObjectVersion
1070
     0
  0
VISUALSTYLE
  5
3D
102
{ACAD_XDICTIONARY
360
900
102
}
102
{ACAD_REACTORS
330
29
102
}
330
29
100
AcDbVisualStyle
  2
Shaded with edges
 70
    26
 71
     2
 72
     2
 73
     1
 90
        2
 40
-0.6
 41
30.0
 62
     5
 63
     7
 74
     1
 91
       10
 64
     7
 65
   257
 75
     2
175
     1
 42
1.0
 92
        8
 66
   257
 43
1.0
 76
     1
 77
     6
 78
     2
 67
     7
 79
     3
170
     0
171
     0
290
     0
174
     0
 93
        5
 44
0.0
173
     0
291
     0
 45
0.0
1001
ACAD
1000
AcDbSavedByObjectVersion
1070
     0
  0
VISUALSTYLE
  5
3A
102
{ACAD_XDICTIONARY
360
8FA
102
}
102
{ACAD_REACTORS
330
29
102
}
330
29
100
AcDbVisualStyle
  2
Shades of Gray
 70
    23
 71
     2
 72
     2
 73
     3
 90
        0
 40
-0.6
 41
-30.0
 62
     5
 63
     7
 74
     2
 91
        2
 64
     7
 65
     7
 75
     1
175
     1
 42
40.0
 92
        8
 66
     7
 43
1.0
 76
     1
 77
     6
 78
     2
 67
     7
 79
     3
170
     0
171
     0
290
     0
174
     0
 93
        1
 44
0.0
173
     0
291
     0
 45
0.0
1001
ACAD
1000
AcDbSavedByObjectVersion
1070
     0
  0
VISUALSTYLE
  5
3B
102
{ACAD_XDICTIONARY
360
8FC
102
}
102
{ACAD_REACTORS
330
29
102
}
330
29
100
AcDbVisualStyle
  2
Sketchy
 70
    24
 71
     1
 72
     2
 73
     2
 90
        0
 40
-0.6
 41
-30.0
 62
     5
 63
     7
 74
     2
 91
        2
 64
     7
 65
     7
 75
     1
175
     1
 42
40.0
 92
       11
 66
     7
 43
1.0
 76
     1
 77
     6
 78
     2
 67
     7
 79
     6
170
     0
171
     0
290
     0
174
     0
 93
        1
 44
0.0
173
     0
291
     0
 45
0.0
1001
ACAD
1000
AcDbSavedByObjectVersion
1070
     0
  0
VISUALSTYLE
  5
36
102
{ACAD_XDICTIONARY
360
8F2
102
}
102
{ACAD_REACTORS
330
29
102
}
330
29
100
AcDbVisualStyle
  2
Thicken
 70
    13
 71
     2
 72
     2
 73
     0
 90
        0
 40
-0.6
 41
-30.0
 62
     5
 63
     7
 74
     1
 91
        4
 64
     7
 65
   257
 75
     1
175
     1
 42
1.0
 92
       12
 66
     7
 43
1.0
 76
     1
 77
     6
 78
     2
 67
     7
 79
     5
170
     0
171
     0
290
     0
174
     0
 93
        1
 44
0.0
173
     0
291
     1
 45
0.0
1001
ACAD
1000
AcDbSavedByObjectVersion
1070
     0
  0
VISUALSTYLE
  5
30
102
{ACAD_XDICTIONARY
360
8E6
102
}
102
{ACAD_REACTORS
330
29
102
}
330
29
100
AcDbVisualStyle
  2
Wireframe
 70
     5
 71
     0
 72
     2
 73
     0
 90
        0
 40
-0.6
 41
-30.0
 62
     5
 63
     7
 74
     1
 91
        4
 64
     7
 65
   257
 75
     1
175
     1
 42
1.0
 92
        0
 66
   257
 43
1.0
 76
     1
 77
     6
 78
     2
 67
     7
 79
     3
170
     0
171
     0
290
     0
174
     0
 93
        1
 44
0.0
173
     0
291
     0
 45
0.0
1001
ACAD
1000
AcDbSavedByObjectVersion
1070
     0
  0
VISUALSTYLE
  5
3C
102
{ACAD_XDICTIONARY
360
8FE
102
}
102
{ACAD_REACTORS
330
29
102
}
330
29
100
AcDbVisualStyle
  2
X-Ray
 70
    25
 71
     2
 72
     2
 73
     1
 90
        1
 40
0.5
 41
-30.0
 62
     5
 63
     7
 74
     1
 91
        0
 64
     7
 65
   257
 75
     1
175
     1
 42
1.0
 92
        8
 66
     7
 43
1.0
 76
     1
 77
     6
 78
     2
 67
     7
 79
     3
170
     0
171
     0
290
     0
174
     0
 93
       13
 44
0.0
173
     0
291
     0
 45
0.0
1001
ACAD
1000
AcDbSavedByObjectVersion
1070
     0
  0
DICTIONARYVAR
  5
81C
102
{ACAD_REACTORS
330
816
102
}
330
816
100
DictionaryVariables
280
     0
  1
1:1
  0
DICTIONARYVAR
  5
818
102
{ACAD_REACTORS
330
816
102
}
330
816
100
DictionaryVariables
280
     0
  1
STANDARD
  0
DICTIONARYVAR
  5
817
102
{ACAD_REACTORS
330
816
102
}
330
816
100
DictionaryVariables
280
     0
  1
STANDARD
  0
DICTIONARYVAR
  5
819
102
{ACAD_REACTORS
330
816
102
}
330
816
100
DictionaryVariables
280
     0
  1
Imperial24
  0
DICTIONARYVAR
  5
81A
102
{ACAD_REACTORS
330
816
102
}
330
816
100
DictionaryVariables
280
     0
  1
Imperial24
  0
DICTIONARYVAR
  5
823
102
{ACAD_REACTORS
330
816
102
}
330
816
100
DictionaryVariables
280
     0
  1
1
  0
DICTIONARYVAR
  5
822
102
{ACAD_REACTORS
330
816
102
}
330
816
100
DictionaryVariables
280
     0
  1
1
  0
DICTIONARYVAR
  5
821
102
{ACAD_REACTORS
330
816
102
}
330
816
100
DictionaryVariables
280
     0
  1
0
  0
DICTIONARYVAR
  5
81E
102
{ACAD_REACTORS
330
816
102
}
330
816
100
DictionaryVariables
280
     0
  1
0
  0
DICTIONARYVAR
  5
81F
102
{ACAD_REACTORS
330
816
102
}
330
816
100
DictionaryVariables
280
     0
  1
0
  0
DICTIONARYVAR
  5
81D
102
{ACAD_REACTORS
330
816
102
}
330
816
100
DictionaryVariables
280
     0
  1
2
  0
DICTIONARYVAR
  5
81B
102
{ACAD_REACTORS
330
816
102
}
330
816
100
DictionaryVariables
280
     0
  1
1
  0
DICTIONARYVAR
  5
820
102
{ACAD_REACTORS
330
816
102
}
330
816
100
DictionaryVariables
280
     0
  1
127
  0
DICTIONARYVAR
  5
824
102
{ACAD_REACTORS
330
816
102
}
330
816
100
DictionaryVariables
280
     0
  1
2
  0
DICTIONARY
  5
90E
330
70
100
AcDbDictionary
280
     1
281
     1
  3
ACAD_XREC_ROUNDTRIP
360
90F
  0
DICTIONARY
  5
912
330
78
100
AcDbDictionary
280
     1
281
     1
  3
ACAD_XREC_ROUNDTRIP
360
913
  0
DICTIONARY
  5
910
330
74
100
AcDbDictionary
280
     1
281
     1
  3
ACAD_XREC_ROUNDTRIP
360
911
  0
DICTIONARY
  5
1A
330
19
100
AcDbDictionary
280
     1
281
     1
  3
ACAD_XREC_ROUNDTRIP
360
8D8
  3
BUMPTILE
360
1C
  3
DIFFUSETILE
360
1B
  3
OPACITYTILE
360
1F
  3
REFLECTIONTILE
360
1E
  3
REFRACTIONTILE
360
20
  3
SPECULARTILE
360
1D
  0
DICTIONARY
  5
12
330
11
100
AcDbDictionary
280
     1
281
     1
  3
ACAD_XREC_ROUNDTRIP
360
8D7
  3
BUMPTILE
360
14
  3
DIFFUSETILE
360
13
  3
FBXASSET
360
109
  3
OPACITYTILE
360
17
  3
REFLECTIONTILE
360
16
  3
REFRACTIONTILE
360
18
  3
SPECULARTILE
360
15
  0
DICTIONARY
  5
22
330
21
100
AcDbDictionary
280
     1
281
     1
  3
ACAD_XREC_ROUNDTRIP
360
8D9
  3
BUMPTILE
360
24
  3
DIFFUSETILE
360
23
  3
OPACITYTILE
360
27
  3
REFLECTIONTILE
360
26
  3
REFRACTIONTILE
360
28
  3
SPECULARTILE
360
25
  0
DICTIONARY
  5
90C
330
67
100
AcDbDictionary
280
     1
281
     1
  3
ACAD_XREC_ROUNDTRIP
360
90D
  0
DICTIONARY
  5
825
330
65
100
AcDbDictionary
280
     1
281
     1
  3
ACAD_ROUNDTRIP_2008_TABLESTYLE_CELLSTYLEMAP
360
826
  3
ACAD_XREC_ROUNDTRIP
360
90A
  0
DICTIONARY
  5
8E4
330
2F
100
AcDbDictionary
280
     1
281
     1
  3
ACAD_XREC_ROUNDTRIP
360
8E5
  0
DICTIONARY
  5
8E2
330
2E
100
AcDbDictionary
280
     1
281
     1
  3
ACAD_XREC_ROUNDTRIP
360
8E3
  0
DICTIONARY
  5
8F0
330
35
100
AcDbDictionary
280
     1
281
     1
  3
ACAD_XREC_ROUNDTRIP
360
8F1
  0
DICTIONARY
  5
8F8
330
39
100
AcDbDictionary
280
     1
281
     1
  3
ACAD_XREC_ROUNDTRIP
360
8F9
  0
DICTIONARY
  5
8EA
330
32
100
AcDbDictionary
280
     1
281
     1
  3
ACAD_XREC_ROUNDTRIP
360
8EB
  0
DICTIONARY
  5
8EE
330
34
100
AcDbDictionary
280
     1
281
     1
  3
ACAD_XREC_ROUNDTRIP
360
8EF
  0
DICTIONARY
  5
908
330
41
100
AcDbDictionary
280
     1
281
     1
  3
ACAD_XREC_ROUNDTRIP
360
909
  0
DICTIONARY
  5
8F6
330
38
100
AcDbDictionary
280
     1
281
     1
  3
ACAD_XREC_ROUNDTRIP
360
8F7
  0
DICTIONARY
  5
8DA
330
2A
100
AcDbDictionary
280
     1
281
     1
  3
ACAD_XREC_ROUNDTRIP
360
8DB
  0
DICTIONARY
  5
8DC
330
2B
100
AcDbDictionary
280
     1
281
     1
  3
ACAD_XREC_ROUNDTRIP
360
8DD
  0
DICTIONARY
  5
8DE
330
2C
100
AcDbDictionary
280
     1
281
     1
  3
ACAD_XREC_ROUNDTRIP
360
8DF
  0
DICTIONARY
  5
8E0
330
2D
100
AcDbDictionary
280
     1
281
     1
  3
ACAD_XREC_ROUNDTRIP
360
8E1
  0
DICTIONARY
  5
8E8
330
31
100
AcDbDictionary
280
     1
281
     1
  3
ACAD_XREC_ROUNDTRIP
360
8E9
  0
DICTIONARY
  5
904
330
3F
100
AcDbDictionary
280
     1
281
     1
  3
ACAD_XREC_ROUNDTRIP
360
905
  0
DICTIONARY
  5
8F4
330
37
100
AcDbDictionary
280
     1
281
     1
  3
ACAD_XREC_ROUNDTRIP
360
8F5
  0
DICTIONARY
  5
906
330
40
100
AcDbDictionary
280
     1
281
     1
  3
ACAD_XREC_ROUNDTRIP
360
907
  0
DICTIONARY
  5
8EC
330
33
100
AcDbDictionary
280
     1
281
     1
  3
ACAD_XREC_ROUNDTRIP
360
8ED
  0
DICTIONARY
  5
902
330
3E
100
AcDbDictionary
280
     1
281
     1
  3
ACAD_XREC_ROUNDTRIP
360
903
  0
DICTIONARY
  5
900
330
3D
100
AcDbDictionary
280
     1
281
     1
  3
ACAD_XREC_ROUNDTRIP
360
901
  0
DICTIONARY
  5
8FA
330
3A
100
AcDbDictionary
280
     1
281
     1
  3
ACAD_XREC_ROUNDTRIP
360
8FB
  0
DICTIONARY
  5
8FC
330
3B
100
AcDbDictionary
280
     1
281
     1
  3
ACAD_XREC_ROUNDTRIP
360
8FD
  0
DICTIONARY
  5
8F2
330
36
100
AcDbDictionary
280
     1
281
     1
  3
ACAD_XREC_ROUNDTRIP
360
8F3
  0
DICTIONARY
  5
8E6
330
30
100
AcDbDictionary
280
     1
281
     1
  3
ACAD_XREC_ROUNDTRIP
360
8E7
  0
DICTIONARY
  5
8FE
330
3C
100
AcDbDictionary
280
     1
281
     1
  3
ACAD_XREC_ROUNDTRIP
360
8FF
  0
XRECORD
  5
90F
102
{ACAD_REACTORS
330
90E
102
}
330
90E
100
AcDbXrecord
280
     1
102
SHADEPLOT
 70
     0
102
SHADEPLOTRESLEVEL
 70
     2
102
SHADEPLOTCUSTOMDPI
 70
   300
  0
XRECORD
  5
913
102
{ACAD_REACTORS
330
912
102
}
330
912
100
AcDbXrecord
280
     1
102
SHADEPLOT
 70
     0
102
SHADEPLOTRESLEVEL
 70
     2
102
SHADEPLOTCUSTOMDPI
 70
   300
  0
XRECORD
  5
911
102
{ACAD_REACTORS
330
910
102
}
330
910
100
AcDbXrecord
280
     1
102
SHADEPLOT
 70
     0
102
SHADEPLOTRESLEVEL
 70
     2
102
SHADEPLOTCUSTOMDPI
 70
   300
  0
XRECORD
  5
8D8
102
{ACAD_REACTORS
330
1A
102
}
330
1A
100
AcDbXrecord
280
     1
102
MATERIAL
148
0.0
149
0.0
149
0.0
 93
        0
 94
      127
282
     0
 72
     0
 77
     0
171
     0
175
     0
179
     0
273
     0
  0
XRECORD
  5
1C
102
{ACAD_REACTORS
330
1A
102
}
330
1A
100
AcDbXrecord
280
     1
270
     1
271
     1
  0
XRECORD
  5
1B
102
{ACAD_REACTORS
330
1A
102
}
330
1A
100
AcDbXrecord
280
     1
270
     1
271
     1
  0
XRECORD
  5
1F
102
{ACAD_REACTORS
330
1A
102
}
330
1A
100
AcDbXrecord
280
     1
270
     1
271
     1
  0
XRECORD
  5
1E
102
{ACAD_REACTORS
330
1A
102
}
330
1A
100
AcDbXrecord
280
     1
270
     1
271
     1
  0
XRECORD
  5
20
102
{ACAD_REACTORS
330
1A
102
}
330
1A
100
AcDbXrecord
280
     1
270
     1
271
     1
  0
XRECORD
  5
1D
102
{ACAD_REACTORS
330
1A
102
}
330
1A
100
AcDbXrecord
280
     1
270
     1
271
     1
  0
XRECORD
  5
8D7
102
{ACAD_REACTORS
330
12
102
}
330
12
100
AcDbXrecord
280
     1
102
MATERIAL
148
0.0
149
0.0
149
0.0
 93
        0
 94
      127
282
     0
 72
     0
 77
     0
171
     0
175
     0
179
     0
273
     0
  0
XRECORD
  5
14
102
{ACAD_REACTORS
330
12
102
}
330
12
100
AcDbXrecord
280
     1
270
     1
271
     1
  0
XRECORD
  5
13
102
{ACAD_REACTORS
330
12
102
}
330
12
100
AcDbXrecord
280
     1
270
     1
271
     1
  0
XRECORD
  5
109
102
{ACAD_REACTORS
330
12
102
}
330
12
100
AcDbXrecord
280
     1
 70
     1
 90
1959938040
 71
     1
  1
A73C2615-90BA-4E4C-8007-68C00E601612
311
504B03040A0000080000CD4610433DEE336E79000000790000001B0000006175746F6465736B2D64657369676E2D7061636B6167652E786D6C3C3F786D6C2076657273696F6E3D22312E302220656E636F64696E673D227574662D3822203F3E3C666F726D6174733E3C666F726D61743E687474703A2F2F736368656D612E
311
6175746F6465736B2E636F6D2F64657369676E2D7061636B6167652F323030393C2F666F726D61743E3C2F666F726D6174733E504B0304140006080800CD461043FAA28935A700000035010000130000005B436F6E74656E745F54797065735D2E786D6CA58FC10E823010447FA5D93B143D1863281ED43FE0076ADD4223DD
311
36ED62F0EF2DE16ABC78DC9DC99B99F6BCF849BC30651748C1AE6E402099F070342898D9564710E7AEEDDF11B3285ECA0A46E67892329B11BDCE75884845B12179CDE54C838CDA3CF58072DF34076902311257BC32A06BAF68F53CB1B82DE5BDE5DE1D81B86CBEBED814E818276734975A321846AE3227D41EE4578023FB1F
311
A00CF80158D5122CD76EB9FB00504B0304140006080800CD461043E1CF665BF90000009701000008000000636F72652E786D6C8D905D6EC3201084AF8278ADB0C1761DD7C2444EA29CA01740405C94182C7EA21EBFEBC491DAB73EED6A988F1D0DDF7FCF377437215AEF06CC0A8A9171CA6BEBA601E774211D467BC183F7E9
311
970D23276733E055C6824FC1E765939477C9B804AAF3DA6CA28CD1248CD40D960147F5656659C89CC011AFC522D5554EA660AF0DE09CAD46CF2356C37FF6624DC0A2AAD9E1B8ABCEA4AD7727D21C9B8A1CCEB4231FA7331BBBB663E3D8F17285054F767EDD57C1C86434F094D504FCACFDA45DFFDEF455FB46594F292F57FB
311
1F282FFA9F50B62ED5D516F789452C1804793C081E53804237039490509477C8530A5EAE35C178740873AD54FC00504B0304140006080800CD461043972589C77E0000009D00000007000000636E782E786D6C4DCC4D0E83201845D1AD906F4EFD4364009882711FA6A2214530149A2EBFDA38E8E825272F97F79FCDA1B789
311
2F1BBC80EA560232FE1166EB5701392D9801EA258F21A4BF1B203F6D46C0C920F91A43DE2F9ACD3265970E75D63F2F54B4D625A12D6E6A5D61C228C14CAB068F5D474636DCDB413128242F7EA563CFB0FC02504B0304140006080800CD4610436017550B2B0100001E0200002D00000042363243303436352D333243312D34
311
3836342D384342332D4637373446384441354442382F636F72652E786D6C8D514B6EC32014BC0A6295AAC2C6DFA00813358972825EC0312F294A0C169F2AC72FD44EDAEEBA31D6BC997903C3B7F7F1863EC13A6574878B8C62047A3052E94B87833F1386D156706B8CFF45C348F7237438C158F08B35615AA0C1680FDA4754
311
1B090BD83B071EA3E1167F3AEC860F18FBAC0F3E32DC359BFAE1DA5F202BB2388E3CC19DB731009A97A42F16BBB6DCD3BA6D4855EE0B52B3B6266CBFABC871BDAE8FECF0D61C768CE7B350F010945CE44AC638EAACC0FED7248905F76A7CC41F2CF41E2416252D2A421929DA77CA364DBD29DB575A6C28E579A2FF118549FE
311
531494F655B9C49D650E8B82E7F3407069C2E9F60803F7C9588FD2BE9583E105E7F1BAD1A1AD1707E78D8DCFB9BA9E9EB3A73B8C2790C84C3ED68D45F3B3224F6D099E7F5719CFD4ACF802504B0304140006080800CD4610436A77868595000000F50000002C00000042363243303436352D333243312D343836342D384342
311
332D4637373446384441354442382F636E782E786D6C5D8E4B0EC2300C44AF12795F023B164E2A246EC00942E396887C503E88E313438550375EBC9979328EAFE0C5937271292A38ECF620284EC9BAB82868751E8E20468D39A5FA5703114D20058C41E392537BACC8D26C9AAF9D7A17EF2B3C9542F56CAAE99897C2A7C9F8
311
2EA038B402FA97A3E458A3E4B146BEABE232DD2898DE456E6C0514AE642D5951BEB58D477E3EEC5A7E58BF01504B0304140006080800CD4610434567A35FFD000000A00100003700000042363243303436352D333243312D343836342D384342332D4637373446384441354442382F4173736574446174612F636F72652E78
311
6D6C8D50DD6E8320187D15C2ED82823A6B0DD2D8BA3EC15E800075A4150C3FCB1E7F505DB2DDED868F9C9FEF3B39F4F4B53CC0A7725E5B33405260089411566A330F30861BEA203831EAAC0DBF641018BEA8016618323A3B1BD71D12D6046542428D956A07B9F72A40201EE933402F3ED4C20B1E4352F87BB17271E7B32A48
311
91E8A463D407970280ED487E211BF38A89074ECB8D6534462D778D96E9A6BE69E520AB6A72BE1CAA37D4D687093597A642E72BEED071BA92B16B3B328E1D2DB399D1A0979F8CC2291E944C7E4C6A94F4A47DC75DFFDAF455FB82498F312DB3FC8F29AEF29FA6A84DA8AB3DEE66F390B529C89360B4CC7DA5F12C33CDDC2DFB
311
06504B0304140006080800CD4610430364409A77010000860500003600000042363243303436352D333243312D343836342D384342332D4637373446384441354442382F4173736574446174612F636E782E786D6CD5544D4F032110FD2B84ABD9AFAA4DD3B034462F3DD5C4C63B65679594850DCC1AFDF7C22ECD36313DF5
311
A05E800CEFBD195E86619BCF4E930F705E5953D32A2F2901236DA3CC5B4D076CB315251BCE9CB57806A3C4880E6A1AC394B33767873E851A68C5A03144B532C7147C8256198521C716C109B4EED9D91E1C2AF094482DBCAFA997EFD0895C0C681BF0C7BC1128F22A77E0EDE02404C59894682B850EB9C16483A77C9626276D
311
328BB32272381B9C22F154D3B89EB34EA499931F9461456070E6D105231213BFFA5084E87BADA4886F29AC44C02C804074AC087B007386AA8344910E044243F9A2AC6EB3729555CB7DB95ADFDFAD17CB9BB25A97252B229CB383B53A9194091ED99E481B0E06290FA078CD59112DE52CAE09BB351E85913057FF2B76FE2CE3
311
3F99F8E03DE05E1C34ECDAC7C9F46BBB729424A326D9B5E4A47AA91D47F8889E2BF84F0EBE6068F4EE751A23E33BAE6CC3499024453F3979C9BD099CB063F65C99F64F7FE1621C99E147BB3058F937504B0304140006080800CD46104313C9FA7D84000000200100004F00000042363243303436352D333243312D34383634
311
2D384342332D4637373446384441354442382F4173736574446174612F446566696E6974696F6E4974657261746F7250726F706572746965732E62696EEB602865F90F050C40C008C40D0C8C0CBC40DA3D352FB5283339383923353791811D28E254E99358995A046242259980A220AE4B6A5A62694E09489B6F6671726A4E
311
4E625E6A7E69B120501EAA542137B104685E628E1E481327500226500C32211D621B23505C828101E424492093C137B1A438C61D2217930EA1F50AF2D2417274C000504B0304140006080800CD4610435585C4FDF4000000300200004500000042363243303436352D333243312D343836342D384342332D46373734463844
311
41354442382F4173736574446174612F496E7374616E636550726F706572746965732E62696EEB602865F90F050C40C008C40D0C8C0CBC40DA3D352FB52833393839233537510528E0686EEC6C646668AA6B69E0E4A86BE26AE2AC6B616060AE6B66E16C60E06A6660686668C40E5407D508D2626C68E2E26A646AA96B6A62
311
62AC6B626664A8EBE4E6E4A26B686E6CE06CE6EC6CE9E86A09B2934133A6FFD0578D2BF6509A09684C030303038C6F0F6403D1077BA0DB8034038380038300031CA83830E007408D10057006848B49C2158019CC40050D0C60F000EA061E300F9D00852142E603542DBA2A0686949D0E0C780176AD20E341E109D2FAC19E05
311
483102311F10079727962467E83A1525E6A5A4A680DC0B14A4190200504B0304140006080800CD4610439659C74F51000000570000004700000042363243303436352D333243312D343836342D384342332D4637373446384441354442382F4173736574446174612F41737365745461626C654F66436F6E74656E74732E62
311
696E536160607034377636323334D5B5347072D435713571D6B5303030D735B3703630703533303433341202AACB4D2C492DCA4CCC492C28484D2C4ACC4B4E050A82112F90744FCD03CA26072767A4E6260200504B0304140006080800CD461043F865834058000000680000004500000042363243303436352D333243312D
311
343836342D384342332D4637373446384441354442382F4173736574446174612F53747265616D56657273696F6E5461626C652E696E66558CBD0A80300C06F73E4B117FB66E451741D041DC5BF98480A492E4FDD18EAEC7DD4555D89EF28DF51A0B1BD8340C4DE7DD848B988C0ACF0649566493F2408C508DDEBB99D5129F
311
F8F1AF8CF5B9503E20FAE5A16B5AF702504B0304140006080800CD46104340852442FC0000009E0100003500000042363243303436352D333243312D343836342D384342332D4637373446384441354442382F536368656D61732F636F72652E786D6C8D905D6EC3201084AF8278ADB0C1761DC7C2444EA25CA0BD0002E2A2
311
C460F153F5F805DB95DAB7BEB068E61BED68E9E96B7E824FE5BCB66680A4C0102823ACD4661A600C77D4417062D4591B7E6110183EAB016619323A391B975D12D6046542528D956A17B9F72A40209EE933402F3ED4CC0B1E4322FCA358B878F04915A44876E218F5C1A502605B925FC8DED690A7E5E6311AA3963BA165DAA8
311
EF5A39C8AA9A9C2F87EA86DAFA7045CDA5A9D0F9863B74BCDEC8D8B51D19C78E9639CC68D0F34F43E1140F4AA63C26354A3C69DF71D7BF367DD5BE60D2634CCB8CFF09C545FE3314B50975B5D7DD621E32928AAC06A365BE561AEB29D3CC9765DF504B0304140006080800CD461043F6B71EEA28010000D303000034000000
311
42363243303436352D333243312D343836342D384342332D4637373446384441354442382F536368656D61732F636E782E786D6CD593C14E032110865F857035BBCB566D9A86A5070F9EBC585F00D9694BCA329B018CBEBDB0E55013AF1ABD1066F8863FF3C3C8DDFBE4D81B50B0E807DEB78233F00647EB8F034FF1D06C38
311
DB294988F10AE3CCEB09065ED25CC923619A6B6A84834E2EE6ACB3FE5C930F384DE8F7E60493E6CC381DC2C0C312B63A451C219CDB5147DDF62D41C04406F20D45843934DA652DF04D0A5CED972A76B00E6457002513D9AA5362AEAED5DADC9FEC32A1648894BBAA64FC98B3829E67678D8EB9F96E012F8C92D14E504943A0
311
238C5CAD447FDB884DD3AF5FC4667B7FB75DAD6F44BF1542760557F215D1D522EB2310CECC60DEF8C85586CAB1925DB145C9B256F6113C903597C67EDE9D2F72FFC09E67F023D0537E03B2DAFD964BDFA9FE55B3BA65FEF2D7A23CA5EA13504B0304140006080800CD4610432F7B2A8D8D0100005E0600003D000000423632
311
43303436352D333243312D343836342D384342332D4637373446384441354442382F536368656D61732F436F6D6D6F6E536368656D612E786D6CC5944D6EC2301085F79C22F20550BB4E90A0486D24D44551BA1FE201AC3A76E43841B97D9D716A151228B448CD2A9267BE37CF3F2F9E5715DA75BEC702669388BE384B9751
311
0332614FBA28B4F2AB6C3689A76E2554ADAD116A17099EB00554D8574565BD91224FD81664852CE2B8154A58A1556AD180D566091612664DED569B4E85C89E16E0A9B2B84343744F7E4753390A3B1530085C2BD91E211F89D94302D46B10936CAFC4265D326F95451236E83C7F5BE91CFB9E3104743B67DBD2D938F13C3A12
311
4D749E26750EF22A1A551EB9BD06ADA0F879D09BD159FA3AC6BD7CE837AB7C607BD0860F8E1EA4D487A296569412DD55AAB1FADA973B4F9083BB8EDAB4FF3802C72A37A2EC5ED2608A7BB8CDDE56F432ECBE2E360A841CA8FC7ABBDDD1248C2EA913094F69A1B5445024FA2238473550BCEC8BB05B8A99EEA5F6BCC0CF6AC1
311
09DE27C7B30BAFDF28F8C11D2C90FB5C21787326969A2ED91EA8B72F1F6D37D888D158BBD0EF3691A49D9F10AE0363E733C8B58751DC3FA1E6BC019523FF2B329ECEBB54F4893D9B7C02504B0304140006080800CD4610437229482E27050000001600003E00000042363243303436352D333243312D343836342D38434233
311
2D4637373446384441354442382F536368656D61732F47656E65726963536368656D612E786D6CDD586D4FE33810FECEAFB0F27D4BCB1DAB5BA9456A41F4FA0171A2705F2D37718AEF9CA4B29D42EFD7DF783C3549CBB601F676B587549197F1CC3CF3F278E2E1D85AE9E6E9A32CC4C509C3BFE1C3EC8AAD851E2553594AA3
311
D2F03AB938199EC2AB2836115606B93B5966D2DC0807D24237C4BD4894779B15C9172429562B298C285389CABD40949E954E2EA5612A1B2541E39FD2585595095BD50BADD251920B6D65C28C145955EACD2871A686FBB5777D801A4949543A7746954BD4A9AB54686FF1A83E946C291FB7FD0E5ABF6AA414057875C4E97D23
311
147CC4B1636152555A8A1271A495AE0C5F6C78B5F84BA62E0919C94368B45848C8E3A59761930DBB0D323E93A4237A1D647CB49721EB3C53795EFB000BADABA7B42A4BD02F33E12BC68E120B91D4006C2DF4DD28E9F77E199CA3F169F366D2BC198F9241C29A3E2138B41CFDB8D69570886CC70FAE0AB1943C1799443B4D65
311
33FF8A5DFB57172754C68C0D27555D6696ADA44965E960F5368BAA4C8D2CE09955FF485454A852157501EE268CAE15204C756DD51A44426915E23948010EBADE970AD1F59623A85344156FF1AE85D1C85C4374D55AB90D178EF733B94CD8D1C0A3BB14D0BB860A8C2B5A7983CD2FDFC3E8525716E22AADED06AF771E2B66FA
311
B2D487B80D8FCAB915546579219DD0542E79AB277E57CB470D3F673158B4FE40B81C10955D0923CB74D3CDF7E8F97D73E9CF59A0AE01E1FFDE8946A40E361AAE60577BA6E219F4CECF623EA1D548066AE720DD50CD1DE29B5EDF9349A09F7D32614433A3041A81AEF7A57C3F04B28B05DC85720804C7E4EA1A4832DDF027E9
311
BBE23D154E1A8EC52450E9A190FC100A4E6B57D58E572B91020977C20F8923F2BDC4C5814A8E13D342A47FE722953CADF5EBEC34210976E925427A71CF8FF9452B2DBAB352E75C695D171C7EAAC4B92A8C03FD58BA731062332F0402BECA215BC3A3B5626115A94EFD2CC19D2C605715AE36921AE4F379FFC5CAA51762F70D
311
210F015D8E00824C73E06858C9958661921762D5211177B883AF8586D10352021793ED93D6C8718D4A191A46D878151D42F75A115DD4C58A8B02A60898ABBA6CC6BDB32F3B7F31F0E3A0E608FBE7618F3AD01C9F06FD7EBF5B8304C130B2BC8733303CFB01E99C1470738D490917909470D14ACA0462FC4A32683F6E591715
311
AF60FC079D71F6A7F61B170B05D31CBB4D716003295F6FA4232698BE0676755A51ACB4847904150F3EC794CDE9C58773063B478799F2EC1C4CBF89E2095004B85FC110B24C59D7A0825F23BC1BF1CCAEB62F7DBC70795446D1DB8D56061395D2DB68052EA72C3CC0F760A8996B5315ECD63DC2F7DB0D7DEB056E24A5D1089A
311
6C9930D06D595A19F8F2B4DC884CD560AB4BEF455C775E037439AAC0D2422BD126F9F075AB680D3F7F244C7B0E5808B848416712D5E57009B447A8275A96197B52EEB11362CA59DB3A8CEE3C932BF74816A04F483B8C1AF8615095CCE7EBDEC0B6C1AE50F4C3650956BA94A5177B0B8910C2186FBADF456C5A883F017113E4
311
DBB534466592017680EB37A96F85D85BF9819029937CE9BF6436DC12BF843D7A002C411100E024CAA628CAE624FA9D723E38FB0DB698FF22E9345A2F11D6C1086C533F45D19F3B0245150F2D1AFCEB1F7ADEA506890D532BEC15386B93397C17F806387A48B5F6875EC0B5F6741A8E6FB6FF1F66BDE742230DD66AD7C4385B
311
FBAD21FB36A65EB4BD6652F95DD69FB9080F0811CE5A8F6E600787B324015FD7470ECBF6C186B5780C146DAB96F608BDFDF8153F6EA7F377841B567DD8F21F46AE957C7A87755A89BBEF413786A7637F7E174E542F4EFE05504B0304140006080800CD4610430A3355BE74010000170400004500000042363243303436352D
311
333243312D343836342D384342332D4637373446384441354442382F536368656D61732F52656E6465724D6174657269616C536368656D612E786D6CAD93DF6AC23014C6EF7D8A90075895B1BB54D00EA430D968A7B725B6C73690269244C5B75FFED955866C0C7B9593F3E577724EBE9285D660CABA839ECE27C87F6493BF
311
A213E5292E4034A0D6D480629407159E4F486215837A4935047926FB5E8A91CCA5065D2E0CB4A0106B521C345B509A4981D1E1B8E3AC4EF19E720D1829A08D14FC9262A38E363EB9BBCC7CE10819A09BE2CD03F3FEC0A10761A8B1C4B55BF0825EFE86F6644BFA85FABE2A1FCAFB507062707E287305C2BE55FD4F66691413
311
AD1FA83E5353773F38FE29FCBC82761859D64956833F5A7B1B54654715349537180E068919ED331871BA03EBB2D286B6ACA546032244026E4BF9F186A9AD149A489BDE10ECB673E6E8E0F56EF771CCDAFBE03C2E4C64CE06663ECADD01932454BB16224B293950319EC22713A632B26DF9D5C8FB60F2D8BCCBDBCE4912CF0E
311
AC4C72197E963835A7AC6AB7EBEF5AA478FAF43C7BF1C16A1C2CC7C122C5DF3D3904CA3CC2B7E456A12049FC3B85FF723EF902504B010214000A0000080000CD4610433DEE336E79000000790000001B00000000000000000000000000000000006175746F6465736B2D64657369676E2D7061636B6167652E786D6C504B01
311
021400140006080800CD461043FAA28935A7000000350100001300000000000000000000000000B20000005B436F6E74656E745F54797065735D2E786D6C504B01021400140006080800CD461043E1CF665BF90000009701000008000000000000000000000000008A010000636F72652E786D6C504B010214001400060808
311
00CD461043972589C77E0000009D0000000700000000000000000000000000A9020000636E782E786D6C504B01021400140006080800CD4610436017550B2B0100001E0200002D000000000000000000000000004C03000042363243303436352D333243312D343836342D384342332D4637373446384441354442382F636F
311
72652E786D6C504B01021400140006080800CD4610436A77868595000000F50000002C00000000000000000000000000C204000042363243303436352D333243312D343836342D384342332D4637373446384441354442382F636E782E786D6C504B01021400140006080800CD4610434567A35FFD000000A0010000370000
311
0000000000000000000000A105000042363243303436352D333243312D343836342D384342332D4637373446384441354442382F4173736574446174612F636F72652E786D6C504B01021400140006080800CD4610430364409A77010000860500003600000000000000000000000000F306000042363243303436352D3332
311
43312D343836342D384342332D4637373446384441354442382F4173736574446174612F636E782E786D6C504B01021400140006080800CD46104313C9FA7D84000000200100004F00000000000000000000000000BE08000042363243303436352D333243312D343836342D384342332D4637373446384441354442382F41
311
73736574446174612F446566696E6974696F6E4974657261746F7250726F706572746965732E62696E504B01021400140006080800CD4610435585C4FDF4000000300200004500000000000000000000000000AF09000042363243303436352D333243312D343836342D384342332D4637373446384441354442382F417373
311
6574446174612F496E7374616E636550726F706572746965732E62696E504B01021400140006080800CD4610439659C74F51000000570000004700000000000000000000000000060B000042363243303436352D333243312D343836342D384342332D4637373446384441354442382F4173736574446174612F4173736574
311
5461626C654F66436F6E74656E74732E62696E504B01021400140006080800CD461043F865834058000000680000004500000000000000000000000000BC0B000042363243303436352D333243312D343836342D384342332D4637373446384441354442382F4173736574446174612F53747265616D56657273696F6E5461
311
626C652E696E66504B01021400140006080800CD46104340852442FC0000009E0100003500000000000000000000000000770C000042363243303436352D333243312D343836342D384342332D4637373446384441354442382F536368656D61732F636F72652E786D6C504B01021400140006080800CD461043F6B71EEA28
311
010000D30300003400000000000000000000000000C60D000042363243303436352D333243312D343836342D384342332D4637373446384441354442382F536368656D61732F636E782E786D6C504B01021400140006080800CD4610432F7B2A8D8D0100005E0600003D00000000000000000000000000400F000042363243
311
303436352D333243312D343836342D384342332D4637373446384441354442382F536368656D61732F436F6D6D6F6E536368656D612E786D6C504B01021400140006080800CD4610437229482E27050000001600003E000000000000000000000000002811000042363243303436352D333243312D343836342D384342332D
311
4637373446384441354442382F536368656D61732F47656E65726963536368656D612E786D6C504B01021400140006080800CD4610430A3355BE74010000170400004500000000000000000000000000AB16000042363243303436352D333243312D343836342D384342332D4637373446384441354442382F536368656D61
311
732F52656E6465724D6174657269616C536368656D612E786D6C504B050600000000110011005A060000821800000000
310
504B03040A0000080000CD4610433DEE336E79000000790000001B0000006175746F6465736B2D64657369676E2D7061636B6167652E786D6C3C3F786D6C2076657273696F6E3D22312E302220656E636F64696E673D227574662D3822203F3E3C666F726D6174733E3C666F726D61743E687474703A2F2F736368656D612E
310
6175746F6465736B2E636F6D2F64657369676E2D7061636B6167652F323030393C2F666F726D61743E3C2F666F726D6174733E504B0304140006080800CD461043D486FD9CA0000000F4000000130000005B436F6E74656E745F54797065735D2E786D6C7D8EC10E82300C865F65E91D8A1E8C310C0EEA1BF002731658846E
310
D98AC1B77784ABF1D8FE5FBFBF75BBCE937A534CCEB38643598122B6FEE978D0B0485F9C41B54DDD7D022595594E1A469170414C76A4D9A4D207E29CF43ECE46F218070CC6BECC4078ACAA135ACF422C856C0E68EA1BF5669944DDD7BCDE7B1F8E415D77AECB980613C2E4AC91FC167A2B244592486606FC29C8FD7F045B9A
310
EF7053A7E60B504B0304140006080800CD461043681275DEE90000007C01000008000000636F72652E786D6C8D90516EC3201044AF82F6B7C201633BB6858922D53D412F8080B828315806AA1CBF3871A4F6AF5FBB1AE6B1A3E1A7FB7C43DF660DD6BB0168410019A7BCB66E1A20C50B6E019D045FBD8FBF6C809C9CCD009B
310
0C824FAB4FCB2E29EFA27131ABCE6BB38B32041301A95B5E0608EACBCCB290296647B8168B5457399982BEB60CA764357A1EB13AFF672FD6AC2068C5EA8F917598B5EF1DAE46C670478E675C13DA8CE3782C0923FCB0C182473BBFEEABD5C8683488925086498B69F349DABEAEFAB27923B42719DAEC7FA0B4E87F42C9BAC8
310
CA3DEE130B396B0EF27810FCB07591C7A3A83CB7DEC40F504B0304140006080800CD46104355019EA25F0000007C00000007000000636E782E786D6C4DCB3B0E80201045D1AD90E915ED2CF8AC45050C11660C8261F98AB1B07AC9C97D42D718D865D3E909258CFD00CCE24AC6E326A164D74DC0B4128928FF326038472BA1
310
3128B1252AC747C6BAB984FC68F0B87FE8960A5C09FE86CFB69FBA01504B0304140006080800CD4610435AA4658A65010000020300000C0000006662782F636F72652E786D6C8D525B6E833010BC8AE5DFCA603079CA38AA547A825EC00187A2808DFC40397E9747445345518564AC999DDDD9017EBA752D1A94758DD1394E
310
228A91D2A5A91A5DE738F80BD9637412DC1AE37F9561A465A7723CC258F0DA9AD02F5069B457DA03AA4DA516503AA73C46650B971CBBF25B753292C14385BB46BD2CAFB2565112010D75823B6FC1009A878C271697F38DC7332E78084DB5B04D05D39A4BA32C1649C6369F053B10B6FF3890AC608C1CE8EE9D6C68B22D8A62
310
975246793C8A05F74D7777575A25BDAAB04869C208DD9364FB45F7C74D764CB76F343952108DE50FA2D057FF1485467B962E76679903AF606422FE6C0B1179E4E4007E62C1E33144784D093F060D8140C85E9EDBFB1E578006557A6333602A13566A906D503095A2E9E1F1CC42E7A9016CF6B44FFAA2CFEB1EF001A5AEC19A
310
F4703D073F4EE7F3D4258A5E5932F81BD2C676B25DCDCD16D7731DF4545E9AD6D8FFA8E365D57809331EFF5EF103504B0304140006080800CD46104325030FEF7E0000009D0000000B0000006662782F636E782E786D6C4DCCD10A83201886E15B91FFDC55586D03351CBFDE472C0B99E9703A76F9ABD1C18E3E78F878F9F0
310
593D79DBF4723108684E35101BEE7172611150F24C2F4006C9538CF9EF06248CAB15B03348BEA4589E074D761E8BCF9B7A171E0776882D2AA3E9B56386B6AC5654E99BA167C41E1BD66B850D549257BFD2B67B587E01504B0304140006080800CD461043B0D188692D01000015020000310000006662782F35444434444146
310
452D393533462D343330412D414542462D3744443644313336454144312F636F72652E786D6C8D515B6EC32010BC0AE22B55858D63C771224CE48AE404BD00C1244589C1E251E5F85DD78ED4FEE58745B333B303CB0E8FE18EBEB50FC6D9161719C5485BE57A63AF2D4EF1421A8C0E9C79E7E21F1A46560EBAC5138C39BB7A
310
97C60552CE466D23A0D6F57A0165083A62A4EE706971505F7A90994C1118E1968D52DDE4556745066DE07116A28700681E329D986F84A844773A92DDA63C91AAA41DE98E1F27B215A21645591F3B51B07C16729692E917B9E9218EB918ED5F3599C49C45333CE32BAF65D43DE66B5A948436A4A83F69B3DF54FB75FD4E8B3D
310
A52C9FE8FF4469EC5F14256363B95EE2CEB28039BC666E70D6BB74BE3FC3E8C7E87C44D3BC55D0EA0D739A515AEDAA7ADB6C593E73E107C0B4AE16D3109D871F5EDDCE402F17E7BAE22C9F9604E5778350A785F21F504B0304140006080800CD46104361EAB8015501000033030000300000006662782F3544443444414645
310
2D393533462D343330412D414542462D3744443644313336454144312F636E782E786D6CBD93CD6EC32010845F0571ADFC97B896156122F5D027E8A1570C9B84068305B86ADEBE4B42D25C72A854F582ACD96166F509B3EDD764C827F8A09D1D6853D69480954E69BB1FE81277454FC99633EF5CBCB35162C504034D32E56C
310
EFDD326749C14E2C26A26AB43D66D143708B9710504E37897152180C005B2C28C2348252A0C8CD885F3BF0B80A8AE389C40390D79777E2C60F9031B02AA57056A50ECED2999BEE4C944823421868900798442996E8148463A9441465535EBB1EECF49344D2856BE5E23549E5034D27E579A31239B20A879C85E8915E36C5D3
310
0C948B79365A8A8890ABB3F1E2E16CD136766DF66A04EFD1BD5E757D8F61E71967514F901DD28388A0285FD5CDBAA8FBA2E9DEEA7EF3DC6E56DD53DD6CEA9A55C9CED9E89CC9973006BC9B897436828D9437AC4AE347F8B28F28ED91B5F3A75F804400B9F542E796F1977C9A6EDDB6FFC8A73ABF6FC4E5F12FE0DF504B0304
310
140006080800CD461043AF22B8DA480700004F1C0000340000006662782F35444434444146452D393533462D343330412D414542462D3744443644313336454144312F6F626A656374732E786D6CED595B6FA34614FE2B88BEB40FC6603BD9A42254897391B5CDEE6AAD5DF5C1121AC3184F3380353324767F7DCF5CC0804D
310
82BBE9DB3E241898F9CEFD3207FF8F6D4AAD67CC38C9B32BDB735CDBC25994C7244BAEEC42AC0617B6F547E0B33C17B565B695A1145FD9F2B11DF809CB8B8D7914E3152AA8683DBDBFF9CBE211CEB06D4514717E65F3688D53E4A042E431E64F4E8C047292D5D6F11CBDB0099B30B459B7403788E14C00A7F03C03144B33E5
310
356F5D7B18F843F93EF0E57FB36AD46BD5B87BD55049DDE492645CA02C3A60A90533EAC5D2D89BDCDE8DCE2E076793C97830391F79839BFB9BDB81F761EC4ECFA7D3CBEBBB4B606F99E7D4C814E30DCE62B0DFCE0E3C7F28DF54A21B0D1CE33ACAB30C474A91A02A25561B90600EA46AEA739BB79E94A8F65A4958BB1FCBF7
310
8685DAE396113A56F5544403170431E44A89CB6B5DBE7CF93708CEFB3825E3583A35170CAC6BD4C3202AECC0F587FA69E02FF7B620DC4A91C08C206A51B26488815160A95C12F87A838191C1C100CA921228CBE9D74DDF82C87C3B748E71B92A28959161072AB042083F2CB8E28CFC83D99EFBBA668027B07041327161B814
310
BB0DB6834B7FA81E06BEBC8C47E6A556A4B5A22801470131F5DB96A05319FAB35B3BF878BFDCCE653A384E7CC3F20D66423A9DB4A3E20B1CD95CA5960C59AF97E5E40610462BD5ECDC2BE52B68FE13648F3D2B603746B693EDC4AC150C657C95B3146C63B9D6C0857FAEE5A9FFF277ED973FAC3637ADD7A54F0853A9AA8B1F
310
D7675306A52BC37F4D9D81FF0C0E9FB3B179358F10057F7E241928483A8945737804A97DB5DCDAC10C1227247AD88568E081C8C0EE33FCF48706666F9532BC4CD465A0514363D4C748A036E591C046879D1EA07A3012EDCD5417B14BBD67EFE2AED7B7F38FF382AD50841F4D4CDFE215C98880AA799CA186CE1B1241B58B18
310
D9C8AD766084AA5285B3476B6C7AC2BB979CC5A09D4323CDEB464A0D7F1C4C240D25AD95949A93371D0422D897E43247F96F5000C96581AFE13F121E614A5186F3A2A45BA544E9DD559A308D861D8CB55DC6A396DF33FC4C642B0291B65FD1D0C477DDAB3C7C9379A443986FB34FE0B536D47BB8BCE2D10F3D14C35F9088D6
310
6F63CDD5BAC10DE48A18C7463B951696FBC210E53467E17217EA9C7914F97B23F0209D6ACB4914884515C165724AB40C614C56AB8243863E62BFEFB369DD475C67EC9D59F5FFADB09E40DE862C809889E0168D90A428C1E10AC55DE4EAD42A6CAE203BA0195E51908B3C13B10B9108DD1827A7A8E624F0CB77454F68CE39C9
310
3087CA7754F9756DB80EA4246DCD926569D596A2090F532C103D450312A643B9AA80A96E398226E46D1E2BEF7DCD6275D0FFC9231882AE34CF42024DEDB6872E3CE76CD48B77F0B6125B89410B6846A25DF88249B2163D285521591A515F5B668CE070538830DFA008DCBA07EC41AC48A3B64097287A9295288C0AFA5E0EC2
310
315D8584D2220DE18F647086E913DAFDB45003D7B94FE014DA3B240AD687C8F9997B4047771FED145823B422147AEF30459B0EAD3712A2EA6CAC4AF906BD23989645BA09519A17592F4771C66D8F34F06DB34AD89EFCCAA6131AD012D800063E74EB55A92D7336B83A0DE16028D61D9A6864A71252217503CA4C0D71A932DF
310
2EE428DD507D403CA8B7CD4AE655E1F93A016602FF7D09A479AF82356929A1EC6CEBFD26685566FB82116346B12ED26586C8F1886C94F34724F8E24197ED45A2AFCE264B4AB2000A5D51850C8D4ED56B1E356137F88306FF367360CAD3013F93B64B712690EC481FE50FFA151D2F13DD94F4BE99EC0B7AD3FAFC303F511ED8
310
D11BFD8B6C25F1CB8914CCAEA9ECD10E48958E505DE521079A4C702BE305E39F479DFA7CE4E751078ED590FFF51908825A653DE32BD23F4F38EA9858FEC113CFCDEE4FB493331FD3822A6B35E6569174FD938E2755DD94CDCA7B1C4FD460A542ADAADBD1160B1271592C7A77896526D4805D1CFFE76EA2AB3A6B72C6FA894E
310
CDE169DD8477D00935CEC6EA489C1DD4E046DABEFE309E8ECEBDB3C1A57B733D98DC4DA6830BD7FD3038BF98BAEEDDB9EB9DEF8BB4060FFC2AE1A91208F73AF1958FE59D110B46C93CA7248669426C253887530CCC147ACCFC598AB9EA50F6C934365F127AEC7ED6C359819614979CAC114CB529870200621491683EB77E81
310
79AA1C695ED930E9729EE09F7134DB82027C653FCB016484B9B384D9989C422AF0560C43F8A02C91BD8FDE54DD57BBA46E1A25A25AD2A75418B974FE3002408FB881915D6342A27833EFA393042FD9B190809FCB42401FA765D93FA8845164F6E6D7B251923D19D25B88C6D7C5F21CB5A6A1915EE3FD579D40A30E0462891A
310
D24BC60C4BD7B75F86301CB4669FAD0D2D12B0657FA401C3E0CC85EC8BC08BC02B0CE606C9667AFAFBE20BCBE1BB546ADD137001EBD7EDC5F96F8B699EA679A61F2DAEE10018C3D72D6BBE866F55F1025A3F2CBF08F0C5C8F5C60B3589371F07C225E2D841317F8207FEB060A45274C3FCE0970755C3CC5C87D2142D0F9DDD
310
5A262F425BAB810E06D3FACB9C053124BF01C98851715E4AFBEA307EA89602AB0CC6E8C1BF504B0304140006080000CD461043000000000000000000000000350000006662782F35444434444146452D393533462D343330412D414542462D3744443644313336454144312F76657274696365732E62696E504B0304140006
310
080800CD461043F270F1330600000004000000360000006662782F35444434444146452D393533462D343330412D414542462D3744443644313336454144312F747269616E676C65732E62696E636660600000504B0304140006080000CD461043000000000000000000000000370000006662782F35444434444146452D39
310
3533462D343330412D414542462D3744443644313336454144312F617474726962757465732E62696E504B0304140006080800CD461043B28BD8DE8F00000041010000360000006662782F35444434444146452D393533462D343330412D414542462D3744443644313336454144312F6469726563746F72792E786D6C858F
310
410EC2201045AF4266AF15DDB800BA74E7C21B903225242D6328188F2FA5C4183471359997F9FF81E89FF3C41E1816475E02DF1F80A11FC8386F25A438EECEC07A250251FC3803E6F58C12560C4AD840E95E91C151A72936F496F35732D860FE635F62C8F2DA16B505C545B74125BAA2FA9E05D7CC053D063734D5A7665FD5
310
5B6B8D15D5F1BFEAFD8490FFA45E504B0304140006080800CD4610437BB95B46FC000000A00100003B0000006662782F35444434444146452D393533462D343330412D414542462D3744443644313336454144312F7265736F75726365732F636F72652E786D6C8D504B6E833010BD0AF2B632D8180841C651A5D213F40296
310
3D2156828DFCA97AFC9A40A576D7CDCCE87D344F8F5FBE9647F1093E186747444B820AB0CA6963E711A578C53D2A2E827BE7E22F192AAC5C60441B8C049FBD4BEB01296723D89851EB341CA00C01222AD4231F230AEA068B2C658A5911EEE52AD55DCE50D232D3592778883E0728F627DB44C24370C92B08BCDA59C15332FA
310
D0189D7F9AAB018F046D58FB3EB11EB3FEED8C9B89317C26A757DC12DA4DD374AA0923BCDACC8247B3FC64541E64048D444D28C3A4C7B4FB20FDD03643DDBD103A906CDAE47F4C69D5FF34256323AB8FB8BB2DE4AC39C89310BCDAFACAEB5966DE5BB7E21B504B010214000A0000080000CD4610433DEE336E790000007900
310
00001B00000000000000000000000000000000006175746F6465736B2D64657369676E2D7061636B6167652E786D6C504B01021400140006080800CD461043D486FD9CA0000000F40000001300000000000000000000000000B20000005B436F6E74656E745F54797065735D2E786D6C504B01021400140006080800CD4610
310
43681275DEE90000007C010000080000000000000000000000000083010000636F72652E786D6C504B01021400140006080800CD46104355019EA25F0000007C000000070000000000000000000000000092020000636E782E786D6C504B01021400140006080800CD4610435AA4658A65010000020300000C000000000000
310
00000000000000160300006662782F636F72652E786D6C504B01021400140006080800CD46104325030FEF7E0000009D0000000B00000000000000000000000000A50400006662782F636E782E786D6C504B01021400140006080800CD461043B0D188692D0100001502000031000000000000000000000000004C05000066
310
62782F35444434444146452D393533462D343330412D414542462D3744443644313336454144312F636F72652E786D6C504B01021400140006080800CD46104361EAB80155010000330300003000000000000000000000000000C80600006662782F35444434444146452D393533462D343330412D414542462D3744443644
310
313336454144312F636E782E786D6C504B01021400140006080800CD461043AF22B8DA480700004F1C000034000000000000000000000000006B0800006662782F35444434444146452D393533462D343330412D414542462D3744443644313336454144312F6F626A656374732E786D6C504B01021400140006080000CD46
310
10430000000000000000000000003500000000000000000000000000051000006662782F35444434444146452D393533462D343330412D414542462D3744443644313336454144312F76657274696365732E62696E504B01021400140006080800CD461043F270F13306000000040000003600000000000000000000000000
310
581000006662782F35444434444146452D393533462D343330412D414542462D3744443644313336454144312F747269616E676C65732E62696E504B01021400140006080000CD4610430000000000000000000000003700000000000000000000000000B21000006662782F35444434444146452D393533462D343330412D
310
414542462D3744443644313336454144312F617474726962757465732E62696E504B01021400140006080800CD461043B28BD8DE8F000000410100003600000000000000000000000000071100006662782F35444434444146452D393533462D343330412D414542462D3744443644313336454144312F6469726563746F72
310
792E786D6C504B01021400140006080800CD4610437BB95B46FC000000A00100003B00000000000000000000000000EA1100006662782F35444434444146452D393533462D343330412D414542462D3744443644313336454144312F7265736F75726365732F636F72652E786D6C504B0506000000000E000E00800400003F
310
1300000000
  0
XRECORD
  5
17
102
{ACAD_REACTORS
330
12
102
}
330
12
100
AcDbXrecord
280
     1
270
     1
271
     1
  0
XRECORD
  5
16
102
{ACAD_REACTORS
330
12
102
}
330
12
100
AcDbXrecord
280
     1
270
     1
271
     1
  0
XRECORD
  5
18
102
{ACAD_REACTORS
330
12
102
}
330
12
100
AcDbXrecord
280
     1
270
     1
271
     1
  0
XRECORD
  5
15
102
{ACAD_REACTORS
330
12
102
}
330
12
100
AcDbXrecord
280
     1
270
     1
271
     1
  0
XRECORD
  5
8D9
102
{ACAD_REACTORS
330
22
102
}
330
22
100
AcDbXrecord
280
     1
102
MATERIAL
148
0.0
149
0.0
149
0.0
 93
        0
 94
      127
282
     0
 72
     0
 77
     0
171
     0
175
     0
179
     0
273
     0
  0
XRECORD
  5
24
102
{ACAD_REACTORS
330
22
102
}
330
22
100
AcDbXrecord
280
     1
270
     1
271
     1
  0
XRECORD
  5
23
102
{ACAD_REACTORS
330
22
102
}
330
22
100
AcDbXrecord
280
     1
270
     1
271
     1
  0
XRECORD
  5
27
102
{ACAD_REACTORS
330
22
102
}
330
22
100
AcDbXrecord
280
     1
270
     1
271
     1
  0
XRECORD
  5
26
102
{ACAD_REACTORS
330
22
102
}
330
22
100
AcDbXrecord
280
     1
270
     1
271
     1
  0
XRECORD
  5
28
102
{ACAD_REACTORS
330
22
102
}
330
22
100
AcDbXrecord
280
     1
270
     1
271
     1
  0
XRECORD
  5
25
102
{ACAD_REACTORS
330
22
102
}
330
22
100
AcDbXrecord
280
     1
270
     1
271
     1
  0
XRECORD
  5
90D
102
{ACAD_REACTORS
330
90C
102
}
330
90C
100
AcDbXrecord
280
     1
102
ACAD_ROUNDTRIP_2012_MLEADER_STYLE
298
     1
  0
CELLSTYLEMAP
  5
826
102
{ACAD_REACTORS
330
825
102
}
330
825
100
AcDbCellStyleMap
 90
        3
300
CELLSTYLE
  1
TABLEFORMAT_BEGIN
 90
        5
170
     1
 91
        0
 92
    32768
 62
   257
 93
        1
300
CONTENTFORMAT
  1
CONTENTFORMAT_BEGIN
 90
        0
 91
        0
 92
      512
 93
        0
300

 40
0.0
140
1.0
 94
        5
 62
     0
340
55
144
0.25
309
CONTENTFORMAT_END
171
     0
 94
        0
309
TABLEFORMAT_END
  1
CELLSTYLE_BEGIN
 90
        1
 91
        1
300
_TITLE
309
CELLSTYLE_END
300
CELLSTYLE
  1
TABLEFORMAT_BEGIN
 90
        5
170
     1
 91
        0
 92
        0
 62
   257
 93
        1
300
CONTENTFORMAT
  1
CONTENTFORMAT_BEGIN
 90
        0
 91
        0
 92
      512
 93
        0
300

 40
0.0
140
1.0
 94
        5
 62
     0
340
55
144
0.18
309
CONTENTFORMAT_END
171
     0
 94
        0
309
TABLEFORMAT_END
  1
CELLSTYLE_BEGIN
 90
        2
 91
        1
300
_HEADER
309
CELLSTYLE_END
300
CELLSTYLE
  1
TABLEFORMAT_BEGIN
 90
        5
170
     1
 91
        0
 92
        0
 62
   257
 93
        1
300
CONTENTFORMAT
  1
CONTENTFORMAT_BEGIN
 90
        0
 91
        0
 92
      512
 93
        0
300

 40
0.0
140
1.0
 94
        2
 62
     0
340
55
144
0.18
309
CONTENTFORMAT_END
171
     0
 94
        0
309
TABLEFORMAT_END
  1
CELLSTYLE_BEGIN
 90
        3
 91
        2
300
_DATA
309
CELLSTYLE_END
  0
XRECORD
  5
90A
102
{ACAD_REACTORS
330
825
102
}
330
825
100
AcDbXrecord
280
     1
102
ACAD_ROUNDTRIP_PRE2007_TABLESTYLE
 90
      512
 91
        0
  1

 92
      512
 93
        0
  2

 94
      512
 95
        0
  3

  0
XRECORD
  5
8E5
102
{ACAD_REACTORS
330
8E4
102
}
330
8E4
100
AcDbXrecord
280
     1
102
RTVSPost2010Prop28
280
     1
102
RTVSPost2010PropOp28
 70
     1
102
RTVSPost2010Prop29
280
     1
102
RTVSPost2010PropOp29
 70
     1
102
RTVSPost2010Prop30
280
     0
102
RTVSPost2010PropOp30
 70
     1
102
RTVSPost2010Prop31
280
     0
102
RTVSPost2010PropOp31
 70
     1
102
RTVSPost2010Prop32
280
     0
102
RTVSPost2010PropOp32
 70
     1
102
RTVSPost2010Prop33
280
     0
102
RTVSPost2010PropOp33
 70
     1
102
RTVSPost2010Prop34
280
     0
102
RTVSPost2010PropOp34
 70
     1
102
RTVSPost2010Prop35
280
     0
102
RTVSPost2010PropOp35
 70
     1
102
RTVSPost2010Prop36
280
     0
102
RTVSPost2010PropOp36
 70
     1
102
RTVSPost2010Prop37
 90
       50
102
RTVSPost2010PropOp37
 70
     1
102
RTVSPost2010Prop38
140
0.0
102
RTVSPost2010PropOp38
 70
     1
102
RTVSPost2010Prop39
140
1.0
102
RTVSPost2010PropOp39
 70
     1
102
RTVSPost2010Prop40
 90
        0
102
RTVSPost2010PropOp40
 70
     1
102
RTVSPost2010Prop41ColorIndex
 90
       18
102
RTVSPost2010Prop41ColorRGB
 90
        0
102
RTVSPost2010PropOp41
 70
     1
102
RTVSPost2010Prop42
 90
       50
102
RTVSPost2010PropOp42
 70
     1
102
RTVSPost2010Prop43
 90
        3
102
RTVSPost2010PropOp43
 70
     1
102
RTVSPost2010Prop44ColorIndex
 90
        5
102
RTVSPost2010Prop44ColorRGB
 90
      255
102
RTVSPost2010PropOp44
 70
     1
102
RTVSPost2010Prop45
280
     0
102
RTVSPost2010PropOp45
 70
     1
102
RTVSPost2010Prop46
 90
       50
102
RTVSPost2010PropOp46
 70
     1
102
RTVSPost2010Prop47
 90
       50
102
RTVSPost2010PropOp47
 70
     1
102
RTVSPost2010Prop48
 90
       50
102
RTVSPost2010PropOp48
 70
     1
102
RTVSPost2010Prop49
280
     0
102
RTVSPost2010PropOp49
 70
     1
102
RTVSPost2010Prop50
 90
       50
102
RTVSPost2010PropOp50
 70
     1
102
RTVSPost2010Prop51ColorIndex
 90
      256
102
RTVSPost2010Prop51ColorRGB
 90
-16777216
102
RTVSPost2010PropOp51
 70
     0
102
RTVSPost2010Prop52
140
1.0
102
RTVSPost2010PropOp52
 70
     0
102
RTVSPost2010Prop53
 90
        2
102
RTVSPost2010PropOp53
 70
     1
102
RTVSPost2010Prop54
  1
strokes_ogs.tif
102
RTVSPost2010PropOp54
 70
     1
102
RTVSPost2010Prop55
280
     0
102
RTVSPost2010PropOp55
 70
     1
102
RTVSPost2010Prop56
140
1.0
102
RTVSPost2010PropOp56
 70
     1
102
RTVSPost2010Prop57
140
1.0
102
RTVSPost2010PropOp57
 70
     1
102
RTVSPropertyOp0
 70
     1
102
RTVSPropertyOp1
 70
     1
102
RTVSPropertyOp2
 70
     1
102
RTVSPropertyOp3
 70
     1
102
RTVSPropertyOp4
 70
     1
102
RTVSPropertyOp5
 70
     1
102
RTVSPropertyOp6
 70
     1
102
RTVSPropertyOp7
 70
     1
102
RTVSPropertyOp8
 70
     1
102
RTVSPropertyOp9
 70
     1
102
RTVSPropertyOp10
 70
     1
102
RTVSPropertyOp11
 70
     1
102
RTVSPropertyOp12
 70
     1
102
RTVSPropertyOp13
 70
     1
102
RTVSPropertyOp14
 70
     1
102
RTVSPropertyOp15
 70
     1
102
RTVSPropertyOp16
 70
     1
102
RTVSPropertyOp17
 70
     1
102
RTVSPropertyOp18
 70
     1
102
RTVSPropertyOp19
 70
     1
102
RTVSPropertyOp20
 70
     1
102
RTVSPropertyOp21
 70
     1
102
RTVSPropertyOp22
 70
     1
102
RTVSPropertyOp23
 70
     1
102
RTVSPropertyOp24
 70
     1
102
RTVSPropertyOp25
 70
     1
102
RTVSPropertyOp26
 70
     1
102
RTVSPropertyOp27
 70
     1
102
RTVSPropertyOp28
 70
     1
102
RTVSPropertyOp29
 70
     1
102
RTVSPropertyOp30
 70
     1
102
RTVSPropertyOp31
 70
     1
102
RTVSPropertyOp32
 70
     1
102
RTVSPropertyOp33
 70
     1
102
RTVSPropertyOp34
 70
     1
102
RTVSPropertyOp35
 70
     1
102
RTVSPropertyOp36
 70
     1
102
RTVSPropertyOp37
 70
     1
102
RTVSPropertyOp38
 70
     1
102
RTVSPropertyOp39
 70
     1
102
RTVSPropertyOp40
 70
     1
102
RTVSPropertyOp41
 70
     1
102
RTVSPropertyOp42
 70
     1
102
RTVSPropertyOp43
 70
     1
102
RTVSPropertyOp44
 70
     1
102
RTVSPropertyOp45
 70
     1
102
RTVSPropertyOp46
 70
     1
102
RTVSPropertyOp47
 70
     1
102
RTVSPropertyOp48
 70
     1
102
RTVSPropertyOp49
 70
     1
102
RTVSPropertyOp50
 70
     1
102
RTVSPropertyOp51
 70
     0
102
RTVSPropertyOp52
 70
     0
102
RTVSPropertyOp53
 70
     1
102
RTVSPropertyOp54
 70
     1
102
RTVSPropertyOp55
 70
     1
102
RTVSPropertyOp56
 70
     1
102
RTVSPropertyOp57
 70
     1
102
RTVSPropertyOp58
 70
     1
102
RTVSPropertyOp59
 70
     1
102
RTVSPropertyOp60
 70
     1
102
RTVSPropertyOp61
 70
     1
102
RTVSPropertyOp62
 70
     1
  0
XRECORD
  5
8E3
102
{ACAD_REACTORS
330
8E2
102
}
330
8E2
100
AcDbXrecord
280
     1
102
RTVSPost2010Prop28
280
     0
102
RTVSPost2010PropOp28
 70
     1
102
RTVSPost2010Prop29
280
     1
102
RTVSPost2010PropOp29
 70
     1
102
RTVSPost2010Prop30
280
     1
102
RTVSPost2010PropOp30
 70
     1
102
RTVSPost2010Prop31
280
     0
102
RTVSPost2010PropOp31
 70
     1
102
RTVSPost2010Prop32
280
     0
102
RTVSPost2010PropOp32
 70
     1
102
RTVSPost2010Prop33
280
     0
102
RTVSPost2010PropOp33
 70
     1
102
RTVSPost2010Prop34
280
     0
102
RTVSPost2010PropOp34
 70
     1
102
RTVSPost2010Prop35
280
     0
102
RTVSPost2010PropOp35
 70
     1
102
RTVSPost2010Prop36
280
     0
102
RTVSPost2010PropOp36
 70
     1
102
RTVSPost2010Prop37
 90
       50
102
RTVSPost2010PropOp37
 70
     1
102
RTVSPost2010Prop38
140
0.0
102
RTVSPost2010PropOp38
 70
     1
102
RTVSPost2010Prop39
140
1.0
102
RTVSPost2010PropOp39
 70
     1
102
RTVSPost2010Prop40
 90
        0
102
RTVSPost2010PropOp40
 70
     1
102
RTVSPost2010Prop41ColorIndex
 90
       18
102
RTVSPost2010Prop41ColorRGB
 90
        0
102
RTVSPost2010PropOp41
 70
     1
102
RTVSPost2010Prop42
 90
       50
102
RTVSPost2010PropOp42
 70
     1
102
RTVSPost2010Prop43
 90
        3
102
RTVSPost2010PropOp43
 70
     1
102
RTVSPost2010Prop44ColorIndex
 90
        5
102
RTVSPost2010Prop44ColorRGB
 90
      255
102
RTVSPost2010PropOp44
 70
     1
102
RTVSPost2010Prop45
280
     0
102
RTVSPost2010PropOp45
 70
     1
102
RTVSPost2010Prop46
 90
       50
102
RTVSPost2010PropOp46
 70
     1
102
RTVSPost2010Prop47
 90
       50
102
RTVSPost2010PropOp47
 70
     1
102
RTVSPost2010Prop48
 90
       50
102
RTVSPost2010PropOp48
 70
     1
102
RTVSPost2010Prop49
280
     0
102
RTVSPost2010PropOp49
 70
     1
102
RTVSPost2010Prop50
 90
       50
102
RTVSPost2010PropOp50
 70
     1
102
RTVSPost2010Prop51ColorIndex
 90
      256
102
RTVSPost2010Prop51ColorRGB
 90
-16777216
102
RTVSPost2010PropOp51
 70
     0
102
RTVSPost2010Prop52
140
1.0
102
RTVSPost2010PropOp52
 70
     0
102
RTVSPost2010Prop53
 90
        2
102
RTVSPost2010PropOp53
 70
     1
102
RTVSPost2010Prop54
  1
strokes_ogs.tif
102
RTVSPost2010PropOp54
 70
     1
102
RTVSPost2010Prop55
280
     0
102
RTVSPost2010PropOp55
 70
     1
102
RTVSPost2010Prop56
140
1.0
102
RTVSPost2010PropOp56
 70
     1
102
RTVSPost2010Prop57
140
1.0
102
RTVSPost2010PropOp57
 70
     1
102
RTVSPropertyOp0
 70
     1
102
RTVSPropertyOp1
 70
     1
102
RTVSPropertyOp2
 70
     1
102
RTVSPropertyOp3
 70
     1
102
RTVSPropertyOp4
 70
     1
102
RTVSPropertyOp5
 70
     1
102
RTVSPropertyOp6
 70
     1
102
RTVSPropertyOp7
 70
     1
102
RTVSPropertyOp8
 70
     1
102
RTVSPropertyOp9
 70
     1
102
RTVSPropertyOp10
 70
     1
102
RTVSPropertyOp11
 70
     1
102
RTVSPropertyOp12
 70
     1
102
RTVSPropertyOp13
 70
     1
102
RTVSPropertyOp14
 70
     1
102
RTVSPropertyOp15
 70
     1
102
RTVSPropertyOp16
 70
     1
102
RTVSPropertyOp17
 70
     1
102
RTVSPropertyOp18
 70
     1
102
RTVSPropertyOp19
 70
     1
102
RTVSPropertyOp20
 70
     1
102
RTVSPropertyOp21
 70
     1
102
RTVSPropertyOp22
 70
     1
102
RTVSPropertyOp23
 70
     1
102
RTVSPropertyOp24
 70
     1
102
RTVSPropertyOp25
 70
     1
102
RTVSPropertyOp26
 70
     1
102
RTVSPropertyOp27
 70
     1
102
RTVSPropertyOp28
 70
     1
102
RTVSPropertyOp29
 70
     1
102
RTVSPropertyOp30
 70
     1
102
RTVSPropertyOp31
 70
     1
102
RTVSPropertyOp32
 70
     1
102
RTVSPropertyOp33
 70
     1
102
RTVSPropertyOp34
 70
     1
102
RTVSPropertyOp35
 70
     1
102
RTVSPropertyOp36
 70
     1
102
RTVSPropertyOp37
 70
     1
102
RTVSPropertyOp38
 70
     1
102
RTVSPropertyOp39
 70
     1
102
RTVSPropertyOp40
 70
     1
102
RTVSPropertyOp41
 70
     1
102
RTVSPropertyOp42
 70
     1
102
RTVSPropertyOp43
 70
     1
102
RTVSPropertyOp44
 70
     1
102
RTVSPropertyOp45
 70
     1
102
RTVSPropertyOp46
 70
     1
102
RTVSPropertyOp47
 70
     1
102
RTVSPropertyOp48
 70
     1
102
RTVSPropertyOp49
 70
     1
102
RTVSPropertyOp50
 70
     1
102
RTVSPropertyOp51
 70
     0
102
RTVSPropertyOp52
 70
     0
102
RTVSPropertyOp53
 70
     1
102
RTVSPropertyOp54
 70
     1
102
RTVSPropertyOp55
 70
     1
102
RTVSPropertyOp56
 70
     1
102
RTVSPropertyOp57
 70
     1
102
RTVSPropertyOp58
 70
     1
102
RTVSPropertyOp59
 70
     1
102
RTVSPropertyOp60
 70
     1
102
RTVSPropertyOp61
 70
     1
102
RTVSPropertyOp62
 70
     1
  0
XRECORD
  5
8F1
102
{ACAD_REACTORS
330
8F0
102
}
330
8F0
100
AcDbXrecord
280
     1
102
RTVSPost2010Prop28
280
     0
102
RTVSPost2010PropOp28
 70
     1
102
RTVSPost2010Prop29
280
     1
102
RTVSPost2010PropOp29
 70
     1
102
RTVSPost2010Prop30
280
     1
102
RTVSPost2010PropOp30
 70
     1
102
RTVSPost2010Prop31
280
     0
102
RTVSPost2010PropOp31
 70
     1
102
RTVSPost2010Prop32
280
     0
102
RTVSPost2010PropOp32
 70
     1
102
RTVSPost2010Prop33
280
     0
102
RTVSPost2010PropOp33
 70
     1
102
RTVSPost2010Prop34
280
     0
102
RTVSPost2010PropOp34
 70
     1
102
RTVSPost2010Prop35
280
     0
102
RTVSPost2010PropOp35
 70
     1
102
RTVSPost2010Prop36
280
     0
102
RTVSPost2010PropOp36
 70
     1
102
RTVSPost2010Prop37
 90
       50
102
RTVSPost2010PropOp37
 70
     1
102
RTVSPost2010Prop38
140
0.0
102
RTVSPost2010PropOp38
 70
     1
102
RTVSPost2010Prop39
140
1.0
102
RTVSPost2010PropOp39
 70
     1
102
RTVSPost2010Prop40
 90
        0
102
RTVSPost2010PropOp40
 70
     1
102
RTVSPost2010Prop41ColorIndex
 90
       18
102
RTVSPost2010Prop41ColorRGB
 90
        0
102
RTVSPost2010PropOp41
 70
     1
102
RTVSPost2010Prop42
 90
       50
102
RTVSPost2010PropOp42
 70
     1
102
RTVSPost2010Prop43
 90
        3
102
RTVSPost2010PropOp43
 70
     1
102
RTVSPost2010Prop44ColorIndex
 90
        5
102
RTVSPost2010Prop44ColorRGB
 90
      255
102
RTVSPost2010PropOp44
 70
     1
102
RTVSPost2010Prop45
280
     0
102
RTVSPost2010PropOp45
 70
     1
102
RTVSPost2010Prop46
 90
       50
102
RTVSPost2010PropOp46
 70
     1
102
RTVSPost2010Prop47
 90
       50
102
RTVSPost2010PropOp47
 70
     1
102
RTVSPost2010Prop48
 90
       50
102
RTVSPost2010PropOp48
 70
     1
102
RTVSPost2010Prop49
280
     0
102
RTVSPost2010PropOp49
 70
     1
102
RTVSPost2010Prop50
 90
       50
102
RTVSPost2010PropOp50
 70
     1
102
RTVSPost2010Prop51ColorIndex
 90
      256
102
RTVSPost2010Prop51ColorRGB
 90
-16777216
102
RTVSPost2010PropOp51
 70
     0
102
RTVSPost2010Prop52
140
1.0
102
RTVSPost2010PropOp52
 70
     0
102
RTVSPost2010Prop53
 90
        2
102
RTVSPost2010PropOp53
 70
     1
102
RTVSPost2010Prop54
  1
strokes_ogs.tif
102
RTVSPost2010PropOp54
 70
     1
102
RTVSPost2010Prop55
280
     0
102
RTVSPost2010PropOp55
 70
     1
102
RTVSPost2010Prop56
140
1.0
102
RTVSPost2010PropOp56
 70
     1
102
RTVSPost2010Prop57
140
1.0
102
RTVSPost2010PropOp57
 70
     1
102
RTVSPropertyOp0
 70
     1
102
RTVSPropertyOp1
 70
     1
102
RTVSPropertyOp2
 70
     1
102
RTVSPropertyOp3
 70
     1
102
RTVSPropertyOp4
 70
     1
102
RTVSPropertyOp5
 70
     1
102
RTVSPropertyOp6
 70
     1
102
RTVSPropertyOp7
 70
     1
102
RTVSPropertyOp8
 70
     1
102
RTVSPropertyOp9
 70
     1
102
RTVSPropertyOp10
 70
     1
102
RTVSPropertyOp11
 70
     1
102
RTVSPropertyOp12
 70
     1
102
RTVSPropertyOp13
 70
     1
102
RTVSPropertyOp14
 70
     1
102
RTVSPropertyOp15
 70
     1
102
RTVSPropertyOp16
 70
     1
102
RTVSPropertyOp17
 70
     1
102
RTVSPropertyOp18
 70
     1
102
RTVSPropertyOp19
 70
     1
102
RTVSPropertyOp20
 70
     1
102
RTVSPropertyOp21
 70
     1
102
RTVSPropertyOp22
 70
     1
102
RTVSPropertyOp23
 70
     1
102
RTVSPropertyOp24
 70
     1
102
RTVSPropertyOp25
 70
     1
102
RTVSPropertyOp26
 70
     1
102
RTVSPropertyOp27
 70
     1
102
RTVSPropertyOp28
 70
     1
102
RTVSPropertyOp29
 70
     1
102
RTVSPropertyOp30
 70
     1
102
RTVSPropertyOp31
 70
     1
102
RTVSPropertyOp32
 70
     1
102
RTVSPropertyOp33
 70
     1
102
RTVSPropertyOp34
 70
     1
102
RTVSPropertyOp35
 70
     1
102
RTVSPropertyOp36
 70
     1
102
RTVSPropertyOp37
 70
     1
102
RTVSPropertyOp38
 70
     1
102
RTVSPropertyOp39
 70
     1
102
RTVSPropertyOp40
 70
     1
102
RTVSPropertyOp41
 70
     1
102
RTVSPropertyOp42
 70
     1
102
RTVSPropertyOp43
 70
     1
102
RTVSPropertyOp44
 70
     1
102
RTVSPropertyOp45
 70
     1
102
RTVSPropertyOp46
 70
     1
102
RTVSPropertyOp47
 70
     1
102
RTVSPropertyOp48
 70
     1
102
RTVSPropertyOp49
 70
     1
102
RTVSPropertyOp50
 70
     1
102
RTVSPropertyOp51
 70
     0
102
RTVSPropertyOp52
 70
     0
102
RTVSPropertyOp53
 70
     1
102
RTVSPropertyOp54
 70
     1
102
RTVSPropertyOp55
 70
     1
102
RTVSPropertyOp56
 70
     1
102
RTVSPropertyOp57
 70
     1
102
RTVSPropertyOp58
 70
     1
102
RTVSPropertyOp59
 70
     1
102
RTVSPropertyOp60
 70
     1
102
RTVSPropertyOp61
 70
     1
102
RTVSPropertyOp62
 70
     1
  0
XRECORD
  5
8F9
102
{ACAD_REACTORS
330
8F8
102
}
330
8F8
100
AcDbXrecord
280
     1
102
RTVSPost2010Prop28
280
     0
102
RTVSPost2010PropOp28
 70
     1
102
RTVSPost2010Prop29
280
     1
102
RTVSPost2010PropOp29
 70
     1
102
RTVSPost2010Prop30
280
     1
102
RTVSPost2010PropOp30
 70
     1
102
RTVSPost2010Prop31
280
     0
102
RTVSPost2010PropOp31
 70
     1
102
RTVSPost2010Prop32
280
     0
102
RTVSPost2010PropOp32
 70
     1
102
RTVSPost2010Prop33
280
     0
102
RTVSPost2010PropOp33
 70
     1
102
RTVSPost2010Prop34
280
     0
102
RTVSPost2010PropOp34
 70
     1
102
RTVSPost2010Prop35
280
     0
102
RTVSPost2010PropOp35
 70
     1
102
RTVSPost2010Prop36
280
     0
102
RTVSPost2010PropOp36
 70
     1
102
RTVSPost2010Prop37
 90
       50
102
RTVSPost2010PropOp37
 70
     1
102
RTVSPost2010Prop38
140
0.0
102
RTVSPost2010PropOp38
 70
     1
102
RTVSPost2010Prop39
140
1.0
102
RTVSPost2010PropOp39
 70
     1
102
RTVSPost2010Prop40
 90
        0
102
RTVSPost2010PropOp40
 70
     1
102
RTVSPost2010Prop41ColorIndex
 90
       18
102
RTVSPost2010Prop41ColorRGB
 90
        0
102
RTVSPost2010PropOp41
 70
     1
102
RTVSPost2010Prop42
 90
       50
102
RTVSPost2010PropOp42
 70
     1
102
RTVSPost2010Prop43
 90
        3
102
RTVSPost2010PropOp43
 70
     1
102
RTVSPost2010Prop44ColorIndex
 90
        5
102
RTVSPost2010Prop44ColorRGB
 90
      255
102
RTVSPost2010PropOp44
 70
     1
102
RTVSPost2010Prop45
280
     0
102
RTVSPost2010PropOp45
 70
     1
102
RTVSPost2010Prop46
 90
       50
102
RTVSPost2010PropOp46
 70
     1
102
RTVSPost2010Prop47
 90
       50
102
RTVSPost2010PropOp47
 70
     1
102
RTVSPost2010Prop48
 90
       50
102
RTVSPost2010PropOp48
 70
     1
102
RTVSPost2010Prop49
280
     0
102
RTVSPost2010PropOp49
 70
     1
102
RTVSPost2010Prop50
 90
       50
102
RTVSPost2010PropOp50
 70
     1
102
RTVSPost2010Prop51ColorIndex
 90
      256
102
RTVSPost2010Prop51ColorRGB
 90
-16777216
102
RTVSPost2010PropOp51
 70
     0
102
RTVSPost2010Prop52
140
1.0
102
RTVSPost2010PropOp52
 70
     0
102
RTVSPost2010Prop53
 90
        2
102
RTVSPost2010PropOp53
 70
     1
102
RTVSPost2010Prop54
  1
strokes_ogs.tif
102
RTVSPost2010PropOp54
 70
     1
102
RTVSPost2010Prop55
280
     0
102
RTVSPost2010PropOp55
 70
     1
102
RTVSPost2010Prop56
140
1.0
102
RTVSPost2010PropOp56
 70
     1
102
RTVSPost2010Prop57
140
1.0
102
RTVSPost2010PropOp57
 70
     1
102
RTVSPropertyOp0
 70
     1
102
RTVSPropertyOp1
 70
     1
102
RTVSPropertyOp2
 70
     1
102
RTVSPropertyOp3
 70
     1
102
RTVSPropertyOp4
 70
     1
102
RTVSPropertyOp5
 70
     1
102
RTVSPropertyOp6
 70
     1
102
RTVSPropertyOp7
 70
     1
102
RTVSPropertyOp8
 70
     1
102
RTVSPropertyOp9
 70
     1
102
RTVSPropertyOp10
 70
     1
102
RTVSPropertyOp11
 70
     1
102
RTVSPropertyOp12
 70
     1
102
RTVSPropertyOp13
 70
     1
102
RTVSPropertyOp14
 70
     1
102
RTVSPropertyOp15
 70
     1
102
RTVSPropertyOp16
 70
     1
102
RTVSPropertyOp17
 70
     1
102
RTVSPropertyOp18
 70
     1
102
RTVSPropertyOp19
 70
     1
102
RTVSPropertyOp20
 70
     1
102
RTVSPropertyOp21
 70
     1
102
RTVSPropertyOp22
 70
     1
102
RTVSPropertyOp23
 70
     1
102
RTVSPropertyOp24
 70
     1
102
RTVSPropertyOp25
 70
     1
102
RTVSPropertyOp26
 70
     1
102
RTVSPropertyOp27
 70
     1
102
RTVSPropertyOp28
 70
     1
102
RTVSPropertyOp29
 70
     1
102
RTVSPropertyOp30
 70
     1
102
RTVSPropertyOp31
 70
     1
102
RTVSPropertyOp32
 70
     1
102
RTVSPropertyOp33
 70
     1
102
RTVSPropertyOp34
 70
     1
102
RTVSPropertyOp35
 70
     1
102
RTVSPropertyOp36
 70
     1
102
RTVSPropertyOp37
 70
     1
102
RTVSPropertyOp38
 70
     1
102
RTVSPropertyOp39
 70
     1
102
RTVSPropertyOp40
 70
     1
102
RTVSPropertyOp41
 70
     1
102
RTVSPropertyOp42
 70
     1
102
RTVSPropertyOp43
 70
     1
102
RTVSPropertyOp44
 70
     1
102
RTVSPropertyOp45
 70
     1
102
RTVSPropertyOp46
 70
     1
102
RTVSPropertyOp47
 70
     1
102
RTVSPropertyOp48
 70
     1
102
RTVSPropertyOp49
 70
     1
102
RTVSPropertyOp50
 70
     1
102
RTVSPropertyOp51
 70
     0
102
RTVSPropertyOp52
 70
     0
102
RTVSPropertyOp53
 70
     1
102
RTVSPropertyOp54
 70
     1
102
RTVSPropertyOp55
 70
     1
102
RTVSPropertyOp56
 70
     1
102
RTVSPropertyOp57
 70
     1
102
RTVSPropertyOp58
 70
     1
102
RTVSPropertyOp59
 70
     1
102
RTVSPropertyOp60
 70
     1
102
RTVSPropertyOp61
 70
     1
102
RTVSPropertyOp62
 70
     1
  0
XRECORD
  5
8EB
102
{ACAD_REACTORS
330
8EA
102
}
330
8EA
100
AcDbXrecord
280
     1
102
RTVSPost2010Prop28
280
     0
102
RTVSPost2010PropOp28
 70
     1
102
RTVSPost2010Prop29
280
     1
102
RTVSPost2010PropOp29
 70
     1
102
RTVSPost2010Prop30
280
     1
102
RTVSPost2010PropOp30
 70
     1
102
RTVSPost2010Prop31
280
     0
102
RTVSPost2010PropOp31
 70
     1
102
RTVSPost2010Prop32
280
     0
102
RTVSPost2010PropOp32
 70
     1
102
RTVSPost2010Prop33
280
     0
102
RTVSPost2010PropOp33
 70
     1
102
RTVSPost2010Prop34
280
     0
102
RTVSPost2010PropOp34
 70
     1
102
RTVSPost2010Prop35
280
     0
102
RTVSPost2010PropOp35
 70
     1
102
RTVSPost2010Prop36
280
     0
102
RTVSPost2010PropOp36
 70
     1
102
RTVSPost2010Prop37
 90
       50
102
RTVSPost2010PropOp37
 70
     1
102
RTVSPost2010Prop38
140
0.0
102
RTVSPost2010PropOp38
 70
     1
102
RTVSPost2010Prop39
140
1.0
102
RTVSPost2010PropOp39
 70
     1
102
RTVSPost2010Prop40
 90
        0
102
RTVSPost2010PropOp40
 70
     1
102
RTVSPost2010Prop41ColorIndex
 90
       18
102
RTVSPost2010Prop41ColorRGB
 90
        0
102
RTVSPost2010PropOp41
 70
     1
102
RTVSPost2010Prop42
 90
       50
102
RTVSPost2010PropOp42
 70
     1
102
RTVSPost2010Prop43
 90
        3
102
RTVSPost2010PropOp43
 70
     1
102
RTVSPost2010Prop44ColorIndex
 90
        5
102
RTVSPost2010Prop44ColorRGB
 90
      255
102
RTVSPost2010PropOp44
 70
     1
102
RTVSPost2010Prop45
280
     0
102
RTVSPost2010PropOp45
 70
     1
102
RTVSPost2010Prop46
 90
       50
102
RTVSPost2010PropOp46
 70
     1
102
RTVSPost2010Prop47
 90
       50
102
RTVSPost2010PropOp47
 70
     1
102
RTVSPost2010Prop48
 90
       50
102
RTVSPost2010PropOp48
 70
     1
102
RTVSPost2010Prop49
280
     0
102
RTVSPost2010PropOp49
 70
     1
102
RTVSPost2010Prop50
 90
       50
102
RTVSPost2010PropOp50
 70
     1
102
RTVSPost2010Prop51ColorIndex
 90
      256
102
RTVSPost2010Prop51ColorRGB
 90
-16777216
102
RTVSPost2010PropOp51
 70
     0
102
RTVSPost2010Prop52
140
1.0
102
RTVSPost2010PropOp52
 70
     0
102
RTVSPost2010Prop53
 90
        2
102
RTVSPost2010PropOp53
 70
     1
102
RTVSPost2010Prop54
  1
strokes_ogs.tif
102
RTVSPost2010PropOp54
 70
     1
102
RTVSPost2010Prop55
280
     0
102
RTVSPost2010PropOp55
 70
     1
102
RTVSPost2010Prop56
140
1.0
102
RTVSPost2010PropOp56
 70
     1
102
RTVSPost2010Prop57
140
1.0
102
RTVSPost2010PropOp57
 70
     1
102
RTVSPropertyOp0
 70
     1
102
RTVSPropertyOp1
 70
     1
102
RTVSPropertyOp2
 70
     1
102
RTVSPropertyOp3
 70
     1
102
RTVSPropertyOp4
 70
     1
102
RTVSPropertyOp5
 70
     1
102
RTVSPropertyOp6
 70
     1
102
RTVSPropertyOp7
 70
     1
102
RTVSPropertyOp8
 70
     1
102
RTVSPropertyOp9
 70
     1
102
RTVSPropertyOp10
 70
     1
102
RTVSPropertyOp11
 70
     1
102
RTVSPropertyOp12
 70
     1
102
RTVSPropertyOp13
 70
     1
102
RTVSPropertyOp14
 70
     1
102
RTVSPropertyOp15
 70
     1
102
RTVSPropertyOp16
 70
     1
102
RTVSPropertyOp17
 70
     1
102
RTVSPropertyOp18
 70
     1
102
RTVSPropertyOp19
 70
     1
102
RTVSPropertyOp20
 70
     1
102
RTVSPropertyOp21
 70
     1
102
RTVSPropertyOp22
 70
     1
102
RTVSPropertyOp23
 70
     1
102
RTVSPropertyOp24
 70
     1
102
RTVSPropertyOp25
 70
     1
102
RTVSPropertyOp26
 70
     1
102
RTVSPropertyOp27
 70
     1
102
RTVSPropertyOp28
 70
     1
102
RTVSPropertyOp29
 70
     1
102
RTVSPropertyOp30
 70
     1
102
RTVSPropertyOp31
 70
     1
102
RTVSPropertyOp32
 70
     1
102
RTVSPropertyOp33
 70
     1
102
RTVSPropertyOp34
 70
     1
102
RTVSPropertyOp35
 70
     1
102
RTVSPropertyOp36
 70
     1
102
RTVSPropertyOp37
 70
     1
102
RTVSPropertyOp38
 70
     1
102
RTVSPropertyOp39
 70
     1
102
RTVSPropertyOp40
 70
     1
102
RTVSPropertyOp41
 70
     1
102
RTVSPropertyOp42
 70
     1
102
RTVSPropertyOp43
 70
     1
102
RTVSPropertyOp44
 70
     1
102
RTVSPropertyOp45
 70
     1
102
RTVSPropertyOp46
 70
     1
102
RTVSPropertyOp47
 70
     1
102
RTVSPropertyOp48
 70
     1
102
RTVSPropertyOp49
 70
     1
102
RTVSPropertyOp50
 70
     1
102
RTVSPropertyOp51
 70
     0
102
RTVSPropertyOp52
 70
     0
102
RTVSPropertyOp53
 70
     1
102
RTVSPropertyOp54
 70
     1
102
RTVSPropertyOp55
 70
     1
102
RTVSPropertyOp56
 70
     1
102
RTVSPropertyOp57
 70
     1
102
RTVSPropertyOp58
 70
     1
102
RTVSPropertyOp59
 70
     1
102
RTVSPropertyOp60
 70
     1
102
RTVSPropertyOp61
 70
     1
102
RTVSPropertyOp62
 70
     1
  0
XRECORD
  5
8EF
102
{ACAD_REACTORS
330
8EE
102
}
330
8EE
100
AcDbXrecord
280
     1
102
RTVSPost2010Prop28
280
     0
102
RTVSPost2010PropOp28
 70
     1
102
RTVSPost2010Prop29
280
     1
102
RTVSPost2010PropOp29
 70
     1
102
RTVSPost2010Prop30
280
     1
102
RTVSPost2010PropOp30
 70
     1
102
RTVSPost2010Prop31
280
     0
102
RTVSPost2010PropOp31
 70
     1
102
RTVSPost2010Prop32
280
     0
102
RTVSPost2010PropOp32
 70
     1
102
RTVSPost2010Prop33
280
     0
102
RTVSPost2010PropOp33
 70
     1
102
RTVSPost2010Prop34
280
     0
102
RTVSPost2010PropOp34
 70
     1
102
RTVSPost2010Prop35
280
     0
102
RTVSPost2010PropOp35
 70
     1
102
RTVSPost2010Prop36
280
     0
102
RTVSPost2010PropOp36
 70
     1
102
RTVSPost2010Prop37
 90
       50
102
RTVSPost2010PropOp37
 70
     1
102
RTVSPost2010Prop38
140
0.0
102
RTVSPost2010PropOp38
 70
     1
102
RTVSPost2010Prop39
140
1.0
102
RTVSPost2010PropOp39
 70
     1
102
RTVSPost2010Prop40
 90
        0
102
RTVSPost2010PropOp40
 70
     1
102
RTVSPost2010Prop41ColorIndex
 90
       18
102
RTVSPost2010Prop41ColorRGB
 90
        0
102
RTVSPost2010PropOp41
 70
     1
102
RTVSPost2010Prop42
 90
       50
102
RTVSPost2010PropOp42
 70
     1
102
RTVSPost2010Prop43
 90
        3
102
RTVSPost2010PropOp43
 70
     1
102
RTVSPost2010Prop44ColorIndex
 90
        5
102
RTVSPost2010Prop44ColorRGB
 90
      255
102
RTVSPost2010PropOp44
 70
     1
102
RTVSPost2010Prop45
280
     0
102
RTVSPost2010PropOp45
 70
     1
102
RTVSPost2010Prop46
 90
       50
102
RTVSPost2010PropOp46
 70
     1
102
RTVSPost2010Prop47
 90
       50
102
RTVSPost2010PropOp47
 70
     1
102
RTVSPost2010Prop48
 90
       50
102
RTVSPost2010PropOp48
 70
     1
102
RTVSPost2010Prop49
280
     0
102
RTVSPost2010PropOp49
 70
     1
102
RTVSPost2010Prop50
 90
       50
102
RTVSPost2010PropOp50
 70
     1
102
RTVSPost2010Prop51ColorIndex
 90
      256
102
RTVSPost2010Prop51ColorRGB
 90
-16777216
102
RTVSPost2010PropOp51
 70
     0
102
RTVSPost2010Prop52
140
1.0
102
RTVSPost2010PropOp52
 70
     0
102
RTVSPost2010Prop53
 90
        2
102
RTVSPost2010PropOp53
 70
     1
102
RTVSPost2010Prop54
  1
strokes_ogs.tif
102
RTVSPost2010PropOp54
 70
     1
102
RTVSPost2010Prop55
280
     0
102
RTVSPost2010PropOp55
 70
     1
102
RTVSPost2010Prop56
140
1.0
102
RTVSPost2010PropOp56
 70
     1
102
RTVSPost2010Prop57
140
1.0
102
RTVSPost2010PropOp57
 70
     1
102
RTVSPropertyOp0
 70
     1
102
RTVSPropertyOp1
 70
     1
102
RTVSPropertyOp2
 70
     1
102
RTVSPropertyOp3
 70
     1
102
RTVSPropertyOp4
 70
     1
102
RTVSPropertyOp5
 70
     1
102
RTVSPropertyOp6
 70
     1
102
RTVSPropertyOp7
 70
     1
102
RTVSPropertyOp8
 70
     1
102
RTVSPropertyOp9
 70
     1
102
RTVSPropertyOp10
 70
     1
102
RTVSPropertyOp11
 70
     1
102
RTVSPropertyOp12
 70
     1
102
RTVSPropertyOp13
 70
     1
102
RTVSPropertyOp14
 70
     1
102
RTVSPropertyOp15
 70
     1
102
RTVSPropertyOp16
 70
     1
102
RTVSPropertyOp17
 70
     1
102
RTVSPropertyOp18
 70
     1
102
RTVSPropertyOp19
 70
     1
102
RTVSPropertyOp20
 70
     1
102
RTVSPropertyOp21
 70
     1
102
RTVSPropertyOp22
 70
     1
102
RTVSPropertyOp23
 70
     1
102
RTVSPropertyOp24
 70
     1
102
RTVSPropertyOp25
 70
     1
102
RTVSPropertyOp26
 70
     1
102
RTVSPropertyOp27
 70
     1
102
RTVSPropertyOp28
 70
     1
102
RTVSPropertyOp29
 70
     1
102
RTVSPropertyOp30
 70
     1
102
RTVSPropertyOp31
 70
     1
102
RTVSPropertyOp32
 70
     1
102
RTVSPropertyOp33
 70
     1
102
RTVSPropertyOp34
 70
     1
102
RTVSPropertyOp35
 70
     1
102
RTVSPropertyOp36
 70
     1
102
RTVSPropertyOp37
 70
     1
102
RTVSPropertyOp38
 70
     1
102
RTVSPropertyOp39
 70
     1
102
RTVSPropertyOp40
 70
     1
102
RTVSPropertyOp41
 70
     1
102
RTVSPropertyOp42
 70
     1
102
RTVSPropertyOp43
 70
     1
102
RTVSPropertyOp44
 70
     1
102
RTVSPropertyOp45
 70
     1
102
RTVSPropertyOp46
 70
     1
102
RTVSPropertyOp47
 70
     1
102
RTVSPropertyOp48
 70
     1
102
RTVSPropertyOp49
 70
     1
102
RTVSPropertyOp50
 70
     1
102
RTVSPropertyOp51
 70
     0
102
RTVSPropertyOp52
 70
     0
102
RTVSPropertyOp53
 70
     1
102
RTVSPropertyOp54
 70
     1
102
RTVSPropertyOp55
 70
     1
102
RTVSPropertyOp56
 70
     1
102
RTVSPropertyOp57
 70
     1
102
RTVSPropertyOp58
 70
     1
102
RTVSPropertyOp59
 70
     1
102
RTVSPropertyOp60
 70
     1
102
RTVSPropertyOp61
 70
     1
102
RTVSPropertyOp62
 70
     1
  0
XRECORD
  5
909
102
{ACAD_REACTORS
330
908
102
}
330
908
100
AcDbXrecord
280
     1
102
RTVSPost2010Prop28
280
     0
102
RTVSPost2010PropOp28
 70
     0
102
RTVSPost2010Prop29
280
     1
102
RTVSPost2010PropOp29
 70
     0
102
RTVSPost2010Prop30
280
     1
102
RTVSPost2010PropOp30
 70
     0
102
RTVSPost2010Prop31
280
     0
102
RTVSPost2010PropOp31
 70
     0
102
RTVSPost2010Prop32
280
     0
102
RTVSPost2010PropOp32
 70
     0
102
RTVSPost2010Prop33
280
     0
102
RTVSPost2010PropOp33
 70
     0
102
RTVSPost2010Prop34
280
     0
102
RTVSPost2010PropOp34
 70
     0
102
RTVSPost2010Prop35
280
     0
102
RTVSPost2010PropOp35
 70
     0
102
RTVSPost2010Prop36
280
     0
102
RTVSPost2010PropOp36
 70
     0
102
RTVSPost2010Prop37
 90
       50
102
RTVSPost2010PropOp37
 70
     0
102
RTVSPost2010Prop38
140
0.0
102
RTVSPost2010PropOp38
 70
     0
102
RTVSPost2010Prop39
140
1.0
102
RTVSPost2010PropOp39
 70
     0
102
RTVSPost2010Prop40
 90
        0
102
RTVSPost2010PropOp40
 70
     0
102
RTVSPost2010Prop41ColorIndex
 90
       18
102
RTVSPost2010Prop41ColorRGB
 90
        0
102
RTVSPost2010PropOp41
 70
     0
102
RTVSPost2010Prop42
 90
       50
102
RTVSPost2010PropOp42
 70
     0
102
RTVSPost2010Prop43
 90
        3
102
RTVSPost2010PropOp43
 70
     0
102
RTVSPost2010Prop44ColorIndex
 90
        5
102
RTVSPost2010Prop44ColorRGB
 90
      255
102
RTVSPost2010PropOp44
 70
     0
102
RTVSPost2010Prop45
280
     0
102
RTVSPost2010PropOp45
 70
     0
102
RTVSPost2010Prop46
 90
       50
102
RTVSPost2010PropOp46
 70
     0
102
RTVSPost2010Prop47
 90
       50
102
RTVSPost2010PropOp47
 70
     0
102
RTVSPost2010Prop48
 90
       50
102
RTVSPost2010PropOp48
 70
     0
102
RTVSPost2010Prop49
280
     0
102
RTVSPost2010PropOp49
 70
     0
102
RTVSPost2010Prop50
 90
       50
102
RTVSPost2010PropOp50
 70
     0
102
RTVSPost2010Prop51ColorIndex
 90
      256
102
RTVSPost2010Prop51ColorRGB
 90
-16777216
102
RTVSPost2010PropOp51
 70
     0
102
RTVSPost2010Prop52
140
1.0
102
RTVSPost2010PropOp52
 70
     0
102
RTVSPost2010Prop53
 90
        2
102
RTVSPost2010PropOp53
 70
     0
102
RTVSPost2010Prop54
  1
strokes_ogs.tif
102
RTVSPost2010PropOp54
 70
     0
102
RTVSPost2010Prop55
280
     0
102
RTVSPost2010PropOp55
 70
     0
102
RTVSPost2010Prop56
140
1.0
102
RTVSPost2010PropOp56
 70
     0
102
RTVSPost2010Prop57
140
1.0
102
RTVSPost2010PropOp57
 70
     0
102
RTVSPropertyOp0
 70
     0
102
RTVSPropertyOp1
 70
     0
102
RTVSPropertyOp2
 70
     0
102
RTVSPropertyOp3
 70
     0
102
RTVSPropertyOp4
 70
     0
102
RTVSPropertyOp5
 70
     0
102
RTVSPropertyOp6
 70
     0
102
RTVSPropertyOp7
 70
     0
102
RTVSPropertyOp8
 70
     0
102
RTVSPropertyOp9
 70
     0
102
RTVSPropertyOp10
 70
     0
102
RTVSPropertyOp11
 70
     0
102
RTVSPropertyOp12
 70
     0
102
RTVSPropertyOp13
 70
     0
102
RTVSPropertyOp14
 70
     2
102
RTVSPropertyOp15
 70
     0
102
RTVSPropertyOp16
 70
     0
102
RTVSPropertyOp17
 70
     0
102
RTVSPropertyOp18
 70
     0
102
RTVSPropertyOp19
 70
     0
102
RTVSPropertyOp20
 70
     0
102
RTVSPropertyOp21
 70
     0
102
RTVSPropertyOp22
 70
     0
102
RTVSPropertyOp23
 70
     0
102
RTVSPropertyOp24
 70
     0
102
RTVSPropertyOp25
 70
     0
102
RTVSPropertyOp26
 70
     0
102
RTVSPropertyOp27
 70
     0
102
RTVSPropertyOp28
 70
     0
102
RTVSPropertyOp29
 70
     0
102
RTVSPropertyOp30
 70
     0
102
RTVSPropertyOp31
 70
     0
102
RTVSPropertyOp32
 70
     0
102
RTVSPropertyOp33
 70
     0
102
RTVSPropertyOp34
 70
     0
102
RTVSPropertyOp35
 70
     0
102
RTVSPropertyOp36
 70
     0
102
RTVSPropertyOp37
 70
     0
102
RTVSPropertyOp38
 70
     0
102
RTVSPropertyOp39
 70
     0
102
RTVSPropertyOp40
 70
     0
102
RTVSPropertyOp41
 70
     0
102
RTVSPropertyOp42
 70
     0
102
RTVSPropertyOp43
 70
     0
102
RTVSPropertyOp44
 70
     0
102
RTVSPropertyOp45
 70
     0
102
RTVSPropertyOp46
 70
     0
102
RTVSPropertyOp47
 70
     0
102
RTVSPropertyOp48
 70
     0
102
RTVSPropertyOp49
 70
     0
102
RTVSPropertyOp50
 70
     0
102
RTVSPropertyOp51
 70
     0
102
RTVSPropertyOp52
 70
     0
102
RTVSPropertyOp53
 70
     0
102
RTVSPropertyOp54
 70
     0
102
RTVSPropertyOp55
 70
     0
102
RTVSPropertyOp56
 70
     0
102
RTVSPropertyOp57
 70
     0
102
RTVSPropertyOp58
 70
     0
102
RTVSPropertyOp59
 70
     0
102
RTVSPropertyOp60
 70
     0
102
RTVSPropertyOp61
 70
     0
102
RTVSPropertyOp62
 70
     0
  0
XRECORD
  5
8F7
102
{ACAD_REACTORS
330
8F6
102
}
330
8F6
100
AcDbXrecord
280
     1
102
RTVSPost2010Prop28
280
     0
102
RTVSPost2010PropOp28
 70
     1
102
RTVSPost2010Prop29
280
     1
102
RTVSPost2010PropOp29
 70
     1
102
RTVSPost2010Prop30
280
     1
102
RTVSPost2010PropOp30
 70
     1
102
RTVSPost2010Prop31
280
     0
102
RTVSPost2010PropOp31
 70
     1
102
RTVSPost2010Prop32
280
     0
102
RTVSPost2010PropOp32
 70
     1
102
RTVSPost2010Prop33
280
     0
102
RTVSPost2010PropOp33
 70
     1
102
RTVSPost2010Prop34
280
     0
102
RTVSPost2010PropOp34
 70
     1
102
RTVSPost2010Prop35
280
     0
102
RTVSPost2010PropOp35
 70
     1
102
RTVSPost2010Prop36
280
     0
102
RTVSPost2010PropOp36
 70
     1
102
RTVSPost2010Prop37
 90
       50
102
RTVSPost2010PropOp37
 70
     1
102
RTVSPost2010Prop38
140
0.0
102
RTVSPost2010PropOp38
 70
     1
102
RTVSPost2010Prop39
140
1.0
102
RTVSPost2010PropOp39
 70
     1
102
RTVSPost2010Prop40
 90
        0
102
RTVSPost2010PropOp40
 70
     1
102
RTVSPost2010Prop41ColorIndex
 90
       18
102
RTVSPost2010Prop41ColorRGB
 90
        0
102
RTVSPost2010PropOp41
 70
     1
102
RTVSPost2010Prop42
 90
       50
102
RTVSPost2010PropOp42
 70
     1
102
RTVSPost2010Prop43
 90
        3
102
RTVSPost2010PropOp43
 70
     1
102
RTVSPost2010Prop44ColorIndex
 90
        5
102
RTVSPost2010Prop44ColorRGB
 90
      255
102
RTVSPost2010PropOp44
 70
     1
102
RTVSPost2010Prop45
280
     0
102
RTVSPost2010PropOp45
 70
     1
102
RTVSPost2010Prop46
 90
       50
102
RTVSPost2010PropOp46
 70
     1
102
RTVSPost2010Prop47
 90
       50
102
RTVSPost2010PropOp47
 70
     1
102
RTVSPost2010Prop48
 90
       50
102
RTVSPost2010PropOp48
 70
     1
102
RTVSPost2010Prop49
280
     0
102
RTVSPost2010PropOp49
 70
     1
102
RTVSPost2010Prop50
 90
       50
102
RTVSPost2010PropOp50
 70
     1
102
RTVSPost2010Prop51ColorIndex
 90
      256
102
RTVSPost2010Prop51ColorRGB
 90
-16777216
102
RTVSPost2010PropOp51
 70
     0
102
RTVSPost2010Prop52
140
1.0
102
RTVSPost2010PropOp52
 70
     0
102
RTVSPost2010Prop53
 90
        2
102
RTVSPost2010PropOp53
 70
     1
102
RTVSPost2010Prop54
  1
strokes_ogs.tif
102
RTVSPost2010PropOp54
 70
     1
102
RTVSPost2010Prop55
280
     0
102
RTVSPost2010PropOp55
 70
     1
102
RTVSPost2010Prop56
140
1.0
102
RTVSPost2010PropOp56
 70
     1
102
RTVSPost2010Prop57
140
1.0
102
RTVSPost2010PropOp57
 70
     1
102
RTVSPropertyOp0
 70
     1
102
RTVSPropertyOp1
 70
     1
102
RTVSPropertyOp2
 70
     1
102
RTVSPropertyOp3
 70
     1
102
RTVSPropertyOp4
 70
     1
102
RTVSPropertyOp5
 70
     1
102
RTVSPropertyOp6
 70
     1
102
RTVSPropertyOp7
 70
     1
102
RTVSPropertyOp8
 70
     1
102
RTVSPropertyOp9
 70
     1
102
RTVSPropertyOp10
 70
     1
102
RTVSPropertyOp11
 70
     1
102
RTVSPropertyOp12
 70
     1
102
RTVSPropertyOp13
 70
     1
102
RTVSPropertyOp14
 70
     1
102
RTVSPropertyOp15
 70
     1
102
RTVSPropertyOp16
 70
     1
102
RTVSPropertyOp17
 70
     1
102
RTVSPropertyOp18
 70
     1
102
RTVSPropertyOp19
 70
     1
102
RTVSPropertyOp20
 70
     1
102
RTVSPropertyOp21
 70
     1
102
RTVSPropertyOp22
 70
     1
102
RTVSPropertyOp23
 70
     1
102
RTVSPropertyOp24
 70
     1
102
RTVSPropertyOp25
 70
     1
102
RTVSPropertyOp26
 70
     1
102
RTVSPropertyOp27
 70
     1
102
RTVSPropertyOp28
 70
     1
102
RTVSPropertyOp29
 70
     1
102
RTVSPropertyOp30
 70
     1
102
RTVSPropertyOp31
 70
     1
102
RTVSPropertyOp32
 70
     1
102
RTVSPropertyOp33
 70
     1
102
RTVSPropertyOp34
 70
     1
102
RTVSPropertyOp35
 70
     1
102
RTVSPropertyOp36
 70
     1
102
RTVSPropertyOp37
 70
     1
102
RTVSPropertyOp38
 70
     1
102
RTVSPropertyOp39
 70
     1
102
RTVSPropertyOp40
 70
     1
102
RTVSPropertyOp41
 70
     1
102
RTVSPropertyOp42
 70
     1
102
RTVSPropertyOp43
 70
     1
102
RTVSPropertyOp44
 70
     1
102
RTVSPropertyOp45
 70
     1
102
RTVSPropertyOp46
 70
     1
102
RTVSPropertyOp47
 70
     1
102
RTVSPropertyOp48
 70
     1
102
RTVSPropertyOp49
 70
     1
102
RTVSPropertyOp50
 70
     1
102
RTVSPropertyOp51
 70
     0
102
RTVSPropertyOp52
 70
     0
102
RTVSPropertyOp53
 70
     1
102
RTVSPropertyOp54
 70
     1
102
RTVSPropertyOp55
 70
     1
102
RTVSPropertyOp56
 70
     1
102
RTVSPropertyOp57
 70
     1
102
RTVSPropertyOp58
 70
     1
102
RTVSPropertyOp59
 70
     1
102
RTVSPropertyOp60
 70
     1
102
RTVSPropertyOp61
 70
     1
102
RTVSPropertyOp62
 70
     1
  0
XRECORD
  5
8DB
102
{ACAD_REACTORS
330
8DA
102
}
330
8DA
100
AcDbXrecord
280
     1
102
RTVSPost2010Prop28
280
     0
102
RTVSPost2010PropOp28
 70
     1
102
RTVSPost2010Prop29
280
     1
102
RTVSPost2010PropOp29
 70
     1
102
RTVSPost2010Prop30
280
     1
102
RTVSPost2010PropOp30
 70
     1
102
RTVSPost2010Prop31
280
     0
102
RTVSPost2010PropOp31
 70
     1
102
RTVSPost2010Prop32
280
     0
102
RTVSPost2010PropOp32
 70
     1
102
RTVSPost2010Prop33
280
     0
102
RTVSPost2010PropOp33
 70
     1
102
RTVSPost2010Prop34
280
     0
102
RTVSPost2010PropOp34
 70
     1
102
RTVSPost2010Prop35
280
     0
102
RTVSPost2010PropOp35
 70
     1
102
RTVSPost2010Prop36
280
     0
102
RTVSPost2010PropOp36
 70
     1
102
RTVSPost2010Prop37
 90
       50
102
RTVSPost2010PropOp37
 70
     1
102
RTVSPost2010Prop38
140
0.0
102
RTVSPost2010PropOp38
 70
     1
102
RTVSPost2010Prop39
140
1.0
102
RTVSPost2010PropOp39
 70
     1
102
RTVSPost2010Prop40
 90
        0
102
RTVSPost2010PropOp40
 70
     1
102
RTVSPost2010Prop41ColorIndex
 90
       18
102
RTVSPost2010Prop41ColorRGB
 90
        0
102
RTVSPost2010PropOp41
 70
     1
102
RTVSPost2010Prop42
 90
       50
102
RTVSPost2010PropOp42
 70
     1
102
RTVSPost2010Prop43
 90
        3
102
RTVSPost2010PropOp43
 70
     1
102
RTVSPost2010Prop44ColorIndex
 90
        5
102
RTVSPost2010Prop44ColorRGB
 90
      255
102
RTVSPost2010PropOp44
 70
     1
102
RTVSPost2010Prop45
280
     0
102
RTVSPost2010PropOp45
 70
     1
102
RTVSPost2010Prop46
 90
       50
102
RTVSPost2010PropOp46
 70
     1
102
RTVSPost2010Prop47
 90
       50
102
RTVSPost2010PropOp47
 70
     1
102
RTVSPost2010Prop48
 90
       50
102
RTVSPost2010PropOp48
 70
     1
102
RTVSPost2010Prop49
280
     0
102
RTVSPost2010PropOp49
 70
     1
102
RTVSPost2010Prop50
 90
       50
102
RTVSPost2010PropOp50
 70
     1
102
RTVSPost2010Prop51ColorIndex
 90
      256
102
RTVSPost2010Prop51ColorRGB
 90
-16777216
102
RTVSPost2010PropOp51
 70
     0
102
RTVSPost2010Prop52
140
1.0
102
RTVSPost2010PropOp52
 70
     0
102
RTVSPost2010Prop53
 90
        2
102
RTVSPost2010PropOp53
 70
     1
102
RTVSPost2010Prop54
  1
strokes_ogs.tif
102
RTVSPost2010PropOp54
 70
     1
102
RTVSPost2010Prop55
280
     0
102
RTVSPost2010PropOp55
 70
     1
102
RTVSPost2010Prop56
140
1.0
102
RTVSPost2010PropOp56
 70
     1
102
RTVSPost2010Prop57
140
1.0
102
RTVSPost2010PropOp57
 70
     1
102
RTVSPropertyOp0
 70
     1
102
RTVSPropertyOp1
 70
     1
102
RTVSPropertyOp2
 70
     1
102
RTVSPropertyOp3
 70
     1
102
RTVSPropertyOp4
 70
     1
102
RTVSPropertyOp5
 70
     1
102
RTVSPropertyOp6
 70
     1
102
RTVSPropertyOp7
 70
     1
102
RTVSPropertyOp8
 70
     1
102
RTVSPropertyOp9
 70
     1
102
RTVSPropertyOp10
 70
     1
102
RTVSPropertyOp11
 70
     1
102
RTVSPropertyOp12
 70
     1
102
RTVSPropertyOp13
 70
     1
102
RTVSPropertyOp14
 70
     1
102
RTVSPropertyOp15
 70
     1
102
RTVSPropertyOp16
 70
     1
102
RTVSPropertyOp17
 70
     1
102
RTVSPropertyOp18
 70
     1
102
RTVSPropertyOp19
 70
     1
102
RTVSPropertyOp20
 70
     1
102
RTVSPropertyOp21
 70
     1
102
RTVSPropertyOp22
 70
     1
102
RTVSPropertyOp23
 70
     1
102
RTVSPropertyOp24
 70
     1
102
RTVSPropertyOp25
 70
     1
102
RTVSPropertyOp26
 70
     1
102
RTVSPropertyOp27
 70
     1
102
RTVSPropertyOp28
 70
     1
102
RTVSPropertyOp29
 70
     1
102
RTVSPropertyOp30
 70
     1
102
RTVSPropertyOp31
 70
     1
102
RTVSPropertyOp32
 70
     1
102
RTVSPropertyOp33
 70
     1
102
RTVSPropertyOp34
 70
     1
102
RTVSPropertyOp35
 70
     1
102
RTVSPropertyOp36
 70
     1
102
RTVSPropertyOp37
 70
     1
102
RTVSPropertyOp38
 70
     1
102
RTVSPropertyOp39
 70
     1
102
RTVSPropertyOp40
 70
     1
102
RTVSPropertyOp41
 70
     1
102
RTVSPropertyOp42
 70
     1
102
RTVSPropertyOp43
 70
     1
102
RTVSPropertyOp44
 70
     1
102
RTVSPropertyOp45
 70
     1
102
RTVSPropertyOp46
 70
     1
102
RTVSPropertyOp47
 70
     1
102
RTVSPropertyOp48
 70
     1
102
RTVSPropertyOp49
 70
     1
102
RTVSPropertyOp50
 70
     1
102
RTVSPropertyOp51
 70
     0
102
RTVSPropertyOp52
 70
     0
102
RTVSPropertyOp53
 70
     1
102
RTVSPropertyOp54
 70
     1
102
RTVSPropertyOp55
 70
     1
102
RTVSPropertyOp56
 70
     1
102
RTVSPropertyOp57
 70
     1
102
RTVSPropertyOp58
 70
     1
102
RTVSPropertyOp59
 70
     1
102
RTVSPropertyOp60
 70
     1
102
RTVSPropertyOp61
 70
     1
102
RTVSPropertyOp62
 70
     1
  0
XRECORD
  5
8DD
102
{ACAD_REACTORS
330
8DC
102
}
330
8DC
100
AcDbXrecord
280
     1
102
RTVSPost2010Prop28
280
     0
102
RTVSPost2010PropOp28
 70
     1
102
RTVSPost2010Prop29
280
     1
102
RTVSPost2010PropOp29
 70
     1
102
RTVSPost2010Prop30
280
     1
102
RTVSPost2010PropOp30
 70
     1
102
RTVSPost2010Prop31
280
     0
102
RTVSPost2010PropOp31
 70
     1
102
RTVSPost2010Prop32
280
     0
102
RTVSPost2010PropOp32
 70
     1
102
RTVSPost2010Prop33
280
     0
102
RTVSPost2010PropOp33
 70
     1
102
RTVSPost2010Prop34
280
     0
102
RTVSPost2010PropOp34
 70
     1
102
RTVSPost2010Prop35
280
     0
102
RTVSPost2010PropOp35
 70
     1
102
RTVSPost2010Prop36
280
     0
102
RTVSPost2010PropOp36
 70
     1
102
RTVSPost2010Prop37
 90
       50
102
RTVSPost2010PropOp37
 70
     1
102
RTVSPost2010Prop38
140
0.0
102
RTVSPost2010PropOp38
 70
     1
102
RTVSPost2010Prop39
140
1.0
102
RTVSPost2010PropOp39
 70
     1
102
RTVSPost2010Prop40
 90
        0
102
RTVSPost2010PropOp40
 70
     1
102
RTVSPost2010Prop41ColorIndex
 90
       18
102
RTVSPost2010Prop41ColorRGB
 90
        0
102
RTVSPost2010PropOp41
 70
     1
102
RTVSPost2010Prop42
 90
       50
102
RTVSPost2010PropOp42
 70
     1
102
RTVSPost2010Prop43
 90
        3
102
RTVSPost2010PropOp43
 70
     1
102
RTVSPost2010Prop44ColorIndex
 90
        5
102
RTVSPost2010Prop44ColorRGB
 90
      255
102
RTVSPost2010PropOp44
 70
     1
102
RTVSPost2010Prop45
280
     0
102
RTVSPost2010PropOp45
 70
     1
102
RTVSPost2010Prop46
 90
       50
102
RTVSPost2010PropOp46
 70
     1
102
RTVSPost2010Prop47
 90
       50
102
RTVSPost2010PropOp47
 70
     1
102
RTVSPost2010Prop48
 90
       50
102
RTVSPost2010PropOp48
 70
     1
102
RTVSPost2010Prop49
280
     0
102
RTVSPost2010PropOp49
 70
     1
102
RTVSPost2010Prop50
 90
       50
102
RTVSPost2010PropOp50
 70
     1
102
RTVSPost2010Prop51ColorIndex
 90
      256
102
RTVSPost2010Prop51ColorRGB
 90
-16777216
102
RTVSPost2010PropOp51
 70
     0
102
RTVSPost2010Prop52
140
1.0
102
RTVSPost2010PropOp52
 70
     0
102
RTVSPost2010Prop53
 90
        2
102
RTVSPost2010PropOp53
 70
     1
102
RTVSPost2010Prop54
  1
strokes_ogs.tif
102
RTVSPost2010PropOp54
 70
     1
102
RTVSPost2010Prop55
280
     0
102
RTVSPost2010PropOp55
 70
     1
102
RTVSPost2010Prop56
140
1.0
102
RTVSPost2010PropOp56
 70
     1
102
RTVSPost2010Prop57
140
1.0
102
RTVSPost2010PropOp57
 70
     1
102
RTVSPropertyOp0
 70
     1
102
RTVSPropertyOp1
 70
     1
102
RTVSPropertyOp2
 70
     1
102
RTVSPropertyOp3
 70
     1
102
RTVSPropertyOp4
 70
     1
102
RTVSPropertyOp5
 70
     1
102
RTVSPropertyOp6
 70
     1
102
RTVSPropertyOp7
 70
     1
102
RTVSPropertyOp8
 70
     1
102
RTVSPropertyOp9
 70
     1
102
RTVSPropertyOp10
 70
     1
102
RTVSPropertyOp11
 70
     1
102
RTVSPropertyOp12
 70
     1
102
RTVSPropertyOp13
 70
     1
102
RTVSPropertyOp14
 70
     1
102
RTVSPropertyOp15
 70
     1
102
RTVSPropertyOp16
 70
     1
102
RTVSPropertyOp17
 70
     1
102
RTVSPropertyOp18
 70
     1
102
RTVSPropertyOp19
 70
     1
102
RTVSPropertyOp20
 70
     1
102
RTVSPropertyOp21
 70
     1
102
RTVSPropertyOp22
 70
     1
102
RTVSPropertyOp23
 70
     1
102
RTVSPropertyOp24
 70
     1
102
RTVSPropertyOp25
 70
     1
102
RTVSPropertyOp26
 70
     1
102
RTVSPropertyOp27
 70
     1
102
RTVSPropertyOp28
 70
     1
102
RTVSPropertyOp29
 70
     1
102
RTVSPropertyOp30
 70
     1
102
RTVSPropertyOp31
 70
     1
102
RTVSPropertyOp32
 70
     1
102
RTVSPropertyOp33
 70
     1
102
RTVSPropertyOp34
 70
     1
102
RTVSPropertyOp35
 70
     1
102
RTVSPropertyOp36
 70
     1
102
RTVSPropertyOp37
 70
     1
102
RTVSPropertyOp38
 70
     1
102
RTVSPropertyOp39
 70
     1
102
RTVSPropertyOp40
 70
     1
102
RTVSPropertyOp41
 70
     1
102
RTVSPropertyOp42
 70
     1
102
RTVSPropertyOp43
 70
     1
102
RTVSPropertyOp44
 70
     1
102
RTVSPropertyOp45
 70
     1
102
RTVSPropertyOp46
 70
     1
102
RTVSPropertyOp47
 70
     1
102
RTVSPropertyOp48
 70
     1
102
RTVSPropertyOp49
 70
     1
102
RTVSPropertyOp50
 70
     1
102
RTVSPropertyOp51
 70
     0
102
RTVSPropertyOp52
 70
     0
102
RTVSPropertyOp53
 70
     1
102
RTVSPropertyOp54
 70
     1
102
RTVSPropertyOp55
 70
     1
102
RTVSPropertyOp56
 70
     1
102
RTVSPropertyOp57
 70
     1
102
RTVSPropertyOp58
 70
     1
102
RTVSPropertyOp59
 70
     1
102
RTVSPropertyOp60
 70
     1
102
RTVSPropertyOp61
 70
     1
102
RTVSPropertyOp62
 70
     1
  0
XRECORD
  5
8DF
102
{ACAD_REACTORS
330
8DE
102
}
330
8DE
100
AcDbXrecord
280
     1
102
RTVSPost2010Prop28
280
     0
102
RTVSPost2010PropOp28
 70
     1
102
RTVSPost2010Prop29
280
     1
102
RTVSPost2010PropOp29
 70
     1
102
RTVSPost2010Prop30
280
     1
102
RTVSPost2010PropOp30
 70
     1
102
RTVSPost2010Prop31
280
     0
102
RTVSPost2010PropOp31
 70
     1
102
RTVSPost2010Prop32
280
     0
102
RTVSPost2010PropOp32
 70
     1
102
RTVSPost2010Prop33
280
     0
102
RTVSPost2010PropOp33
 70
     1
102
RTVSPost2010Prop34
280
     0
102
RTVSPost2010PropOp34
 70
     1
102
RTVSPost2010Prop35
280
     0
102
RTVSPost2010PropOp35
 70
     1
102
RTVSPost2010Prop36
280
     0
102
RTVSPost2010PropOp36
 70
     1
102
RTVSPost2010Prop37
 90
       50
102
RTVSPost2010PropOp37
 70
     1
102
RTVSPost2010Prop38
140
0.0
102
RTVSPost2010PropOp38
 70
     1
102
RTVSPost2010Prop39
140
1.0
102
RTVSPost2010PropOp39
 70
     1
102
RTVSPost2010Prop40
 90
        0
102
RTVSPost2010PropOp40
 70
     1
102
RTVSPost2010Prop41ColorIndex
 90
       18
102
RTVSPost2010Prop41ColorRGB
 90
        0
102
RTVSPost2010PropOp41
 70
     1
102
RTVSPost2010Prop42
 90
       50
102
RTVSPost2010PropOp42
 70
     1
102
RTVSPost2010Prop43
 90
        3
102
RTVSPost2010PropOp43
 70
     1
102
RTVSPost2010Prop44ColorIndex
 90
        5
102
RTVSPost2010Prop44ColorRGB
 90
      255
102
RTVSPost2010PropOp44
 70
     1
102
RTVSPost2010Prop45
280
     0
102
RTVSPost2010PropOp45
 70
     1
102
RTVSPost2010Prop46
 90
       50
102
RTVSPost2010PropOp46
 70
     1
102
RTVSPost2010Prop47
 90
       50
102
RTVSPost2010PropOp47
 70
     1
102
RTVSPost2010Prop48
 90
       50
102
RTVSPost2010PropOp48
 70
     1
102
RTVSPost2010Prop49
280
     0
102
RTVSPost2010PropOp49
 70
     1
102
RTVSPost2010Prop50
 90
       50
102
RTVSPost2010PropOp50
 70
     1
102
RTVSPost2010Prop51ColorIndex
 90
      256
102
RTVSPost2010Prop51ColorRGB
 90
-16777216
102
RTVSPost2010PropOp51
 70
     0
102
RTVSPost2010Prop52
140
1.0
102
RTVSPost2010PropOp52
 70
     0
102
RTVSPost2010Prop53
 90
        2
102
RTVSPost2010PropOp53
 70
     1
102
RTVSPost2010Prop54
  1
strokes_ogs.tif
102
RTVSPost2010PropOp54
 70
     1
102
RTVSPost2010Prop55
280
     0
102
RTVSPost2010PropOp55
 70
     1
102
RTVSPost2010Prop56
140
1.0
102
RTVSPost2010PropOp56
 70
     1
102
RTVSPost2010Prop57
140
1.0
102
RTVSPost2010PropOp57
 70
     1
102
RTVSPropertyOp0
 70
     1
102
RTVSPropertyOp1
 70
     1
102
RTVSPropertyOp2
 70
     1
102
RTVSPropertyOp3
 70
     1
102
RTVSPropertyOp4
 70
     1
102
RTVSPropertyOp5
 70
     1
102
RTVSPropertyOp6
 70
     1
102
RTVSPropertyOp7
 70
     1
102
RTVSPropertyOp8
 70
     1
102
RTVSPropertyOp9
 70
     1
102
RTVSPropertyOp10
 70
     1
102
RTVSPropertyOp11
 70
     1
102
RTVSPropertyOp12
 70
     1
102
RTVSPropertyOp13
 70
     1
102
RTVSPropertyOp14
 70
     1
102
RTVSPropertyOp15
 70
     1
102
RTVSPropertyOp16
 70
     1
102
RTVSPropertyOp17
 70
     1
102
RTVSPropertyOp18
 70
     1
102
RTVSPropertyOp19
 70
     1
102
RTVSPropertyOp20
 70
     1
102
RTVSPropertyOp21
 70
     1
102
RTVSPropertyOp22
 70
     1
102
RTVSPropertyOp23
 70
     1
102
RTVSPropertyOp24
 70
     1
102
RTVSPropertyOp25
 70
     1
102
RTVSPropertyOp26
 70
     1
102
RTVSPropertyOp27
 70
     1
102
RTVSPropertyOp28
 70
     1
102
RTVSPropertyOp29
 70
     1
102
RTVSPropertyOp30
 70
     1
102
RTVSPropertyOp31
 70
     1
102
RTVSPropertyOp32
 70
     1
102
RTVSPropertyOp33
 70
     1
102
RTVSPropertyOp34
 70
     1
102
RTVSPropertyOp35
 70
     1
102
RTVSPropertyOp36
 70
     1
102
RTVSPropertyOp37
 70
     1
102
RTVSPropertyOp38
 70
     1
102
RTVSPropertyOp39
 70
     1
102
RTVSPropertyOp40
 70
     1
102
RTVSPropertyOp41
 70
     1
102
RTVSPropertyOp42
 70
     1
102
RTVSPropertyOp43
 70
     1
102
RTVSPropertyOp44
 70
     1
102
RTVSPropertyOp45
 70
     1
102
RTVSPropertyOp46
 70
     1
102
RTVSPropertyOp47
 70
     1
102
RTVSPropertyOp48
 70
     1
102
RTVSPropertyOp49
 70
     1
102
RTVSPropertyOp50
 70
     1
102
RTVSPropertyOp51
 70
     0
102
RTVSPropertyOp52
 70
     0
102
RTVSPropertyOp53
 70
     1
102
RTVSPropertyOp54
 70
     1
102
RTVSPropertyOp55
 70
     1
102
RTVSPropertyOp56
 70
     1
102
RTVSPropertyOp57
 70
     1
102
RTVSPropertyOp58
 70
     1
102
RTVSPropertyOp59
 70
     1
102
RTVSPropertyOp60
 70
     1
102
RTVSPropertyOp61
 70
     1
102
RTVSPropertyOp62
 70
     1
  0
XRECORD
  5
8E1
102
{ACAD_REACTORS
330
8E0
102
}
330
8E0
100
AcDbXrecord
280
     1
102
RTVSPost2010Prop28
280
     0
102
RTVSPost2010PropOp28
 70
     1
102
RTVSPost2010Prop29
280
     1
102
RTVSPost2010PropOp29
 70
     1
102
RTVSPost2010Prop30
280
     1
102
RTVSPost2010PropOp30
 70
     1
102
RTVSPost2010Prop31
280
     0
102
RTVSPost2010PropOp31
 70
     1
102
RTVSPost2010Prop32
280
     0
102
RTVSPost2010PropOp32
 70
     1
102
RTVSPost2010Prop33
280
     0
102
RTVSPost2010PropOp33
 70
     1
102
RTVSPost2010Prop34
280
     0
102
RTVSPost2010PropOp34
 70
     1
102
RTVSPost2010Prop35
280
     0
102
RTVSPost2010PropOp35
 70
     1
102
RTVSPost2010Prop36
280
     0
102
RTVSPost2010PropOp36
 70
     1
102
RTVSPost2010Prop37
 90
       50
102
RTVSPost2010PropOp37
 70
     1
102
RTVSPost2010Prop38
140
0.0
102
RTVSPost2010PropOp38
 70
     1
102
RTVSPost2010Prop39
140
1.0
102
RTVSPost2010PropOp39
 70
     1
102
RTVSPost2010Prop40
 90
        0
102
RTVSPost2010PropOp40
 70
     1
102
RTVSPost2010Prop41ColorIndex
 90
       18
102
RTVSPost2010Prop41ColorRGB
 90
        0
102
RTVSPost2010PropOp41
 70
     1
102
RTVSPost2010Prop42
 90
       50
102
RTVSPost2010PropOp42
 70
     1
102
RTVSPost2010Prop43
 90
        3
102
RTVSPost2010PropOp43
 70
     1
102
RTVSPost2010Prop44ColorIndex
 90
        5
102
RTVSPost2010Prop44ColorRGB
 90
      255
102
RTVSPost2010PropOp44
 70
     1
102
RTVSPost2010Prop45
280
     0
102
RTVSPost2010PropOp45
 70
     1
102
RTVSPost2010Prop46
 90
       50
102
RTVSPost2010PropOp46
 70
     1
102
RTVSPost2010Prop47
 90
       50
102
RTVSPost2010PropOp47
 70
     1
102
RTVSPost2010Prop48
 90
       50
102
RTVSPost2010PropOp48
 70
     1
102
RTVSPost2010Prop49
280
     0
102
RTVSPost2010PropOp49
 70
     1
102
RTVSPost2010Prop50
 90
       50
102
RTVSPost2010PropOp50
 70
     1
102
RTVSPost2010Prop51ColorIndex
 90
      256
102
RTVSPost2010Prop51ColorRGB
 90
-16777216
102
RTVSPost2010PropOp51
 70
     0
102
RTVSPost2010Prop52
140
1.0
102
RTVSPost2010PropOp52
 70
     0
102
RTVSPost2010Prop53
 90
        2
102
RTVSPost2010PropOp53
 70
     1
102
RTVSPost2010Prop54
  1
strokes_ogs.tif
102
RTVSPost2010PropOp54
 70
     1
102
RTVSPost2010Prop55
280
     0
102
RTVSPost2010PropOp55
 70
     1
102
RTVSPost2010Prop56
140
1.0
102
RTVSPost2010PropOp56
 70
     1
102
RTVSPost2010Prop57
140
1.0
102
RTVSPost2010PropOp57
 70
     1
102
RTVSPropertyOp0
 70
     1
102
RTVSPropertyOp1
 70
     1
102
RTVSPropertyOp2
 70
     1
102
RTVSPropertyOp3
 70
     1
102
RTVSPropertyOp4
 70
     1
102
RTVSPropertyOp5
 70
     1
102
RTVSPropertyOp6
 70
     1
102
RTVSPropertyOp7
 70
     1
102
RTVSPropertyOp8
 70
     1
102
RTVSPropertyOp9
 70
     1
102
RTVSPropertyOp10
 70
     1
102
RTVSPropertyOp11
 70
     1
102
RTVSPropertyOp12
 70
     1
102
RTVSPropertyOp13
 70
     1
102
RTVSPropertyOp14
 70
     1
102
RTVSPropertyOp15
 70
     1
102
RTVSPropertyOp16
 70
     1
102
RTVSPropertyOp17
 70
     1
102
RTVSPropertyOp18
 70
     1
102
RTVSPropertyOp19
 70
     1
102
RTVSPropertyOp20
 70
     1
102
RTVSPropertyOp21
 70
     1
102
RTVSPropertyOp22
 70
     1
102
RTVSPropertyOp23
 70
     1
102
RTVSPropertyOp24
 70
     1
102
RTVSPropertyOp25
 70
     1
102
RTVSPropertyOp26
 70
     1
102
RTVSPropertyOp27
 70
     1
102
RTVSPropertyOp28
 70
     1
102
RTVSPropertyOp29
 70
     1
102
RTVSPropertyOp30
 70
     1
102
RTVSPropertyOp31
 70
     1
102
RTVSPropertyOp32
 70
     1
102
RTVSPropertyOp33
 70
     1
102
RTVSPropertyOp34
 70
     1
102
RTVSPropertyOp35
 70
     1
102
RTVSPropertyOp36
 70
     1
102
RTVSPropertyOp37
 70
     1
102
RTVSPropertyOp38
 70
     1
102
RTVSPropertyOp39
 70
     1
102
RTVSPropertyOp40
 70
     1
102
RTVSPropertyOp41
 70
     1
102
RTVSPropertyOp42
 70
     1
102
RTVSPropertyOp43
 70
     1
102
RTVSPropertyOp44
 70
     1
102
RTVSPropertyOp45
 70
     1
102
RTVSPropertyOp46
 70
     1
102
RTVSPropertyOp47
 70
     1
102
RTVSPropertyOp48
 70
     1
102
RTVSPropertyOp49
 70
     1
102
RTVSPropertyOp50
 70
     1
102
RTVSPropertyOp51
 70
     0
102
RTVSPropertyOp52
 70
     0
102
RTVSPropertyOp53
 70
     1
102
RTVSPropertyOp54
 70
     1
102
RTVSPropertyOp55
 70
     1
102
RTVSPropertyOp56
 70
     1
102
RTVSPropertyOp57
 70
     1
102
RTVSPropertyOp58
 70
     1
102
RTVSPropertyOp59
 70
     1
102
RTVSPropertyOp60
 70
     1
102
RTVSPropertyOp61
 70
     1
102
RTVSPropertyOp62
 70
     1
  0
XRECORD
  5
8E9
102
{ACAD_REACTORS
330
8E8
102
}
330
8E8
100
AcDbXrecord
280
     1
102
RTVSPost2010Prop28
280
     0
102
RTVSPost2010PropOp28
 70
     1
102
RTVSPost2010Prop29
280
     1
102
RTVSPost2010PropOp29
 70
     1
102
RTVSPost2010Prop30
280
     1
102
RTVSPost2010PropOp30
 70
     1
102
RTVSPost2010Prop31
280
     0
102
RTVSPost2010PropOp31
 70
     1
102
RTVSPost2010Prop32
280
     0
102
RTVSPost2010PropOp32
 70
     1
102
RTVSPost2010Prop33
280
     0
102
RTVSPost2010PropOp33
 70
     1
102
RTVSPost2010Prop34
280
     0
102
RTVSPost2010PropOp34
 70
     1
102
RTVSPost2010Prop35
280
     0
102
RTVSPost2010PropOp35
 70
     1
102
RTVSPost2010Prop36
280
     0
102
RTVSPost2010PropOp36
 70
     1
102
RTVSPost2010Prop37
 90
       50
102
RTVSPost2010PropOp37
 70
     1
102
RTVSPost2010Prop38
140
0.0
102
RTVSPost2010PropOp38
 70
     1
102
RTVSPost2010Prop39
140
1.0
102
RTVSPost2010PropOp39
 70
     1
102
RTVSPost2010Prop40
 90
        0
102
RTVSPost2010PropOp40
 70
     1
102
RTVSPost2010Prop41ColorIndex
 90
       18
102
RTVSPost2010Prop41ColorRGB
 90
        0
102
RTVSPost2010PropOp41
 70
     1
102
RTVSPost2010Prop42
 90
       50
102
RTVSPost2010PropOp42
 70
     1
102
RTVSPost2010Prop43
 90
        3
102
RTVSPost2010PropOp43
 70
     1
102
RTVSPost2010Prop44ColorIndex
 90
        5
102
RTVSPost2010Prop44ColorRGB
 90
      255
102
RTVSPost2010PropOp44
 70
     1
102
RTVSPost2010Prop45
280
     0
102
RTVSPost2010PropOp45
 70
     1
102
RTVSPost2010Prop46
 90
       50
102
RTVSPost2010PropOp46
 70
     1
102
RTVSPost2010Prop47
 90
       50
102
RTVSPost2010PropOp47
 70
     1
102
RTVSPost2010Prop48
 90
       50
102
RTVSPost2010PropOp48
 70
     1
102
RTVSPost2010Prop49
280
     0
102
RTVSPost2010PropOp49
 70
     1
102
RTVSPost2010Prop50
 90
       50
102
RTVSPost2010PropOp50
 70
     1
102
RTVSPost2010Prop51ColorIndex
 90
      256
102
RTVSPost2010Prop51ColorRGB
 90
-16777216
102
RTVSPost2010PropOp51
 70
     0
102
RTVSPost2010Prop52
140
1.0
102
RTVSPost2010PropOp52
 70
     0
102
RTVSPost2010Prop53
 90
        2
102
RTVSPost2010PropOp53
 70
     1
102
RTVSPost2010Prop54
  1
strokes_ogs.tif
102
RTVSPost2010PropOp54
 70
     1
102
RTVSPost2010Prop55
280
     0
102
RTVSPost2010PropOp55
 70
     1
102
RTVSPost2010Prop56
140
1.0
102
RTVSPost2010PropOp56
 70
     1
102
RTVSPost2010Prop57
140
1.0
102
RTVSPost2010PropOp57
 70
     1
102
RTVSPropertyOp0
 70
     1
102
RTVSPropertyOp1
 70
     1
102
RTVSPropertyOp2
 70
     1
102
RTVSPropertyOp3
 70
     1
102
RTVSPropertyOp4
 70
     1
102
RTVSPropertyOp5
 70
     1
102
RTVSPropertyOp6
 70
     1
102
RTVSPropertyOp7
 70
     1
102
RTVSPropertyOp8
 70
     1
102
RTVSPropertyOp9
 70
     1
102
RTVSPropertyOp10
 70
     1
102
RTVSPropertyOp11
 70
     1
102
RTVSPropertyOp12
 70
     1
102
RTVSPropertyOp13
 70
     1
102
RTVSPropertyOp14
 70
     1
102
RTVSPropertyOp15
 70
     1
102
RTVSPropertyOp16
 70
     1
102
RTVSPropertyOp17
 70
     1
102
RTVSPropertyOp18
 70
     1
102
RTVSPropertyOp19
 70
     1
102
RTVSPropertyOp20
 70
     1
102
RTVSPropertyOp21
 70
     1
102
RTVSPropertyOp22
 70
     1
102
RTVSPropertyOp23
 70
     1
102
RTVSPropertyOp24
 70
     1
102
RTVSPropertyOp25
 70
     1
102
RTVSPropertyOp26
 70
     1
102
RTVSPropertyOp27
 70
     1
102
RTVSPropertyOp28
 70
     1
102
RTVSPropertyOp29
 70
     1
102
RTVSPropertyOp30
 70
     1
102
RTVSPropertyOp31
 70
     1
102
RTVSPropertyOp32
 70
     1
102
RTVSPropertyOp33
 70
     1
102
RTVSPropertyOp34
 70
     1
102
RTVSPropertyOp35
 70
     1
102
RTVSPropertyOp36
 70
     1
102
RTVSPropertyOp37
 70
     1
102
RTVSPropertyOp38
 70
     1
102
RTVSPropertyOp39
 70
     1
102
RTVSPropertyOp40
 70
     1
102
RTVSPropertyOp41
 70
     1
102
RTVSPropertyOp42
 70
     1
102
RTVSPropertyOp43
 70
     1
102
RTVSPropertyOp44
 70
     1
102
RTVSPropertyOp45
 70
     1
102
RTVSPropertyOp46
 70
     1
102
RTVSPropertyOp47
 70
     1
102
RTVSPropertyOp48
 70
     1
102
RTVSPropertyOp49
 70
     1
102
RTVSPropertyOp50
 70
     1
102
RTVSPropertyOp51
 70
     0
102
RTVSPropertyOp52
 70
     0
102
RTVSPropertyOp53
 70
     1
102
RTVSPropertyOp54
 70
     1
102
RTVSPropertyOp55
 70
     1
102
RTVSPropertyOp56
 70
     1
102
RTVSPropertyOp57
 70
     1
102
RTVSPropertyOp58
 70
     1
102
RTVSPropertyOp59
 70
     1
102
RTVSPropertyOp60
 70
     1
102
RTVSPropertyOp61
 70
     1
102
RTVSPropertyOp62
 70
     1
  0
XRECORD
  5
905
102
{ACAD_REACTORS
330
904
102
}
330
904
100
AcDbXrecord
280
     1
102
RTVSPost2010Prop28
280
     0
102
RTVSPost2010PropOp28
 70
     0
102
RTVSPost2010Prop29
280
     1
102
RTVSPost2010PropOp29
 70
     0
102
RTVSPost2010Prop30
280
     1
102
RTVSPost2010PropOp30
 70
     0
102
RTVSPost2010Prop31
280
     0
102
RTVSPost2010PropOp31
 70
     0
102
RTVSPost2010Prop32
280
     0
102
RTVSPost2010PropOp32
 70
     0
102
RTVSPost2010Prop33
280
     0
102
RTVSPost2010PropOp33
 70
     0
102
RTVSPost2010Prop34
280
     0
102
RTVSPost2010PropOp34
 70
     0
102
RTVSPost2010Prop35
280
     0
102
RTVSPost2010PropOp35
 70
     0
102
RTVSPost2010Prop36
280
     0
102
RTVSPost2010PropOp36
 70
     0
102
RTVSPost2010Prop37
 90
       50
102
RTVSPost2010PropOp37
 70
     0
102
RTVSPost2010Prop38
140
0.0
102
RTVSPost2010PropOp38
 70
     0
102
RTVSPost2010Prop39
140
1.0
102
RTVSPost2010PropOp39
 70
     0
102
RTVSPost2010Prop40
 90
        0
102
RTVSPost2010PropOp40
 70
     0
102
RTVSPost2010Prop41ColorIndex
 90
       18
102
RTVSPost2010Prop41ColorRGB
 90
        0
102
RTVSPost2010PropOp41
 70
     0
102
RTVSPost2010Prop42
 90
       50
102
RTVSPost2010PropOp42
 70
     0
102
RTVSPost2010Prop43
 90
        3
102
RTVSPost2010PropOp43
 70
     0
102
RTVSPost2010Prop44ColorIndex
 90
        5
102
RTVSPost2010Prop44ColorRGB
 90
      255
102
RTVSPost2010PropOp44
 70
     0
102
RTVSPost2010Prop45
280
     0
102
RTVSPost2010PropOp45
 70
     0
102
RTVSPost2010Prop46
 90
       50
102
RTVSPost2010PropOp46
 70
     0
102
RTVSPost2010Prop47
 90
       50
102
RTVSPost2010PropOp47
 70
     0
102
RTVSPost2010Prop48
 90
       50
102
RTVSPost2010PropOp48
 70
     0
102
RTVSPost2010Prop49
280
     0
102
RTVSPost2010PropOp49
 70
     0
102
RTVSPost2010Prop50
 90
       50
102
RTVSPost2010PropOp50
 70
     0
102
RTVSPost2010Prop51ColorIndex
 90
      256
102
RTVSPost2010Prop51ColorRGB
 90
-16777216
102
RTVSPost2010PropOp51
 70
     0
102
RTVSPost2010Prop52
140
1.0
102
RTVSPost2010PropOp52
 70
     0
102
RTVSPost2010Prop53
 90
        2
102
RTVSPost2010PropOp53
 70
     0
102
RTVSPost2010Prop54
  1
strokes_ogs.tif
102
RTVSPost2010PropOp54
 70
     0
102
RTVSPost2010Prop55
280
     0
102
RTVSPost2010PropOp55
 70
     0
102
RTVSPost2010Prop56
140
1.0
102
RTVSPost2010PropOp56
 70
     0
102
RTVSPost2010Prop57
140
1.0
102
RTVSPost2010PropOp57
 70
     0
102
RTVSPropertyOp0
 70
     0
102
RTVSPropertyOp1
 70
     0
102
RTVSPropertyOp2
 70
     0
102
RTVSPropertyOp3
 70
     0
102
RTVSPropertyOp4
 70
     0
102
RTVSPropertyOp5
 70
     0
102
RTVSPropertyOp6
 70
     0
102
RTVSPropertyOp7
 70
     0
102
RTVSPropertyOp8
 70
     0
102
RTVSPropertyOp9
 70
     0
102
RTVSPropertyOp10
 70
     0
102
RTVSPropertyOp11
 70
     0
102
RTVSPropertyOp12
 70
     0
102
RTVSPropertyOp13
 70
     0
102
RTVSPropertyOp14
 70
     2
102
RTVSPropertyOp15
 70
     0
102
RTVSPropertyOp16
 70
     0
102
RTVSPropertyOp17
 70
     0
102
RTVSPropertyOp18
 70
     0
102
RTVSPropertyOp19
 70
     0
102
RTVSPropertyOp20
 70
     0
102
RTVSPropertyOp21
 70
     0
102
RTVSPropertyOp22
 70
     0
102
RTVSPropertyOp23
 70
     0
102
RTVSPropertyOp24
 70
     0
102
RTVSPropertyOp25
 70
     0
102
RTVSPropertyOp26
 70
     0
102
RTVSPropertyOp27
 70
     0
102
RTVSPropertyOp28
 70
     0
102
RTVSPropertyOp29
 70
     0
102
RTVSPropertyOp30
 70
     0
102
RTVSPropertyOp31
 70
     0
102
RTVSPropertyOp32
 70
     0
102
RTVSPropertyOp33
 70
     0
102
RTVSPropertyOp34
 70
     0
102
RTVSPropertyOp35
 70
     0
102
RTVSPropertyOp36
 70
     0
102
RTVSPropertyOp37
 70
     0
102
RTVSPropertyOp38
 70
     0
102
RTVSPropertyOp39
 70
     0
102
RTVSPropertyOp40
 70
     0
102
RTVSPropertyOp41
 70
     0
102
RTVSPropertyOp42
 70
     0
102
RTVSPropertyOp43
 70
     0
102
RTVSPropertyOp44
 70
     0
102
RTVSPropertyOp45
 70
     0
102
RTVSPropertyOp46
 70
     0
102
RTVSPropertyOp47
 70
     0
102
RTVSPropertyOp48
 70
     0
102
RTVSPropertyOp49
 70
     0
102
RTVSPropertyOp50
 70
     0
102
RTVSPropertyOp51
 70
     0
102
RTVSPropertyOp52
 70
     0
102
RTVSPropertyOp53
 70
     0
102
RTVSPropertyOp54
 70
     0
102
RTVSPropertyOp55
 70
     0
102
RTVSPropertyOp56
 70
     0
102
RTVSPropertyOp57
 70
     0
102
RTVSPropertyOp58
 70
     0
102
RTVSPropertyOp59
 70
     0
102
RTVSPropertyOp60
 70
     0
102
RTVSPropertyOp61
 70
     0
102
RTVSPropertyOp62
 70
     0
  0
XRECORD
  5
8F5
102
{ACAD_REACTORS
330
8F4
102
}
330
8F4
100
AcDbXrecord
280
     1
102
RTVSPost2010Prop28
280
     0
102
RTVSPost2010PropOp28
 70
     1
102
RTVSPost2010Prop29
280
     1
102
RTVSPost2010PropOp29
 70
     1
102
RTVSPost2010Prop30
280
     1
102
RTVSPost2010PropOp30
 70
     1
102
RTVSPost2010Prop31
280
     0
102
RTVSPost2010PropOp31
 70
     1
102
RTVSPost2010Prop32
280
     0
102
RTVSPost2010PropOp32
 70
     1
102
RTVSPost2010Prop33
280
     0
102
RTVSPost2010PropOp33
 70
     1
102
RTVSPost2010Prop34
280
     0
102
RTVSPost2010PropOp34
 70
     1
102
RTVSPost2010Prop35
280
     0
102
RTVSPost2010PropOp35
 70
     1
102
RTVSPost2010Prop36
280
     0
102
RTVSPost2010PropOp36
 70
     1
102
RTVSPost2010Prop37
 90
       50
102
RTVSPost2010PropOp37
 70
     1
102
RTVSPost2010Prop38
140
0.0
102
RTVSPost2010PropOp38
 70
     1
102
RTVSPost2010Prop39
140
1.0
102
RTVSPost2010PropOp39
 70
     1
102
RTVSPost2010Prop40
 90
        0
102
RTVSPost2010PropOp40
 70
     1
102
RTVSPost2010Prop41ColorIndex
 90
       18
102
RTVSPost2010Prop41ColorRGB
 90
        0
102
RTVSPost2010PropOp41
 70
     1
102
RTVSPost2010Prop42
 90
       50
102
RTVSPost2010PropOp42
 70
     1
102
RTVSPost2010Prop43
 90
        3
102
RTVSPost2010PropOp43
 70
     1
102
RTVSPost2010Prop44ColorIndex
 90
        5
102
RTVSPost2010Prop44ColorRGB
 90
      255
102
RTVSPost2010PropOp44
 70
     1
102
RTVSPost2010Prop45
280
     0
102
RTVSPost2010PropOp45
 70
     1
102
RTVSPost2010Prop46
 90
       50
102
RTVSPost2010PropOp46
 70
     1
102
RTVSPost2010Prop47
 90
       50
102
RTVSPost2010PropOp47
 70
     1
102
RTVSPost2010Prop48
 90
       50
102
RTVSPost2010PropOp48
 70
     1
102
RTVSPost2010Prop49
280
     0
102
RTVSPost2010PropOp49
 70
     1
102
RTVSPost2010Prop50
 90
       50
102
RTVSPost2010PropOp50
 70
     1
102
RTVSPost2010Prop51ColorIndex
 90
      256
102
RTVSPost2010Prop51ColorRGB
 90
-16777216
102
RTVSPost2010PropOp51
 70
     0
102
RTVSPost2010Prop52
140
1.0
102
RTVSPost2010PropOp52
 70
     0
102
RTVSPost2010Prop53
 90
        2
102
RTVSPost2010PropOp53
 70
     1
102
RTVSPost2010Prop54
  1
strokes_ogs.tif
102
RTVSPost2010PropOp54
 70
     1
102
RTVSPost2010Prop55
280
     0
102
RTVSPost2010PropOp55
 70
     1
102
RTVSPost2010Prop56
140
1.0
102
RTVSPost2010PropOp56
 70
     1
102
RTVSPost2010Prop57
140
1.0
102
RTVSPost2010PropOp57
 70
     1
102
RTVSPropertyOp0
 70
     1
102
RTVSPropertyOp1
 70
     1
102
RTVSPropertyOp2
 70
     1
102
RTVSPropertyOp3
 70
     1
102
RTVSPropertyOp4
 70
     1
102
RTVSPropertyOp5
 70
     1
102
RTVSPropertyOp6
 70
     1
102
RTVSPropertyOp7
 70
     1
102
RTVSPropertyOp8
 70
     1
102
RTVSPropertyOp9
 70
     1
102
RTVSPropertyOp10
 70
     1
102
RTVSPropertyOp11
 70
     1
102
RTVSPropertyOp12
 70
     1
102
RTVSPropertyOp13
 70
     1
102
RTVSPropertyOp14
 70
     1
102
RTVSPropertyOp15
 70
     1
102
RTVSPropertyOp16
 70
     1
102
RTVSPropertyOp17
 70
     1
102
RTVSPropertyOp18
 70
     1
102
RTVSPropertyOp19
 70
     1
102
RTVSPropertyOp20
 70
     1
102
RTVSPropertyOp21
 70
     1
102
RTVSPropertyOp22
 70
     1
102
RTVSPropertyOp23
 70
     1
102
RTVSPropertyOp24
 70
     1
102
RTVSPropertyOp25
 70
     1
102
RTVSPropertyOp26
 70
     1
102
RTVSPropertyOp27
 70
     1
102
RTVSPropertyOp28
 70
     1
102
RTVSPropertyOp29
 70
     1
102
RTVSPropertyOp30
 70
     1
102
RTVSPropertyOp31
 70
     1
102
RTVSPropertyOp32
 70
     1
102
RTVSPropertyOp33
 70
     1
102
RTVSPropertyOp34
 70
     1
102
RTVSPropertyOp35
 70
     1
102
RTVSPropertyOp36
 70
     1
102
RTVSPropertyOp37
 70
     1
102
RTVSPropertyOp38
 70
     1
102
RTVSPropertyOp39
 70
     1
102
RTVSPropertyOp40
 70
     1
102
RTVSPropertyOp41
 70
     1
102
RTVSPropertyOp42
 70
     1
102
RTVSPropertyOp43
 70
     1
102
RTVSPropertyOp44
 70
     1
102
RTVSPropertyOp45
 70
     1
102
RTVSPropertyOp46
 70
     1
102
RTVSPropertyOp47
 70
     1
102
RTVSPropertyOp48
 70
     1
102
RTVSPropertyOp49
 70
     1
102
RTVSPropertyOp50
 70
     1
102
RTVSPropertyOp51
 70
     0
102
RTVSPropertyOp52
 70
     0
102
RTVSPropertyOp53
 70
     1
102
RTVSPropertyOp54
 70
     1
102
RTVSPropertyOp55
 70
     1
102
RTVSPropertyOp56
 70
     1
102
RTVSPropertyOp57
 70
     1
102
RTVSPropertyOp58
 70
     1
102
RTVSPropertyOp59
 70
     1
102
RTVSPropertyOp60
 70
     1
102
RTVSPropertyOp61
 70
     1
102
RTVSPropertyOp62
 70
     1
  0
XRECORD
  5
907
102
{ACAD_REACTORS
330
906
102
}
330
906
100
AcDbXrecord
280
     1
102
RTVSPost2010Prop28
280
     0
102
RTVSPost2010PropOp28
 70
     0
102
RTVSPost2010Prop29
280
     1
102
RTVSPost2010PropOp29
 70
     0
102
RTVSPost2010Prop30
280
     1
102
RTVSPost2010PropOp30
 70
     0
102
RTVSPost2010Prop31
280
     0
102
RTVSPost2010PropOp31
 70
     0
102
RTVSPost2010Prop32
280
     0
102
RTVSPost2010PropOp32
 70
     0
102
RTVSPost2010Prop33
280
     0
102
RTVSPost2010PropOp33
 70
     0
102
RTVSPost2010Prop34
280
     0
102
RTVSPost2010PropOp34
 70
     0
102
RTVSPost2010Prop35
280
     0
102
RTVSPost2010PropOp35
 70
     0
102
RTVSPost2010Prop36
280
     0
102
RTVSPost2010PropOp36
 70
     0
102
RTVSPost2010Prop37
 90
       50
102
RTVSPost2010PropOp37
 70
     0
102
RTVSPost2010Prop38
140
0.0
102
RTVSPost2010PropOp38
 70
     0
102
RTVSPost2010Prop39
140
1.0
102
RTVSPost2010PropOp39
 70
     0
102
RTVSPost2010Prop40
 90
        0
102
RTVSPost2010PropOp40
 70
     0
102
RTVSPost2010Prop41ColorIndex
 90
       18
102
RTVSPost2010Prop41ColorRGB
 90
        0
102
RTVSPost2010PropOp41
 70
     0
102
RTVSPost2010Prop42
 90
       50
102
RTVSPost2010PropOp42
 70
     0
102
RTVSPost2010Prop43
 90
        3
102
RTVSPost2010PropOp43
 70
     0
102
RTVSPost2010Prop44ColorIndex
 90
        5
102
RTVSPost2010Prop44ColorRGB
 90
      255
102
RTVSPost2010PropOp44
 70
     0
102
RTVSPost2010Prop45
280
     0
102
RTVSPost2010PropOp45
 70
     0
102
RTVSPost2010Prop46
 90
       50
102
RTVSPost2010PropOp46
 70
     0
102
RTVSPost2010Prop47
 90
       50
102
RTVSPost2010PropOp47
 70
     0
102
RTVSPost2010Prop48
 90
       50
102
RTVSPost2010PropOp48
 70
     0
102
RTVSPost2010Prop49
280
     0
102
RTVSPost2010PropOp49
 70
     0
102
RTVSPost2010Prop50
 90
       50
102
RTVSPost2010PropOp50
 70
     0
102
RTVSPost2010Prop51ColorIndex
 90
      256
102
RTVSPost2010Prop51ColorRGB
 90
-16777216
102
RTVSPost2010PropOp51
 70
     0
102
RTVSPost2010Prop52
140
1.0
102
RTVSPost2010PropOp52
 70
     0
102
RTVSPost2010Prop53
 90
        2
102
RTVSPost2010PropOp53
 70
     0
102
RTVSPost2010Prop54
  1
strokes_ogs.tif
102
RTVSPost2010PropOp54
 70
     0
102
RTVSPost2010Prop55
280
     0
102
RTVSPost2010PropOp55
 70
     0
102
RTVSPost2010Prop56
140
1.0
102
RTVSPost2010PropOp56
 70
     0
102
RTVSPost2010Prop57
140
1.0
102
RTVSPost2010PropOp57
 70
     0
102
RTVSPropertyOp0
 70
     0
102
RTVSPropertyOp1
 70
     0
102
RTVSPropertyOp2
 70
     0
102
RTVSPropertyOp3
 70
     0
102
RTVSPropertyOp4
 70
     0
102
RTVSPropertyOp5
 70
     0
102
RTVSPropertyOp6
 70
     0
102
RTVSPropertyOp7
 70
     0
102
RTVSPropertyOp8
 70
     0
102
RTVSPropertyOp9
 70
     0
102
RTVSPropertyOp10
 70
     0
102
RTVSPropertyOp11
 70
     0
102
RTVSPropertyOp12
 70
     0
102
RTVSPropertyOp13
 70
     0
102
RTVSPropertyOp14
 70
     2
102
RTVSPropertyOp15
 70
     0
102
RTVSPropertyOp16
 70
     0
102
RTVSPropertyOp17
 70
     0
102
RTVSPropertyOp18
 70
     0
102
RTVSPropertyOp19
 70
     0
102
RTVSPropertyOp20
 70
     0
102
RTVSPropertyOp21
 70
     0
102
RTVSPropertyOp22
 70
     0
102
RTVSPropertyOp23
 70
     0
102
RTVSPropertyOp24
 70
     0
102
RTVSPropertyOp25
 70
     0
102
RTVSPropertyOp26
 70
     0
102
RTVSPropertyOp27
 70
     0
102
RTVSPropertyOp28
 70
     0
102
RTVSPropertyOp29
 70
     0
102
RTVSPropertyOp30
 70
     0
102
RTVSPropertyOp31
 70
     0
102
RTVSPropertyOp32
 70
     0
102
RTVSPropertyOp33
 70
     0
102
RTVSPropertyOp34
 70
     0
102
RTVSPropertyOp35
 70
     0
102
RTVSPropertyOp36
 70
     0
102
RTVSPropertyOp37
 70
     0
102
RTVSPropertyOp38
 70
     0
102
RTVSPropertyOp39
 70
     0
102
RTVSPropertyOp40
 70
     0
102
RTVSPropertyOp41
 70
     0
102
RTVSPropertyOp42
 70
     0
102
RTVSPropertyOp43
 70
     0
102
RTVSPropertyOp44
 70
     0
102
RTVSPropertyOp45
 70
     0
102
RTVSPropertyOp46
 70
     0
102
RTVSPropertyOp47
 70
     0
102
RTVSPropertyOp48
 70
     0
102
RTVSPropertyOp49
 70
     0
102
RTVSPropertyOp50
 70
     0
102
RTVSPropertyOp51
 70
     0
102
RTVSPropertyOp52
 70
     0
102
RTVSPropertyOp53
 70
     0
102
RTVSPropertyOp54
 70
     0
102
RTVSPropertyOp55
 70
     0
102
RTVSPropertyOp56
 70
     0
102
RTVSPropertyOp57
 70
     0
102
RTVSPropertyOp58
 70
     0
102
RTVSPropertyOp59
 70
     0
102
RTVSPropertyOp60
 70
     0
102
RTVSPropertyOp61
 70
     0
102
RTVSPropertyOp62
 70
     0
  0
XRECORD
  5
8ED
102
{ACAD_REACTORS
330
8EC
102
}
330
8EC
100
AcDbXrecord
280
     1
102
RTVSPost2010Prop28
280
     0
102
RTVSPost2010PropOp28
 70
     1
102
RTVSPost2010Prop29
280
     1
102
RTVSPost2010PropOp29
 70
     1
102
RTVSPost2010Prop30
280
     1
102
RTVSPost2010PropOp30
 70
     1
102
RTVSPost2010Prop31
280
     0
102
RTVSPost2010PropOp31
 70
     1
102
RTVSPost2010Prop32
280
     0
102
RTVSPost2010PropOp32
 70
     1
102
RTVSPost2010Prop33
280
     0
102
RTVSPost2010PropOp33
 70
     1
102
RTVSPost2010Prop34
280
     0
102
RTVSPost2010PropOp34
 70
     1
102
RTVSPost2010Prop35
280
     0
102
RTVSPost2010PropOp35
 70
     1
102
RTVSPost2010Prop36
280
     0
102
RTVSPost2010PropOp36
 70
     1
102
RTVSPost2010Prop37
 90
       50
102
RTVSPost2010PropOp37
 70
     1
102
RTVSPost2010Prop38
140
0.0
102
RTVSPost2010PropOp38
 70
     1
102
RTVSPost2010Prop39
140
1.0
102
RTVSPost2010PropOp39
 70
     1
102
RTVSPost2010Prop40
 90
        0
102
RTVSPost2010PropOp40
 70
     1
102
RTVSPost2010Prop41ColorIndex
 90
       18
102
RTVSPost2010Prop41ColorRGB
 90
        0
102
RTVSPost2010PropOp41
 70
     1
102
RTVSPost2010Prop42
 90
       50
102
RTVSPost2010PropOp42
 70
     1
102
RTVSPost2010Prop43
 90
        3
102
RTVSPost2010PropOp43
 70
     1
102
RTVSPost2010Prop44ColorIndex
 90
        5
102
RTVSPost2010Prop44ColorRGB
 90
      255
102
RTVSPost2010PropOp44
 70
     1
102
RTVSPost2010Prop45
280
     0
102
RTVSPost2010PropOp45
 70
     1
102
RTVSPost2010Prop46
 90
       50
102
RTVSPost2010PropOp46
 70
     1
102
RTVSPost2010Prop47
 90
       50
102
RTVSPost2010PropOp47
 70
     1
102
RTVSPost2010Prop48
 90
       50
102
RTVSPost2010PropOp48
 70
     1
102
RTVSPost2010Prop49
280
     0
102
RTVSPost2010PropOp49
 70
     1
102
RTVSPost2010Prop50
 90
       50
102
RTVSPost2010PropOp50
 70
     1
102
RTVSPost2010Prop51ColorIndex
 90
      256
102
RTVSPost2010Prop51ColorRGB
 90
-16777216
102
RTVSPost2010PropOp51
 70
     0
102
RTVSPost2010Prop52
140
1.0
102
RTVSPost2010PropOp52
 70
     0
102
RTVSPost2010Prop53
 90
        2
102
RTVSPost2010PropOp53
 70
     1
102
RTVSPost2010Prop54
  1
strokes_ogs.tif
102
RTVSPost2010PropOp54
 70
     1
102
RTVSPost2010Prop55
280
     0
102
RTVSPost2010PropOp55
 70
     1
102
RTVSPost2010Prop56
140
1.0
102
RTVSPost2010PropOp56
 70
     1
102
RTVSPost2010Prop57
140
1.0
102
RTVSPost2010PropOp57
 70
     1
102
RTVSPropertyOp0
 70
     1
102
RTVSPropertyOp1
 70
     1
102
RTVSPropertyOp2
 70
     1
102
RTVSPropertyOp3
 70
     1
102
RTVSPropertyOp4
 70
     1
102
RTVSPropertyOp5
 70
     1
102
RTVSPropertyOp6
 70
     1
102
RTVSPropertyOp7
 70
     1
102
RTVSPropertyOp8
 70
     1
102
RTVSPropertyOp9
 70
     1
102
RTVSPropertyOp10
 70
     1
102
RTVSPropertyOp11
 70
     1
102
RTVSPropertyOp12
 70
     1
102
RTVSPropertyOp13
 70
     1
102
RTVSPropertyOp14
 70
     1
102
RTVSPropertyOp15
 70
     1
102
RTVSPropertyOp16
 70
     1
102
RTVSPropertyOp17
 70
     1
102
RTVSPropertyOp18
 70
     1
102
RTVSPropertyOp19
 70
     1
102
RTVSPropertyOp20
 70
     1
102
RTVSPropertyOp21
 70
     1
102
RTVSPropertyOp22
 70
     1
102
RTVSPropertyOp23
 70
     1
102
RTVSPropertyOp24
 70
     1
102
RTVSPropertyOp25
 70
     1
102
RTVSPropertyOp26
 70
     1
102
RTVSPropertyOp27
 70
     1
102
RTVSPropertyOp28
 70
     1
102
RTVSPropertyOp29
 70
     1
102
RTVSPropertyOp30
 70
     1
102
RTVSPropertyOp31
 70
     1
102
RTVSPropertyOp32
 70
     1
102
RTVSPropertyOp33
 70
     1
102
RTVSPropertyOp34
 70
     1
102
RTVSPropertyOp35
 70
     1
102
RTVSPropertyOp36
 70
     1
102
RTVSPropertyOp37
 70
     1
102
RTVSPropertyOp38
 70
     1
102
RTVSPropertyOp39
 70
     1
102
RTVSPropertyOp40
 70
     1
102
RTVSPropertyOp41
 70
     1
102
RTVSPropertyOp42
 70
     1
102
RTVSPropertyOp43
 70
     1
102
RTVSPropertyOp44
 70
     1
102
RTVSPropertyOp45
 70
     1
102
RTVSPropertyOp46
 70
     1
102
RTVSPropertyOp47
 70
     1
102
RTVSPropertyOp48
 70
     1
102
RTVSPropertyOp49
 70
     1
102
RTVSPropertyOp50
 70
     1
102
RTVSPropertyOp51
 70
     0
102
RTVSPropertyOp52
 70
     0
102
RTVSPropertyOp53
 70
     1
102
RTVSPropertyOp54
 70
     1
102
RTVSPropertyOp55
 70
     1
102
RTVSPropertyOp56
 70
     1
102
RTVSPropertyOp57
 70
     1
102
RTVSPropertyOp58
 70
     1
102
RTVSPropertyOp59
 70
     1
102
RTVSPropertyOp60
 70
     1
102
RTVSPropertyOp61
 70
     1
102
RTVSPropertyOp62
 70
     1
  0
XRECORD
  5
903
102
{ACAD_REACTORS
330
902
102
}
330
902
100
AcDbXrecord
280
     1
102
RTVSPost2010Prop28
280
     0
102
RTVSPost2010PropOp28
 70
     1
102
RTVSPost2010Prop29
280
     1
102
RTVSPost2010PropOp29
 70
     1
102
RTVSPost2010Prop30
280
     1
102
RTVSPost2010PropOp30
 70
     1
102
RTVSPost2010Prop31
280
     0
102
RTVSPost2010PropOp31
 70
     1
102
RTVSPost2010Prop32
280
     0
102
RTVSPost2010PropOp32
 70
     1
102
RTVSPost2010Prop33
280
     0
102
RTVSPost2010PropOp33
 70
     1
102
RTVSPost2010Prop34
280
     0
102
RTVSPost2010PropOp34
 70
     1
102
RTVSPost2010Prop35
280
     0
102
RTVSPost2010PropOp35
 70
     1
102
RTVSPost2010Prop36
280
     0
102
RTVSPost2010PropOp36
 70
     1
102
RTVSPost2010Prop37
 90
       50
102
RTVSPost2010PropOp37
 70
     1
102
RTVSPost2010Prop38
140
0.0
102
RTVSPost2010PropOp38
 70
     1
102
RTVSPost2010Prop39
140
1.0
102
RTVSPost2010PropOp39
 70
     1
102
RTVSPost2010Prop40
 90
        0
102
RTVSPost2010PropOp40
 70
     1
102
RTVSPost2010Prop41ColorIndex
 90
       18
102
RTVSPost2010Prop41ColorRGB
 90
        0
102
RTVSPost2010PropOp41
 70
     1
102
RTVSPost2010Prop42
 90
       50
102
RTVSPost2010PropOp42
 70
     1
102
RTVSPost2010Prop43
 90
        3
102
RTVSPost2010PropOp43
 70
     1
102
RTVSPost2010Prop44ColorIndex
 90
        5
102
RTVSPost2010Prop44ColorRGB
 90
      255
102
RTVSPost2010PropOp44
 70
     1
102
RTVSPost2010Prop45
280
     0
102
RTVSPost2010PropOp45
 70
     1
102
RTVSPost2010Prop46
 90
       50
102
RTVSPost2010PropOp46
 70
     1
102
RTVSPost2010Prop47
 90
       50
102
RTVSPost2010PropOp47
 70
     1
102
RTVSPost2010Prop48
 90
       50
102
RTVSPost2010PropOp48
 70
     1
102
RTVSPost2010Prop49
280
     0
102
RTVSPost2010PropOp49
 70
     1
102
RTVSPost2010Prop50
 90
       50
102
RTVSPost2010PropOp50
 70
     1
102
RTVSPost2010Prop51ColorIndex
 90
      256
102
RTVSPost2010Prop51ColorRGB
 90
-16777216
102
RTVSPost2010PropOp51
 70
     0
102
RTVSPost2010Prop52
140
1.0
102
RTVSPost2010PropOp52
 70
     0
102
RTVSPost2010Prop53
 90
        2
102
RTVSPost2010PropOp53
 70
     1
102
RTVSPost2010Prop54
  1
strokes_ogs.tif
102
RTVSPost2010PropOp54
 70
     1
102
RTVSPost2010Prop55
280
     0
102
RTVSPost2010PropOp55
 70
     1
102
RTVSPost2010Prop56
140
1.0
102
RTVSPost2010PropOp56
 70
     1
102
RTVSPost2010Prop57
140
1.0
102
RTVSPost2010PropOp57
 70
     1
102
RTVSPropertyOp0
 70
     1
102
RTVSPropertyOp1
 70
     1
102
RTVSPropertyOp2
 70
     1
102
RTVSPropertyOp3
 70
     1
102
RTVSPropertyOp4
 70
     1
102
RTVSPropertyOp5
 70
     1
102
RTVSPropertyOp6
 70
     1
102
RTVSPropertyOp7
 70
     1
102
RTVSPropertyOp8
 70
     1
102
RTVSPropertyOp9
 70
     1
102
RTVSPropertyOp10
 70
     1
102
RTVSPropertyOp11
 70
     1
102
RTVSPropertyOp12
 70
     1
102
RTVSPropertyOp13
 70
     1
102
RTVSPropertyOp14
 70
     1
102
RTVSPropertyOp15
 70
     1
102
RTVSPropertyOp16
 70
     1
102
RTVSPropertyOp17
 70
     1
102
RTVSPropertyOp18
 70
     1
102
RTVSPropertyOp19
 70
     1
102
RTVSPropertyOp20
 70
     1
102
RTVSPropertyOp21
 70
     1
102
RTVSPropertyOp22
 70
     1
102
RTVSPropertyOp23
 70
     1
102
RTVSPropertyOp24
 70
     1
102
RTVSPropertyOp25
 70
     1
102
RTVSPropertyOp26
 70
     1
102
RTVSPropertyOp27
 70
     1
102
RTVSPropertyOp28
 70
     1
102
RTVSPropertyOp29
 70
     1
102
RTVSPropertyOp30
 70
     1
102
RTVSPropertyOp31
 70
     1
102
RTVSPropertyOp32
 70
     1
102
RTVSPropertyOp33
 70
     1
102
RTVSPropertyOp34
 70
     1
102
RTVSPropertyOp35
 70
     1
102
RTVSPropertyOp36
 70
     1
102
RTVSPropertyOp37
 70
     1
102
RTVSPropertyOp38
 70
     1
102
RTVSPropertyOp39
 70
     1
102
RTVSPropertyOp40
 70
     1
102
RTVSPropertyOp41
 70
     1
102
RTVSPropertyOp42
 70
     1
102
RTVSPropertyOp43
 70
     1
102
RTVSPropertyOp44
 70
     1
102
RTVSPropertyOp45
 70
     1
102
RTVSPropertyOp46
 70
     1
102
RTVSPropertyOp47
 70
     1
102
RTVSPropertyOp48
 70
     1
102
RTVSPropertyOp49
 70
     1
102
RTVSPropertyOp50
 70
     1
102
RTVSPropertyOp51
 70
     0
102
RTVSPropertyOp52
 70
     0
102
RTVSPropertyOp53
 70
     1
102
RTVSPropertyOp54
 70
     1
102
RTVSPropertyOp55
 70
     1
102
RTVSPropertyOp56
 70
     1
102
RTVSPropertyOp57
 70
     1
102
RTVSPropertyOp58
 70
     1
102
RTVSPropertyOp59
 70
     1
102
RTVSPropertyOp60
 70
     1
102
RTVSPropertyOp61
 70
     1
102
RTVSPropertyOp62
 70
     1
  0
XRECORD
  5
901
102
{ACAD_REACTORS
330
900
102
}
330
900
100
AcDbXrecord
280
     1
102
RTVSPost2010Prop28
280
     0
102
RTVSPost2010PropOp28
 70
     1
102
RTVSPost2010Prop29
280
     1
102
RTVSPost2010PropOp29
 70
     1
102
RTVSPost2010Prop30
280
     1
102
RTVSPost2010PropOp30
 70
     1
102
RTVSPost2010Prop31
280
     0
102
RTVSPost2010PropOp31
 70
     1
102
RTVSPost2010Prop32
280
     0
102
RTVSPost2010PropOp32
 70
     1
102
RTVSPost2010Prop33
280
     0
102
RTVSPost2010PropOp33
 70
     1
102
RTVSPost2010Prop34
280
     0
102
RTVSPost2010PropOp34
 70
     1
102
RTVSPost2010Prop35
280
     0
102
RTVSPost2010PropOp35
 70
     1
102
RTVSPost2010Prop36
280
     0
102
RTVSPost2010PropOp36
 70
     1
102
RTVSPost2010Prop37
 90
       50
102
RTVSPost2010PropOp37
 70
     1
102
RTVSPost2010Prop38
140
0.0
102
RTVSPost2010PropOp38
 70
     1
102
RTVSPost2010Prop39
140
1.0
102
RTVSPost2010PropOp39
 70
     1
102
RTVSPost2010Prop40
 90
        0
102
RTVSPost2010PropOp40
 70
     1
102
RTVSPost2010Prop41ColorIndex
 90
       18
102
RTVSPost2010Prop41ColorRGB
 90
        0
102
RTVSPost2010PropOp41
 70
     1
102
RTVSPost2010Prop42
 90
       50
102
RTVSPost2010PropOp42
 70
     1
102
RTVSPost2010Prop43
 90
        3
102
RTVSPost2010PropOp43
 70
     1
102
RTVSPost2010Prop44ColorIndex
 90
        5
102
RTVSPost2010Prop44ColorRGB
 90
      255
102
RTVSPost2010PropOp44
 70
     1
102
RTVSPost2010Prop45
280
     0
102
RTVSPost2010PropOp45
 70
     1
102
RTVSPost2010Prop46
 90
       50
102
RTVSPost2010PropOp46
 70
     1
102
RTVSPost2010Prop47
 90
       50
102
RTVSPost2010PropOp47
 70
     1
102
RTVSPost2010Prop48
 90
       50
102
RTVSPost2010PropOp48
 70
     1
102
RTVSPost2010Prop49
280
     0
102
RTVSPost2010PropOp49
 70
     1
102
RTVSPost2010Prop50
 90
       50
102
RTVSPost2010PropOp50
 70
     1
102
RTVSPost2010Prop51ColorIndex
 90
      256
102
RTVSPost2010Prop51ColorRGB
 90
-16777216
102
RTVSPost2010PropOp51
 70
     0
102
RTVSPost2010Prop52
140
1.0
102
RTVSPost2010PropOp52
 70
     0
102
RTVSPost2010Prop53
 90
        2
102
RTVSPost2010PropOp53
 70
     1
102
RTVSPost2010Prop54
  1
strokes_ogs.tif
102
RTVSPost2010PropOp54
 70
     1
102
RTVSPost2010Prop55
280
     0
102
RTVSPost2010PropOp55
 70
     1
102
RTVSPost2010Prop56
140
1.0
102
RTVSPost2010PropOp56
 70
     1
102
RTVSPost2010Prop57
140
1.0
102
RTVSPost2010PropOp57
 70
     1
102
RTVSPropertyOp0
 70
     1
102
RTVSPropertyOp1
 70
     1
102
RTVSPropertyOp2
 70
     1
102
RTVSPropertyOp3
 70
     1
102
RTVSPropertyOp4
 70
     1
102
RTVSPropertyOp5
 70
     1
102
RTVSPropertyOp6
 70
     1
102
RTVSPropertyOp7
 70
     1
102
RTVSPropertyOp8
 70
     1
102
RTVSPropertyOp9
 70
     1
102
RTVSPropertyOp10
 70
     1
102
RTVSPropertyOp11
 70
     1
102
RTVSPropertyOp12
 70
     1
102
RTVSPropertyOp13
 70
     1
102
RTVSPropertyOp14
 70
     1
102
RTVSPropertyOp15
 70
     1
102
RTVSPropertyOp16
 70
     1
102
RTVSPropertyOp17
 70
     1
102
RTVSPropertyOp18
 70
     1
102
RTVSPropertyOp19
 70
     1
102
RTVSPropertyOp20
 70
     1
102
RTVSPropertyOp21
 70
     1
102
RTVSPropertyOp22
 70
     1
102
RTVSPropertyOp23
 70
     1
102
RTVSPropertyOp24
 70
     1
102
RTVSPropertyOp25
 70
     1
102
RTVSPropertyOp26
 70
     1
102
RTVSPropertyOp27
 70
     1
102
RTVSPropertyOp28
 70
     1
102
RTVSPropertyOp29
 70
     1
102
RTVSPropertyOp30
 70
     1
102
RTVSPropertyOp31
 70
     1
102
RTVSPropertyOp32
 70
     1
102
RTVSPropertyOp33
 70
     1
102
RTVSPropertyOp34
 70
     1
102
RTVSPropertyOp35
 70
     1
102
RTVSPropertyOp36
 70
     1
102
RTVSPropertyOp37
 70
     1
102
RTVSPropertyOp38
 70
     1
102
RTVSPropertyOp39
 70
     1
102
RTVSPropertyOp40
 70
     1
102
RTVSPropertyOp41
 70
     1
102
RTVSPropertyOp42
 70
     1
102
RTVSPropertyOp43
 70
     1
102
RTVSPropertyOp44
 70
     1
102
RTVSPropertyOp45
 70
     1
102
RTVSPropertyOp46
 70
     1
102
RTVSPropertyOp47
 70
     1
102
RTVSPropertyOp48
 70
     1
102
RTVSPropertyOp49
 70
     1
102
RTVSPropertyOp50
 70
     1
102
RTVSPropertyOp51
 70
     0
102
RTVSPropertyOp52
 70
     0
102
RTVSPropertyOp53
 70
     1
102
RTVSPropertyOp54
 70
     1
102
RTVSPropertyOp55
 70
     1
102
RTVSPropertyOp56
 70
     1
102
RTVSPropertyOp57
 70
     1
102
RTVSPropertyOp58
 70
     1
102
RTVSPropertyOp59
 70
     1
102
RTVSPropertyOp60
 70
     1
102
RTVSPropertyOp61
 70
     1
102
RTVSPropertyOp62
 70
     1
  0
XRECORD
  5
8FB
102
{ACAD_REACTORS
330
8FA
102
}
330
8FA
100
AcDbXrecord
280
     1
102
RTVSPost2010Prop28
280
     0
102
RTVSPost2010PropOp28
 70
     1
102
RTVSPost2010Prop29
280
     1
102
RTVSPost2010PropOp29
 70
     1
102
RTVSPost2010Prop30
280
     1
102
RTVSPost2010PropOp30
 70
     1
102
RTVSPost2010Prop31
280
     0
102
RTVSPost2010PropOp31
 70
     1
102
RTVSPost2010Prop32
280
     0
102
RTVSPost2010PropOp32
 70
     1
102
RTVSPost2010Prop33
280
     0
102
RTVSPost2010PropOp33
 70
     1
102
RTVSPost2010Prop34
280
     0
102
RTVSPost2010PropOp34
 70
     1
102
RTVSPost2010Prop35
280
     0
102
RTVSPost2010PropOp35
 70
     1
102
RTVSPost2010Prop36
280
     0
102
RTVSPost2010PropOp36
 70
     1
102
RTVSPost2010Prop37
 90
       50
102
RTVSPost2010PropOp37
 70
     1
102
RTVSPost2010Prop38
140
0.0
102
RTVSPost2010PropOp38
 70
     1
102
RTVSPost2010Prop39
140
1.0
102
RTVSPost2010PropOp39
 70
     1
102
RTVSPost2010Prop40
 90
        0
102
RTVSPost2010PropOp40
 70
     1
102
RTVSPost2010Prop41ColorIndex
 90
       18
102
RTVSPost2010Prop41ColorRGB
 90
        0
102
RTVSPost2010PropOp41
 70
     1
102
RTVSPost2010Prop42
 90
       50
102
RTVSPost2010PropOp42
 70
     1
102
RTVSPost2010Prop43
 90
        3
102
RTVSPost2010PropOp43
 70
     1
102
RTVSPost2010Prop44ColorIndex
 90
        5
102
RTVSPost2010Prop44ColorRGB
 90
      255
102
RTVSPost2010PropOp44
 70
     1
102
RTVSPost2010Prop45
280
     0
102
RTVSPost2010PropOp45
 70
     1
102
RTVSPost2010Prop46
 90
       50
102
RTVSPost2010PropOp46
 70
     1
102
RTVSPost2010Prop47
 90
       50
102
RTVSPost2010PropOp47
 70
     1
102
RTVSPost2010Prop48
 90
       50
102
RTVSPost2010PropOp48
 70
     1
102
RTVSPost2010Prop49
280
     0
102
RTVSPost2010PropOp49
 70
     1
102
RTVSPost2010Prop50
 90
       50
102
RTVSPost2010PropOp50
 70
     1
102
RTVSPost2010Prop51ColorIndex
 90
      256
102
RTVSPost2010Prop51ColorRGB
 90
-16777216
102
RTVSPost2010PropOp51
 70
     0
102
RTVSPost2010Prop52
140
1.0
102
RTVSPost2010PropOp52
 70
     0
102
RTVSPost2010Prop53
 90
        2
102
RTVSPost2010PropOp53
 70
     1
102
RTVSPost2010Prop54
  1
strokes_ogs.tif
102
RTVSPost2010PropOp54
 70
     1
102
RTVSPost2010Prop55
280
     0
102
RTVSPost2010PropOp55
 70
     1
102
RTVSPost2010Prop56
140
1.0
102
RTVSPost2010PropOp56
 70
     1
102
RTVSPost2010Prop57
140
1.0
102
RTVSPost2010PropOp57
 70
     1
102
RTVSPropertyOp0
 70
     1
102
RTVSPropertyOp1
 70
     1
102
RTVSPropertyOp2
 70
     1
102
RTVSPropertyOp3
 70
     1
102
RTVSPropertyOp4
 70
     1
102
RTVSPropertyOp5
 70
     1
102
RTVSPropertyOp6
 70
     1
102
RTVSPropertyOp7
 70
     1
102
RTVSPropertyOp8
 70
     1
102
RTVSPropertyOp9
 70
     1
102
RTVSPropertyOp10
 70
     1
102
RTVSPropertyOp11
 70
     1
102
RTVSPropertyOp12
 70
     1
102
RTVSPropertyOp13
 70
     1
102
RTVSPropertyOp14
 70
     1
102
RTVSPropertyOp15
 70
     1
102
RTVSPropertyOp16
 70
     1
102
RTVSPropertyOp17
 70
     1
102
RTVSPropertyOp18
 70
     1
102
RTVSPropertyOp19
 70
     1
102
RTVSPropertyOp20
 70
     1
102
RTVSPropertyOp21
 70
     1
102
RTVSPropertyOp22
 70
     1
102
RTVSPropertyOp23
 70
     1
102
RTVSPropertyOp24
 70
     1
102
RTVSPropertyOp25
 70
     1
102
RTVSPropertyOp26
 70
     1
102
RTVSPropertyOp27
 70
     1
102
RTVSPropertyOp28
 70
     1
102
RTVSPropertyOp29
 70
     1
102
RTVSPropertyOp30
 70
     1
102
RTVSPropertyOp31
 70
     1
102
RTVSPropertyOp32
 70
     1
102
RTVSPropertyOp33
 70
     1
102
RTVSPropertyOp34
 70
     1
102
RTVSPropertyOp35
 70
     1
102
RTVSPropertyOp36
 70
     1
102
RTVSPropertyOp37
 70
     1
102
RTVSPropertyOp38
 70
     1
102
RTVSPropertyOp39
 70
     1
102
RTVSPropertyOp40
 70
     1
102
RTVSPropertyOp41
 70
     1
102
RTVSPropertyOp42
 70
     1
102
RTVSPropertyOp43
 70
     1
102
RTVSPropertyOp44
 70
     1
102
RTVSPropertyOp45
 70
     1
102
RTVSPropertyOp46
 70
     1
102
RTVSPropertyOp47
 70
     1
102
RTVSPropertyOp48
 70
     1
102
RTVSPropertyOp49
 70
     1
102
RTVSPropertyOp50
 70
     1
102
RTVSPropertyOp51
 70
     0
102
RTVSPropertyOp52
 70
     0
102
RTVSPropertyOp53
 70
     1
102
RTVSPropertyOp54
 70
     1
102
RTVSPropertyOp55
 70
     1
102
RTVSPropertyOp56
 70
     1
102
RTVSPropertyOp57
 70
     1
102
RTVSPropertyOp58
 70
     1
102
RTVSPropertyOp59
 70
     1
102
RTVSPropertyOp60
 70
     1
102
RTVSPropertyOp61
 70
     1
102
RTVSPropertyOp62
 70
     1
  0
XRECORD
  5
8FD
102
{ACAD_REACTORS
330
8FC
102
}
330
8FC
100
AcDbXrecord
280
     1
102
RTVSPost2010Prop28
280
     0
102
RTVSPost2010PropOp28
 70
     1
102
RTVSPost2010Prop29
280
     1
102
RTVSPost2010PropOp29
 70
     1
102
RTVSPost2010Prop30
280
     1
102
RTVSPost2010PropOp30
 70
     1
102
RTVSPost2010Prop31
280
     0
102
RTVSPost2010PropOp31
 70
     1
102
RTVSPost2010Prop32
280
     0
102
RTVSPost2010PropOp32
 70
     1
102
RTVSPost2010Prop33
280
     0
102
RTVSPost2010PropOp33
 70
     1
102
RTVSPost2010Prop34
280
     0
102
RTVSPost2010PropOp34
 70
     1
102
RTVSPost2010Prop35
280
     0
102
RTVSPost2010PropOp35
 70
     1
102
RTVSPost2010Prop36
280
     0
102
RTVSPost2010PropOp36
 70
     1
102
RTVSPost2010Prop37
 90
       50
102
RTVSPost2010PropOp37
 70
     1
102
RTVSPost2010Prop38
140
0.0
102
RTVSPost2010PropOp38
 70
     1
102
RTVSPost2010Prop39
140
1.0
102
RTVSPost2010PropOp39
 70
     1
102
RTVSPost2010Prop40
 90
        0
102
RTVSPost2010PropOp40
 70
     1
102
RTVSPost2010Prop41ColorIndex
 90
       18
102
RTVSPost2010Prop41ColorRGB
 90
        0
102
RTVSPost2010PropOp41
 70
     1
102
RTVSPost2010Prop42
 90
       50
102
RTVSPost2010PropOp42
 70
     1
102
RTVSPost2010Prop43
 90
        3
102
RTVSPost2010PropOp43
 70
     1
102
RTVSPost2010Prop44ColorIndex
 90
        5
102
RTVSPost2010Prop44ColorRGB
 90
      255
102
RTVSPost2010PropOp44
 70
     1
102
RTVSPost2010Prop45
280
     0
102
RTVSPost2010PropOp45
 70
     1
102
RTVSPost2010Prop46
 90
       50
102
RTVSPost2010PropOp46
 70
     1
102
RTVSPost2010Prop47
 90
       50
102
RTVSPost2010PropOp47
 70
     1
102
RTVSPost2010Prop48
 90
       50
102
RTVSPost2010PropOp48
 70
     1
102
RTVSPost2010Prop49
280
     0
102
RTVSPost2010PropOp49
 70
     1
102
RTVSPost2010Prop50
 90
       50
102
RTVSPost2010PropOp50
 70
     1
102
RTVSPost2010Prop51ColorIndex
 90
      256
102
RTVSPost2010Prop51ColorRGB
 90
-16777216
102
RTVSPost2010PropOp51
 70
     0
102
RTVSPost2010Prop52
140
1.0
102
RTVSPost2010PropOp52
 70
     0
102
RTVSPost2010Prop53
 90
        2
102
RTVSPost2010PropOp53
 70
     1
102
RTVSPost2010Prop54
  1
strokes_ogs.tif
102
RTVSPost2010PropOp54
 70
     1
102
RTVSPost2010Prop55
280
     0
102
RTVSPost2010PropOp55
 70
     1
102
RTVSPost2010Prop56
140
1.0
102
RTVSPost2010PropOp56
 70
     1
102
RTVSPost2010Prop57
140
1.0
102
RTVSPost2010PropOp57
 70
     1
102
RTVSPropertyOp0
 70
     1
102
RTVSPropertyOp1
 70
     1
102
RTVSPropertyOp2
 70
     1
102
RTVSPropertyOp3
 70
     1
102
RTVSPropertyOp4
 70
     1
102
RTVSPropertyOp5
 70
     1
102
RTVSPropertyOp6
 70
     1
102
RTVSPropertyOp7
 70
     1
102
RTVSPropertyOp8
 70
     1
102
RTVSPropertyOp9
 70
     1
102
RTVSPropertyOp10
 70
     1
102
RTVSPropertyOp11
 70
     1
102
RTVSPropertyOp12
 70
     1
102
RTVSPropertyOp13
 70
     1
102
RTVSPropertyOp14
 70
     1
102
RTVSPropertyOp15
 70
     1
102
RTVSPropertyOp16
 70
     1
102
RTVSPropertyOp17
 70
     1
102
RTVSPropertyOp18
 70
     1
102
RTVSPropertyOp19
 70
     1
102
RTVSPropertyOp20
 70
     1
102
RTVSPropertyOp21
 70
     1
102
RTVSPropertyOp22
 70
     1
102
RTVSPropertyOp23
 70
     1
102
RTVSPropertyOp24
 70
     1
102
RTVSPropertyOp25
 70
     1
102
RTVSPropertyOp26
 70
     1
102
RTVSPropertyOp27
 70
     1
102
RTVSPropertyOp28
 70
     1
102
RTVSPropertyOp29
 70
     1
102
RTVSPropertyOp30
 70
     1
102
RTVSPropertyOp31
 70
     1
102
RTVSPropertyOp32
 70
     1
102
RTVSPropertyOp33
 70
     1
102
RTVSPropertyOp34
 70
     1
102
RTVSPropertyOp35
 70
     1
102
RTVSPropertyOp36
 70
     1
102
RTVSPropertyOp37
 70
     1
102
RTVSPropertyOp38
 70
     1
102
RTVSPropertyOp39
 70
     1
102
RTVSPropertyOp40
 70
     1
102
RTVSPropertyOp41
 70
     1
102
RTVSPropertyOp42
 70
     1
102
RTVSPropertyOp43
 70
     1
102
RTVSPropertyOp44
 70
     1
102
RTVSPropertyOp45
 70
     1
102
RTVSPropertyOp46
 70
     1
102
RTVSPropertyOp47
 70
     1
102
RTVSPropertyOp48
 70
     1
102
RTVSPropertyOp49
 70
     1
102
RTVSPropertyOp50
 70
     1
102
RTVSPropertyOp51
 70
     0
102
RTVSPropertyOp52
 70
     0
102
RTVSPropertyOp53
 70
     1
102
RTVSPropertyOp54
 70
     1
102
RTVSPropertyOp55
 70
     1
102
RTVSPropertyOp56
 70
     1
102
RTVSPropertyOp57
 70
     1
102
RTVSPropertyOp58
 70
     1
102
RTVSPropertyOp59
 70
     1
102
RTVSPropertyOp60
 70
     1
102
RTVSPropertyOp61
 70
     1
102
RTVSPropertyOp62
 70
     1
  0
XRECORD
  5
8F3
102
{ACAD_REACTORS
330
8F2
102
}
330
8F2
100
AcDbXrecord
280
     1
102
RTVSPost2010Prop28
280
     0
102
RTVSPost2010PropOp28
 70
     1
102
RTVSPost2010Prop29
280
     1
102
RTVSPost2010PropOp29
 70
     1
102
RTVSPost2010Prop30
280
     1
102
RTVSPost2010PropOp30
 70
     1
102
RTVSPost2010Prop31
280
     0
102
RTVSPost2010PropOp31
 70
     1
102
RTVSPost2010Prop32
280
     0
102
RTVSPost2010PropOp32
 70
     1
102
RTVSPost2010Prop33
280
     0
102
RTVSPost2010PropOp33
 70
     1
102
RTVSPost2010Prop34
280
     0
102
RTVSPost2010PropOp34
 70
     1
102
RTVSPost2010Prop35
280
     0
102
RTVSPost2010PropOp35
 70
     1
102
RTVSPost2010Prop36
280
     0
102
RTVSPost2010PropOp36
 70
     1
102
RTVSPost2010Prop37
 90
       50
102
RTVSPost2010PropOp37
 70
     1
102
RTVSPost2010Prop38
140
0.0
102
RTVSPost2010PropOp38
 70
     1
102
RTVSPost2010Prop39
140
1.0
102
RTVSPost2010PropOp39
 70
     1
102
RTVSPost2010Prop40
 90
        0
102
RTVSPost2010PropOp40
 70
     1
102
RTVSPost2010Prop41ColorIndex
 90
       18
102
RTVSPost2010Prop41ColorRGB
 90
        0
102
RTVSPost2010PropOp41
 70
     1
102
RTVSPost2010Prop42
 90
       50
102
RTVSPost2010PropOp42
 70
     1
102
RTVSPost2010Prop43
 90
        3
102
RTVSPost2010PropOp43
 70
     1
102
RTVSPost2010Prop44ColorIndex
 90
        5
102
RTVSPost2010Prop44ColorRGB
 90
      255
102
RTVSPost2010PropOp44
 70
     1
102
RTVSPost2010Prop45
280
     0
102
RTVSPost2010PropOp45
 70
     1
102
RTVSPost2010Prop46
 90
       50
102
RTVSPost2010PropOp46
 70
     1
102
RTVSPost2010Prop47
 90
       50
102
RTVSPost2010PropOp47
 70
     1
102
RTVSPost2010Prop48
 90
       50
102
RTVSPost2010PropOp48
 70
     1
102
RTVSPost2010Prop49
280
     0
102
RTVSPost2010PropOp49
 70
     1
102
RTVSPost2010Prop50
 90
       50
102
RTVSPost2010PropOp50
 70
     1
102
RTVSPost2010Prop51ColorIndex
 90
      256
102
RTVSPost2010Prop51ColorRGB
 90
-16777216
102
RTVSPost2010PropOp51
 70
     0
102
RTVSPost2010Prop52
140
1.0
102
RTVSPost2010PropOp52
 70
     0
102
RTVSPost2010Prop53
 90
        2
102
RTVSPost2010PropOp53
 70
     1
102
RTVSPost2010Prop54
  1
strokes_ogs.tif
102
RTVSPost2010PropOp54
 70
     1
102
RTVSPost2010Prop55
280
     0
102
RTVSPost2010PropOp55
 70
     1
102
RTVSPost2010Prop56
140
1.0
102
RTVSPost2010PropOp56
 70
     1
102
RTVSPost2010Prop57
140
1.0
102
RTVSPost2010PropOp57
 70
     1
102
RTVSPropertyOp0
 70
     1
102
RTVSPropertyOp1
 70
     1
102
RTVSPropertyOp2
 70
     1
102
RTVSPropertyOp3
 70
     1
102
RTVSPropertyOp4
 70
     1
102
RTVSPropertyOp5
 70
     1
102
RTVSPropertyOp6
 70
     1
102
RTVSPropertyOp7
 70
     1
102
RTVSPropertyOp8
 70
     1
102
RTVSPropertyOp9
 70
     1
102
RTVSPropertyOp10
 70
     1
102
RTVSPropertyOp11
 70
     1
102
RTVSPropertyOp12
 70
     1
102
RTVSPropertyOp13
 70
     1
102
RTVSPropertyOp14
 70
     1
102
RTVSPropertyOp15
 70
     1
102
RTVSPropertyOp16
 70
     1
102
RTVSPropertyOp17
 70
     1
102
RTVSPropertyOp18
 70
     1
102
RTVSPropertyOp19
 70
     1
102
RTVSPropertyOp20
 70
     1
102
RTVSPropertyOp21
 70
     1
102
RTVSPropertyOp22
 70
     1
102
RTVSPropertyOp23
 70
     1
102
RTVSPropertyOp24
 70
     1
102
RTVSPropertyOp25
 70
     1
102
RTVSPropertyOp26
 70
     1
102
RTVSPropertyOp27
 70
     1
102
RTVSPropertyOp28
 70
     1
102
RTVSPropertyOp29
 70
     1
102
RTVSPropertyOp30
 70
     1
102
RTVSPropertyOp31
 70
     1
102
RTVSPropertyOp32
 70
     1
102
RTVSPropertyOp33
 70
     1
102
RTVSPropertyOp34
 70
     1
102
RTVSPropertyOp35
 70
     1
102
RTVSPropertyOp36
 70
     1
102
RTVSPropertyOp37
 70
     1
102
RTVSPropertyOp38
 70
     1
102
RTVSPropertyOp39
 70
     1
102
RTVSPropertyOp40
 70
     1
102
RTVSPropertyOp41
 70
     1
102
RTVSPropertyOp42
 70
     1
102
RTVSPropertyOp43
 70
     1
102
RTVSPropertyOp44
 70
     1
102
RTVSPropertyOp45
 70
     1
102
RTVSPropertyOp46
 70
     1
102
RTVSPropertyOp47
 70
     1
102
RTVSPropertyOp48
 70
     1
102
RTVSPropertyOp49
 70
     1
102
RTVSPropertyOp50
 70
     1
102
RTVSPropertyOp51
 70
     0
102
RTVSPropertyOp52
 70
     0
102
RTVSPropertyOp53
 70
     1
102
RTVSPropertyOp54
 70
     1
102
RTVSPropertyOp55
 70
     1
102
RTVSPropertyOp56
 70
     1
102
RTVSPropertyOp57
 70
     1
102
RTVSPropertyOp58
 70
     1
102
RTVSPropertyOp59
 70
     1
102
RTVSPropertyOp60
 70
     1
102
RTVSPropertyOp61
 70
     1
102
RTVSPropertyOp62
 70
     1
  0
XRECORD
  5
8E7
102
{ACAD_REACTORS
330
8E6
102
}
330
8E6
100
AcDbXrecord
280
     1
102
RTVSPost2010Prop28
280
     0
102
RTVSPost2010PropOp28
 70
     1
102
RTVSPost2010Prop29
280
     1
102
RTVSPost2010PropOp29
 70
     1
102
RTVSPost2010Prop30
280
     1
102
RTVSPost2010PropOp30
 70
     1
102
RTVSPost2010Prop31
280
     0
102
RTVSPost2010PropOp31
 70
     1
102
RTVSPost2010Prop32
280
     0
102
RTVSPost2010PropOp32
 70
     1
102
RTVSPost2010Prop33
280
     0
102
RTVSPost2010PropOp33
 70
     1
102
RTVSPost2010Prop34
280
     0
102
RTVSPost2010PropOp34
 70
     1
102
RTVSPost2010Prop35
280
     0
102
RTVSPost2010PropOp35
 70
     1
102
RTVSPost2010Prop36
280
     0
102
RTVSPost2010PropOp36
 70
     1
102
RTVSPost2010Prop37
 90
       50
102
RTVSPost2010PropOp37
 70
     1
102
RTVSPost2010Prop38
140
0.0
102
RTVSPost2010PropOp38
 70
     1
102
RTVSPost2010Prop39
140
1.0
102
RTVSPost2010PropOp39
 70
     1
102
RTVSPost2010Prop40
 90
        0
102
RTVSPost2010PropOp40
 70
     1
102
RTVSPost2010Prop41ColorIndex
 90
       18
102
RTVSPost2010Prop41ColorRGB
 90
        0
102
RTVSPost2010PropOp41
 70
     1
102
RTVSPost2010Prop42
 90
       50
102
RTVSPost2010PropOp42
 70
     1
102
RTVSPost2010Prop43
 90
        3
102
RTVSPost2010PropOp43
 70
     1
102
RTVSPost2010Prop44ColorIndex
 90
        5
102
RTVSPost2010Prop44ColorRGB
 90
      255
102
RTVSPost2010PropOp44
 70
     1
102
RTVSPost2010Prop45
280
     0
102
RTVSPost2010PropOp45
 70
     1
102
RTVSPost2010Prop46
 90
       50
102
RTVSPost2010PropOp46
 70
     1
102
RTVSPost2010Prop47
 90
       50
102
RTVSPost2010PropOp47
 70
     1
102
RTVSPost2010Prop48
 90
       50
102
RTVSPost2010PropOp48
 70
     1
102
RTVSPost2010Prop49
280
     0
102
RTVSPost2010PropOp49
 70
     1
102
RTVSPost2010Prop50
 90
       50
102
RTVSPost2010PropOp50
 70
     1
102
RTVSPost2010Prop51ColorIndex
 90
      256
102
RTVSPost2010Prop51ColorRGB
 90
-16777216
102
RTVSPost2010PropOp51
 70
     0
102
RTVSPost2010Prop52
140
1.0
102
RTVSPost2010PropOp52
 70
     0
102
RTVSPost2010Prop53
 90
        2
102
RTVSPost2010PropOp53
 70
     1
102
RTVSPost2010Prop54
  1
strokes_ogs.tif
102
RTVSPost2010PropOp54
 70
     1
102
RTVSPost2010Prop55
280
     0
102
RTVSPost2010PropOp55
 70
     1
102
RTVSPost2010Prop56
140
1.0
102
RTVSPost2010PropOp56
 70
     1
102
RTVSPost2010Prop57
140
1.0
102
RTVSPost2010PropOp57
 70
     1
102
RTVSPropertyOp0
 70
     1
102
RTVSPropertyOp1
 70
     1
102
RTVSPropertyOp2
 70
     1
102
RTVSPropertyOp3
 70
     1
102
RTVSPropertyOp4
 70
     1
102
RTVSPropertyOp5
 70
     1
102
RTVSPropertyOp6
 70
     1
102
RTVSPropertyOp7
 70
     1
102
RTVSPropertyOp8
 70
     1
102
RTVSPropertyOp9
 70
     1
102
RTVSPropertyOp10
 70
     1
102
RTVSPropertyOp11
 70
     1
102
RTVSPropertyOp12
 70
     1
102
RTVSPropertyOp13
 70
     1
102
RTVSPropertyOp14
 70
     1
102
RTVSPropertyOp15
 70
     1
102
RTVSPropertyOp16
 70
     1
102
RTVSPropertyOp17
 70
     1
102
RTVSPropertyOp18
 70
     1
102
RTVSPropertyOp19
 70
     1
102
RTVSPropertyOp20
 70
     1
102
RTVSPropertyOp21
 70
     1
102
RTVSPropertyOp22
 70
     1
102
RTVSPropertyOp23
 70
     1
102
RTVSPropertyOp24
 70
     1
102
RTVSPropertyOp25
 70
     1
102
RTVSPropertyOp26
 70
     1
102
RTVSPropertyOp27
 70
     1
102
RTVSPropertyOp28
 70
     1
102
RTVSPropertyOp29
 70
     1
102
RTVSPropertyOp30
 70
     1
102
RTVSPropertyOp31
 70
     1
102
RTVSPropertyOp32
 70
     1
102
RTVSPropertyOp33
 70
     1
102
RTVSPropertyOp34
 70
     1
102
RTVSPropertyOp35
 70
     1
102
RTVSPropertyOp36
 70
     1
102
RTVSPropertyOp37
 70
     1
102
RTVSPropertyOp38
 70
     1
102
RTVSPropertyOp39
 70
     1
102
RTVSPropertyOp40
 70
     1
102
RTVSPropertyOp41
 70
     1
102
RTVSPropertyOp42
 70
     1
102
RTVSPropertyOp43
 70
     1
102
RTVSPropertyOp44
 70
     1
102
RTVSPropertyOp45
 70
     1
102
RTVSPropertyOp46
 70
     1
102
RTVSPropertyOp47
 70
     1
102
RTVSPropertyOp48
 70
     1
102
RTVSPropertyOp49
 70
     1
102
RTVSPropertyOp50
 70
     1
102
RTVSPropertyOp51
 70
     0
102
RTVSPropertyOp52
 70
     0
102
RTVSPropertyOp53
 70
     1
102
RTVSPropertyOp54
 70
     1
102
RTVSPropertyOp55
 70
     1
102
RTVSPropertyOp56
 70
     1
102
RTVSPropertyOp57
 70
     1
102
RTVSPropertyOp58
 70
     1
102
RTVSPropertyOp59
 70
     1
102
RTVSPropertyOp60
 70
     1
102
RTVSPropertyOp61
 70
     1
102
RTVSPropertyOp62
 70
     1
  0
XRECORD
  5
8FF
102
{ACAD_REACTORS
330
8FE
102
}
330
8FE
100
AcDbXrecord
280
     1
102
RTVSPost2010Prop28
280
     0
102
RTVSPost2010PropOp28
 70
     1
102
RTVSPost2010Prop29
280
     1
102
RTVSPost2010PropOp29
 70
     1
102
RTVSPost2010Prop30
280
     1
102
RTVSPost2010PropOp30
 70
     1
102
RTVSPost2010Prop31
280
     0
102
RTVSPost2010PropOp31
 70
     1
102
RTVSPost2010Prop32
280
     0
102
RTVSPost2010PropOp32
 70
     1
102
RTVSPost2010Prop33
280
     0
102
RTVSPost2010PropOp33
 70
     1
102
RTVSPost2010Prop34
280
     0
102
RTVSPost2010PropOp34
 70
     1
102
RTVSPost2010Prop35
280
     0
102
RTVSPost2010PropOp35
 70
     1
102
RTVSPost2010Prop36
280
     0
102
RTVSPost2010PropOp36
 70
     1
102
RTVSPost2010Prop37
 90
       50
102
RTVSPost2010PropOp37
 70
     1
102
RTVSPost2010Prop38
140
0.0
102
RTVSPost2010PropOp38
 70
     1
102
RTVSPost2010Prop39
140
1.0
102
RTVSPost2010PropOp39
 70
     1
102
RTVSPost2010Prop40
 90
        0
102
RTVSPost2010PropOp40
 70
     1
102
RTVSPost2010Prop41ColorIndex
 90
       18
102
RTVSPost2010Prop41ColorRGB
 90
        0
102
RTVSPost2010PropOp41
 70
     1
102
RTVSPost2010Prop42
 90
       50
102
RTVSPost2010PropOp42
 70
     1
102
RTVSPost2010Prop43
 90
        3
102
RTVSPost2010PropOp43
 70
     1
102
RTVSPost2010Prop44ColorIndex
 90
        5
102
RTVSPost2010Prop44ColorRGB
 90
      255
102
RTVSPost2010PropOp44
 70
     1
102
RTVSPost2010Prop45
280
     0
102
RTVSPost2010PropOp45
 70
     1
102
RTVSPost2010Prop46
 90
       50
102
RTVSPost2010PropOp46
 70
     1
102
RTVSPost2010Prop47
 90
       50
102
RTVSPost2010PropOp47
 70
     1
102
RTVSPost2010Prop48
 90
       50
102
RTVSPost2010PropOp48
 70
     1
102
RTVSPost2010Prop49
280
     0
102
RTVSPost2010PropOp49
 70
     1
102
RTVSPost2010Prop50
 90
       50
102
RTVSPost2010PropOp50
 70
     1
102
RTVSPost2010Prop51ColorIndex
 90
      256
102
RTVSPost2010Prop51ColorRGB
 90
-16777216
102
RTVSPost2010PropOp51
 70
     0
102
RTVSPost2010Prop52
140
1.0
102
RTVSPost2010PropOp52
 70
     0
102
RTVSPost2010Prop53
 90
        2
102
RTVSPost2010PropOp53
 70
     1
102
RTVSPost2010Prop54
  1
strokes_ogs.tif
102
RTVSPost2010PropOp54
 70
     1
102
RTVSPost2010Prop55
280
     0
102
RTVSPost2010PropOp55
 70
     1
102
RTVSPost2010Prop56
140
1.0
102
RTVSPost2010PropOp56
 70
     1
102
RTVSPost2010Prop57
140
1.0
102
RTVSPost2010PropOp57
 70
     1
102
RTVSPropertyOp0
 70
     1
102
RTVSPropertyOp1
 70
     1
102
RTVSPropertyOp2
 70
     1
102
RTVSPropertyOp3
 70
     1
102
RTVSPropertyOp4
 70
     1
102
RTVSPropertyOp5
 70
     1
102
RTVSPropertyOp6
 70
     1
102
RTVSPropertyOp7
 70
     1
102
RTVSPropertyOp8
 70
     1
102
RTVSPropertyOp9
 70
     1
102
RTVSPropertyOp10
 70
     1
102
RTVSPropertyOp11
 70
     1
102
RTVSPropertyOp12
 70
     1
102
RTVSPropertyOp13
 70
     1
102
RTVSPropertyOp14
 70
     1
102
RTVSPropertyOp15
 70
     1
102
RTVSPropertyOp16
 70
     1
102
RTVSPropertyOp17
 70
     1
102
RTVSPropertyOp18
 70
     1
102
RTVSPropertyOp19
 70
     1
102
RTVSPropertyOp20
 70
     1
102
RTVSPropertyOp21
 70
     1
102
RTVSPropertyOp22
 70
     1
102
RTVSPropertyOp23
 70
     1
102
RTVSPropertyOp24
 70
     1
102
RTVSPropertyOp25
 70
     1
102
RTVSPropertyOp26
 70
     1
102
RTVSPropertyOp27
 70
     1
102
RTVSPropertyOp28
 70
     1
102
RTVSPropertyOp29
 70
     1
102
RTVSPropertyOp30
 70
     1
102
RTVSPropertyOp31
 70
     1
102
RTVSPropertyOp32
 70
     1
102
RTVSPropertyOp33
 70
     1
102
RTVSPropertyOp34
 70
     1
102
RTVSPropertyOp35
 70
     1
102
RTVSPropertyOp36
 70
     1
102
RTVSPropertyOp37
 70
     1
102
RTVSPropertyOp38
 70
     1
102
RTVSPropertyOp39
 70
     1
102
RTVSPropertyOp40
 70
     1
102
RTVSPropertyOp41
 70
     1
102
RTVSPropertyOp42
 70
     1
102
RTVSPropertyOp43
 70
     1
102
RTVSPropertyOp44
 70
     1
102
RTVSPropertyOp45
 70
     1
102
RTVSPropertyOp46
 70
     1
102
RTVSPropertyOp47
 70
     1
102
RTVSPropertyOp48
 70
     1
102
RTVSPropertyOp49
 70
     1
102
RTVSPropertyOp50
 70
     1
102
RTVSPropertyOp51
 70
     0
102
RTVSPropertyOp52
 70
     0
102
RTVSPropertyOp53
 70
     1
102
RTVSPropertyOp54
 70
     1
102
RTVSPropertyOp55
 70
     1
102
RTVSPropertyOp56
 70
     1
102
RTVSPropertyOp57
 70
     1
102
RTVSPropertyOp58
 70
     1
102
RTVSPropertyOp59
 70
     1
102
RTVSPropertyOp60
 70
     1
102
RTVSPropertyOp61
 70
     1
102
RTVSPropertyOp62
 70
     1
  0
ENDSEC
  0
EOF
