  0
SECTION
  2
HEADER
  9
$ACADVER
  1
AC1009
  9
$INSBASE
 10
0.0
 20
0.0
 30
0.0
  9
$EXTMIN
 10
0.9805307641864828
 20
0.9879462492978063
 30
-0.000000000000013
  9
$EXTMAX
 10
209.00665356429141
 20
296.01205513371622
 30
0.0000000000000023
  9
$LIMMIN
 10
0.0
 20
0.0
  9
$LIMMAX
 10
420.0
 20
297.0
  9
$ORTHOMODE
 70
     1
  9
$REGENMODE
 70
     1
  9
$FILLMODE
 70
     1
  9
$QTEXTMODE
 70
     0
  9
$MIRRTEXT
 70
     1
  9
$DRAGMODE
 70
     2
  9
$LTSCALE
 40
1.0
  9
$OSMODE
 70
    37
  9
$ATTMODE
 70
     1
  9
$TEXTSIZE
 40
2.5
  9
$TRACEWID
 40
1.0
  9
$TEXTSTYLE
  7
STANDARD
  9
$CLAYER
  8
0
  9
$CELTYPE
  6
CONTINUOUS
  9
$CECOLOR
 62
     1
  9
$DIMSCALE
 40
1.0
  9
$DIMASZ
 40
3.7200000000000002
  9
$DIMEXO
 40
0.0
  9
$DIMDLI
 40
5.0
  9
$DIMRND
 40
0.0
  9
$DIMDLE
 40
0.0
  9
$DIMEXE
 40
1.5
  9
$DIMTP
 40
0.0
  9
$DIMTM
 40
0.0
  9
$DIMTXT
 40
2.5
  9
$DIMCEN
 40
0.0
  9
$DIMTSZ
 40
0.0
  9
$DIMTOL
 70
     0
  9
$DIMLIM
 70
     0
  9
$DIMTIH
 70
     0
  9
$DIMTOH
 70
     0
  9
$DIMSE1
 70
     0
  9
$DIMSE2
 70
     0
  9
$DIMTAD
 70
     1
  9
$DIMZIN
 70
     8
  9
$DIMBLK
  1
_OPEN15
  9
$DIMASO
 70
     1
  9
$DIMSHO
 70
     1
  9
$DIMPOST
  1

  9
$DIMAPOST
  1
"
  9
$DIMALT
 70
     0
  9
$DIMALTD
 70
     2
  9
$DIMALTF
 40
0.0393700787401575
  9
$DIMLFAC
 40
1.0
  9
$DIMTOFL
 70
     1
  9
$DIMTVP
 40
0.0
  9
$DIMTIX
 70
     0
  9
$DIMSOXD
 70
     0
  9
$DIMSAH
 70
     0
  9
$DIMBLK1
  1

  9
$DIMBLK2
  1

  9
$DIMSTYLE
  2
PHOENIX
  9
$DIMCLRD
 70
     1
  9
$DIMCLRE
 70
     1
  9
$DIMCLRT
 70
     5
  9
$DIMTFAC
 40
0.6666666666666666
  9
$DIMGAP
 40
0.4
  9
$LUNITS
 70
     2
  9
$LUPREC
 70
     4
  9
$SKETCHINC
 40
1.0
  9
$FILLETRAD
 40
0.6
  9
$AUNITS
 70
     0
  9
$AUPREC
 70
     0
  9
$MENU
  1
.
  9
$ELEVATION
 40
0.0
  9
$PELEVATION
 40
0.0
  9
$THICKNESS
 40
0.0
  9
$LIMCHECK
 70
     0
  9
$BLIPMODE
 70
     0
  9
$CHAMFERA
 40
10.0
  9
$CHAMFERB
 40
10.0
  9
$SKPOLY
 70
     0
  9
$TDCREATE
 40
2451933.3257588311
  9
$TDUPDATE
 40
2456730.5491357059
  9
$TDINDWG
 40
0.2311895255
  9
$TDUSRTIMER
 40
0.2311895255
  9
$USRTIMER
 70
     1
  9
$ANGBASE
 50
0.0
  9
$ANGDIR
 70
     0
  9
$PDMODE
 70
    35
  9
$PDSIZE
 40
-2.0
  9
$PLINEWID
 40
0.0
  9
$COORDS
 70
     1
  9
$SPLFRAME
 70
     0
  9
$SPLINETYPE
 70
     6
  9
$SPLINESEGS
 70
     8
  9
$ATTDIA
 70
     0
  9
$ATTREQ
 70
     1
  9
$HANDLING
 70
     1
  9
$HANDSEED
  5
E0A8
  9
$SURFTAB1
 70
     6
  9
$SURFTAB2
 70
     6
  9
$SURFTYPE
 70
     6
  9
$SURFU
 70
     6
  9
$SURFV
 70
     6
  9
$UCSNAME
  2

  9
$UCSORG
 10
0.0
 20
0.0
 30
0.0
  9
$UCSXDIR
 10
1.0
 20
0.0
 30
0.0
  9
$UCSYDIR
 10
0.0
 20
1.0
 30
0.0
  9
$PUCSNAME
  2

  9
$PUCSORG
 10
0.0
 20
0.0
 30
0.0
  9
$PUCSXDIR
 10
1.0
 20
0.0
 30
0.0
  9
$PUCSYDIR
 10
0.0
 20
1.0
 30
0.0
  9
$USERI1
 70
     0
  9
$USERI2
 70
     0
  9
$USERI3
 70
     0
  9
$USERI4
 70
     0
  9
$USERI5
 70
     0
  9
$USERR1
 40
0.0
  9
$USERR2
 40
0.0
  9
$USERR3
 40
0.0
  9
$USERR4
 40
0.0
  9
$USERR5
 40
0.0
  9
$WORLDVIEW
 70
     1
  9
$SHADEDGE
 70
     3
  9
$SHADEDIF
 70
    70
  9
$TILEMODE
 70
     1
  9
$MAXACTVP
 70
    64
  9
$PLIMCHECK
 70
     0
  9
$PEXTMIN
 10
1.0000000000000000E+020
 20
1.0000000000000000E+020
 30
1.0000000000000000E+020
  9
$PEXTMAX
 10
-1.0000000000000000E+020
 20
-1.0000000000000000E+020
 30
-1.0000000000000000E+020
  9
$PLIMMIN
 10
0.0
 20
0.0
  9
$PLIMMAX
 10
420.0
 20
297.0
  9
$UNITMODE
 70
     0
  9
$VISRETAIN
 70
     1
  9
$PLINEGEN
 70
     0
  9
$PSLTSCALE
 70
     1
  0
ENDSEC
  0
SECTION
  2
TABLES
  0
TABLE
  2
VPORT
 70
     1
  0
VPORT
  2
*ACTIVE
 70
     0
 10
0.0
 20
0.0
 11
1.0
 21
1.0
 12
104.9935921642389
 22
148.50000069150701
 13
0.0
 23
0.0
 14
10.0
 24
10.0
 15
10.0
 25
10.0
 16
0.0
 26
0.0
 36
1.0
 17
0.0
 27
0.0
 37
0.0
 40
296.76142072383908
 41
1.8858823529411759
 42
50.0
 43
0.0
 44
0.0
 50
0.0
 51
0.0
 71
     0
 72
   100
 73
     1
 74
     3
 75
     0
 76
     0
 77
     0
 78
     0
  0
ENDTAB
  0
TABLE
  2
LTYPE
 70
     2
  0
LTYPE
  2
CONTINUOUS
 70
     0
  3
Solid line
 72
    65
 73
     0
 40
0.0
  0
LTYPE
  2
ACAD_ISO04W100
 70
     0
  3
____ . ____ . ____ . ____ . ____ . ____ . ____ 
 72
    65
 73
     4
 40
30.5
 49
24.0
 49
-3.0
 49
0.5
 49
-3.0
  0
ENDTAB
  0
TABLE
  2
LAYER
 70
     3
  0
LAYER
  2
0
 70
     0
 62
     7
  6
CONTINUOUS
  0
LAYER
  2
DEFPOINTS
 70
     0
 62
     7
  6
CONTINUOUS
  0
LAYER
  2
PH_HILFSELEMENTE
 70
     0
 62
    -7
  6
CONTINUOUS
  0
ENDTAB
  0
TABLE
  2
STYLE
 70
     2
  0
STYLE
  2
STANDARD
 70
     0
 40
0.0
 41
1.1999999999999991
 50
0.0
 71
     0
 42
2.5
  3
isocp.shx
  4

  0
ENDTAB
  0
TABLE
  2
VIEW
 70
     0
  0
ENDTAB
  0
TABLE
  2
UCS
 70
     0
  0
ENDTAB
  0
TABLE
  2
APPID
 70
     4
  0
APPID
  2
ACAD
 70
     0
  0
APPID
  2
PHOENIX7010
 70
     0
  0
APPID
  2
ACAD_EXEMPT_FROM_CAD_STANDARDS
 70
     0
  0
APPID
  2
ACAD_MLEADERVER
 70
     0
  0
ENDTAB
  0
TABLE
  2
DIMSTYLE
 70
     4
  0
DIMSTYLE
  2
ISO-25
 70
     0
  3

  4

  5

  6

  7

 40
1.0
 41
2.5
 42
0.625
 43
3.75
 44
1.25
 45
0.0
 46
0.0
 47
0.0
 48
0.0
140
2.5
141
2.5
142
0.0
143
0.03937007874016
144
1.0
145
0.0
146
1.0
147
0.625
 71
     0
 72
     0
 73
     0
 74
     0
 75
     0
 76
     0
 77
     1
 78
     8
170
     0
171
     3
172
     1
173
     0
174
     0
175
     0
176
     0
177
     0
178
     0
  0
DIMSTYLE
  2
PHOENIX
 70
     0
  3

  4
"
  5
_OPEN15
  6

  7

 40
1.0
 41
3.7200000000000002
 42
0.0
 43
5.0
 44
1.5
 45
0.0
 46
0.0
 47
0.0
 48
0.0
140
2.5
141
0.0
142
0.0
143
0.0393700787401575
144
1.0
145
0.0
146
0.6666666666666666
147
0.4
 71
     0
 72
     0
 73
     0
 74
     0
 75
     0
 76
     0
 77
     1
 78
     8
170
     0
171
     2
172
     1
173
     0
174
     0
175
     0
176
     1
177
     1
178
     5
  0
DIMSTYLE
  2
PHOENIX$4
 70
     0
  3

  4
"
  5
_OPEN15
  6

  7

 40
1.0
 41
3.7200000000000002
 42
0.0
 43
2.0
 44
1.5
 45
0.0
 46
0.0
 47
0.0
 48
0.0
140
3.5
141
0.0
142
0.0
143
0.0393700787401575
144
1.0
145
0.0
146
0.6666666666666666
147
2.0
 71
     0
 72
     0
 73
     0
 74
     0
 75
     0
 76
     0
 77
     1
 78
     8
170
     0
171
     2
172
     0
173
     0
174
     0
175
     0
176
     1
177
     1
178
     5
  0
ENDTAB
  0
ENDSEC
  0
SECTION
  2
BLOCKS
  0
BLOCK
  8
0
  2
$MODEL_SPACE
 70
     0
 10
0.0
 20
0.0
 30
0.0
  3
$MODEL_SPACE
  1

  0
ENDBLK
  5
21
  8
0
  0
BLOCK
 67
     1
  8
0
  2
$PAPER_SPACE
 70
     0
 10
0.0
 20
0.0
 30
0.0
  3
$PAPER_SPACE
  1

  0
ENDBLK
  5
1D
 67
     1
  8
0
  0
BLOCK
  8
0
  2
_OPEN15
 70
     0
 10
1.0
 20
0.0
 30
0.0
  3
_OPEN15
  1

  0
LINE
  5
42
  8
0
  6
BYBLOCK
 62
     0
 10
0.0
 20
0.0
 30
0.0
 11
1.0
 21
0.0
 31
0.0
  0
LINE
  5
43
  8
0
  6
BYBLOCK
 62
     0
 10
1.0
 20
0.0
 30
0.0
 11
0.0
 21
0.1316524975873958
 31
0.0
  0
LINE
  5
44
  8
0
  6
BYBLOCK
 62
     0
 10
1.0
 20
0.0
 30
0.0
 11
0.0
 21
-0.1316524975873958
 31
0.0
  0
ENDBLK
  5
46
  8
0
  0
BLOCK
  8
0
 62
     7
  2
_OPEN30
 70
     0
 10
0.0
 20
0.0
 30
0.0
  3
_OPEN30
  1

  0
LINE
  5
5D
  8
0
  6
CONTINUOUS
 62
     0
 10
-1.0
 20
0.26794919
 30
0.0
 11
0.0
 21
0.0
 31
0.0
  0
LINE
  5
5E
  8
0
  6
CONTINUOUS
 62
     0
 10
0.0
 20
0.0
 30
0.0
 11
-1.0
 21
-0.26794919
 31
0.0
  0
LINE
  5
5F
  8
0
  6
CONTINUOUS
 62
     0
 10
0.0
 20
0.0
 30
0.0
 11
-1.0
 21
0.0
 31
0.0
  0
ENDBLK
  5
61
  8
0
 62
     7
  0
BLOCK
  8
0
 62
     7
  2
_OPEN90
 70
     0
 10
0.0
 20
0.0
 30
0.0
  3
_OPEN90
  1

  0
LINE
  5
63
  8
0
  6
CONTINUOUS
 62
     0
 10
-0.5
 20
0.5
 30
0.0
 11
0.0
 21
0.0
 31
0.0
  0
LINE
  5
64
  8
0
  6
CONTINUOUS
 62
     0
 10
0.0
 20
0.0
 30
0.0
 11
-0.5
 21
-0.5
 31
0.0
  0
LINE
  5
65
  8
0
  6
CONTINUOUS
 62
     0
 10
0.0
 20
0.0
 30
0.0
 11
-1.0
 21
0.0
 31
0.0
  0
ENDBLK
  5
67
  8
0
 62
     7
  0
BLOCK
  8
0
 62
     7
  2
PH_GRPBLK
 70
     0
 10
0.0
 20
0.0
 30
0.0
  3
PH_GRPBLK
  1

  0
POINT
  5
38AD
  8
DEFPOINTS
  6
CONTINUOUS
 62
     0
 10
0.0
 20
0.0
 30
0.0
1001
PHOENIX7010
1002
{
1002
}
  0
ENDBLK
  5
38AF
  8
0
 62
     7
  0
BLOCK
  8
0
 62
     7
  2
*D5
 70
     1
 10
0.0
 20
0.0
 30
0.0
  3
*D5
  1

  0
LINE
  5
D143
  8
0
  6
CONTINUOUS
 62
     1
 10
78.250000000000909
 20
247.7417025571294
 30
0.0
 11
78.250000000000909
 21
258.0
 31
0.0
  0
LINE
  5
D144
  8
0
  6
CONTINUOUS
 62
     1
 10
79.350000000000819
 20
247.9999999999996
 30
0.0
 11
79.350000000000819
 21
258.0
 31
0.0
  0
LINE
  5
D145
  8
0
  6
CONTINUOUS
 62
     1
 10
74.530000000000911
 20
256.5
 30
0.0
 11
70.810000000000912
 21
256.5
 31
0.0
  0
LINE
  5
D146
  8
0
  6
CONTINUOUS
 62
     1
 10
83.070000000000817
 20
256.5
 30
0.0
 11
90.590000000000799
 21
256.5
 31
0.0
  0
LINE
  5
D147
  8
0
  6
CONTINUOUS
 62
     1
 10
78.250000000000909
 20
256.5
 30
0.0
 11
79.350000000000819
 21
256.5
 31
0.0
  0
INSERT
  5
D148
  8
0
  6
CONTINUOUS
 62
     1
  2
_OPEN15
 10
78.250000000000909
 20
256.5
 30
0.0
 41
3.7200000000000002
 42
3.7200000000000002
 43
3.7200000000000002
  0
INSERT
  5
D149
  8
0
  6
CONTINUOUS
 62
     1
  2
_OPEN15
 10
79.350000000000819
 20
256.5
 30
0.0
 41
3.7200000000000002
 42
3.7200000000000002
 43
3.7200000000000002
 50
180.0
  0
INSERT
  5
D14A
  8
0
  6
CONTINUOUS
 62
     1
  2
*U31
 10
0.0
 20
0.0
 30
0.0
  0
POINT
  5
D14B
  8
DEFPOINTS
  6
CONTINUOUS
 62
     0
 10
78.250000000000909
 20
247.7417025571294
 30
0.0
  0
POINT
  5
D14C
  8
DEFPOINTS
  6
CONTINUOUS
 62
     0
 10
79.350000000000819
 20
247.9999999999996
 30
0.0
  0
POINT
  5
D14D
  8
DEFPOINTS
  6
CONTINUOUS
 62
     0
 10
79.350000000000819
 20
256.5
 30
0.0
  0
ENDBLK
  5
537D
  8
0
 62
     7
  0
BLOCK
  8
0
 62
     7
  2
*D6
 70
     1
 10
0.0
 20
0.0
 30
0.0
  3
*D6
  1

  0
LINE
  5
7097
  8
0
  6
CONTINUOUS
 62
     1
 10
79.350000000000819
 20
247.9999999999996
 30
0.0
 11
79.350000000000819
 21
263.0
 31
0.0
  0
LINE
  5
7098
  8
0
  6
CONTINUOUS
 62
     1
 10
46.350000000000023
 20
223.7000000000001
 30
0.0
 11
46.350000000000023
 21
263.0
 31
0.0
  0
LINE
  5
7099
  8
0
  6
CONTINUOUS
 62
     1
 10
75.63000000000082
 20
261.5
 30
0.0
 11
50.070000000000022
 21
261.5
 31
0.0
  0
INSERT
  5
709A
  8
0
  6
CONTINUOUS
 62
     1
  2
_OPEN15
 10
79.350000000000819
 20
261.5
 30
0.0
 41
3.7200000000000002
 42
3.7200000000000002
 43
3.7200000000000002
  0
INSERT
  5
709B
  8
0
  6
CONTINUOUS
 62
     1
  2
_OPEN15
 10
46.350000000000023
 20
261.5
 30
0.0
 41
3.7200000000000002
 42
3.7200000000000002
 43
3.7200000000000002
 50
180.0
  0
INSERT
  5
709C
  8
0
  6
CONTINUOUS
 62
     1
  2
*U21
 10
0.0
 20
0.0
 30
0.0
  0
POINT
  5
709D
  8
DEFPOINTS
  6
CONTINUOUS
 62
     0
 10
79.350000000000819
 20
247.9999999999996
 30
0.0
  0
POINT
  5
709E
  8
DEFPOINTS
  6
CONTINUOUS
 62
     0
 10
46.350000000000023
 20
223.7000000000001
 30
0.0
  0
POINT
  5
709F
  8
DEFPOINTS
  6
CONTINUOUS
 62
     0
 10
46.350000000000023
 20
261.5
 30
0.0
  0
ENDBLK
  5
6496
  8
0
 62
     7
  0
BLOCK
  8
0
 62
     7
  2
*D7
 70
     1
 10
0.0
 20
0.0
 30
0.0
  3
*D7
  1

  0
LINE
  5
D14E
  8
0
  6
CONTINUOUS
 62
     1
 10
73.563835714720881
 20
244.1999999999999
 30
0.0
 11
91.750000000001279
 21
244.1999999999999
 31
0.0
  0
LINE
  5
D14F
  8
0
  6
CONTINUOUS
 62
     1
 10
73.563835714720881
 20
179.79999999999981
 30
0.0
 11
91.750000000001265
 21
179.79999999999981
 31
0.0
  0
LINE
  5
D150
  8
0
  6
CONTINUOUS
 62
     1
 10
90.250000000001279
 20
240.4799999999999
 30
0.0
 11
90.250000000001265
 21
183.51999999999981
 31
0.0
  0
INSERT
  5
D151
  8
0
  6
CONTINUOUS
 62
     1
  2
_OPEN15
 10
90.250000000001279
 20
244.1999999999999
 30
0.0
 41
3.7200000000000002
 42
3.7200000000000002
 43
3.7200000000000002
 50
90.0
  0
INSERT
  5
D152
  8
0
  6
CONTINUOUS
 62
     1
  2
_OPEN15
 10
90.250000000001265
 20
179.79999999999981
 30
0.0
 41
3.7200000000000002
 42
3.7200000000000002
 43
3.7200000000000002
 50
270.0
  0
INSERT
  5
D153
  8
0
  6
CONTINUOUS
 62
     1
  2
*U32
 10
0.0
 20
0.0
 30
0.0
  0
POINT
  5
D154
  8
DEFPOINTS
  6
CONTINUOUS
 62
     0
 10
73.563835714720881
 20
244.1999999999999
 30
0.0
  0
POINT
  5
D155
  8
DEFPOINTS
  6
CONTINUOUS
 62
     0
 10
73.563835714720881
 20
179.79999999999981
 30
0.0
  0
POINT
  5
D156
  8
DEFPOINTS
  6
CONTINUOUS
 62
     0
 10
90.250000000001265
 20
179.79999999999981
 30
0.0
  0
ENDBLK
  5
70B1
  8
0
 62
     7
  0
BLOCK
  8
0
 62
     7
  2
*D8
 70
     1
 10
0.0
 20
0.0
 30
0.0
  3
*D8
  1

  0
LINE
  5
D13A
  8
0
  6
CONTINUOUS
 62
     1
 10
78.850000000000819
 20
246.49999999999989
 30
0.0
 11
96.750000000001137
 21
246.49999999999989
 31
0.0
  0
LINE
  5
D13B
  8
0
  6
CONTINUOUS
 62
     1
 10
78.850000000000819
 20
177.49999999999989
 30
0.0
 11
96.750000000001123
 21
177.49999999999989
 31
0.0
  0
LINE
  5
D13C
  8
0
  6
CONTINUOUS
 62
     1
 10
95.250000000001137
 20
242.77999999999989
 30
0.0
 11
95.250000000001123
 21
181.21999999999991
 31
0.0
  0
INSERT
  5
D13D
  8
0
  6
CONTINUOUS
 62
     1
  2
_OPEN15
 10
95.250000000001137
 20
246.49999999999989
 30
0.0
 41
3.7200000000000002
 42
3.7200000000000002
 43
3.7200000000000002
 50
90.0
  0
INSERT
  5
D13E
  8
0
  6
CONTINUOUS
 62
     1
  2
_OPEN15
 10
95.250000000001123
 20
177.49999999999989
 30
0.0
 41
3.7200000000000002
 42
3.7200000000000002
 43
3.7200000000000002
 50
270.0
  0
INSERT
  5
D13F
  8
0
  6
CONTINUOUS
 62
     1
  2
*U30
 10
0.0
 20
0.0
 30
0.0
  0
POINT
  5
D140
  8
DEFPOINTS
  6
CONTINUOUS
 62
     0
 10
78.850000000000819
 20
246.49999999999989
 30
0.0
  0
POINT
  5
D141
  8
DEFPOINTS
  6
CONTINUOUS
 62
     0
 10
78.850000000000819
 20
177.49999999999989
 30
0.0
  0
POINT
  5
D142
  8
DEFPOINTS
  6
CONTINUOUS
 62
     0
 10
95.250000000001123
 20
177.49999999999989
 30
0.0
  0
ENDBLK
  5
7922
  8
0
 62
     7
  0
BLOCK
  8
0
 62
     7
  2
*D9
 70
     1
 10
0.0
 20
0.0
 30
0.0
  3
*D9
  1

  0
LINE
  5
D0DC
  8
0
  6
CONTINUOUS
 62
     1
 10
78.250000000000909
 20
249.4999999999998
 30
0.0
 11
101.75000000000119
 21
249.4999999999998
 31
0.0
  0
LINE
  5
D0DD
  8
0
  6
CONTINUOUS
 62
     1
 10
78.350000000000819
 20
174.49999999999989
 30
0.0
 11
101.75000000000109
 21
174.49999999999989
 31
0.0
  0
LINE
  5
D0DE
  8
0
  6
CONTINUOUS
 62
     1
 10
100.25000000000109
 20
245.7799999999998
 30
0.0
 11
100.25000000000109
 21
178.21999999999991
 31
0.0
  0
INSERT
  5
D0DF
  8
0
  6
CONTINUOUS
 62
     1
  2
_OPEN15
 10
100.25000000000109
 20
249.4999999999998
 30
0.0
 41
3.7200000000000002
 42
3.7200000000000002
 43
3.7200000000000002
 50
90.0
  0
INSERT
  5
D0E0
  8
0
  6
CONTINUOUS
 62
     1
  2
_OPEN15
 10
100.25000000000109
 20
174.49999999999989
 30
0.0
 41
3.7200000000000002
 42
3.7200000000000002
 43
3.7200000000000002
 50
270.0
  0
INSERT
  5
D0E1
  8
0
  6
CONTINUOUS
 62
     1
  2
*U26
 10
0.0
 20
0.0
 30
0.0
  0
POINT
  5
D0E2
  8
DEFPOINTS
  6
CONTINUOUS
 62
     0
 10
78.250000000000909
 20
249.4999999999998
 30
0.0
  0
POINT
  5
D0E3
  8
DEFPOINTS
  6
CONTINUOUS
 62
     0
 10
78.350000000000819
 20
174.49999999999989
 30
0.0
  0
POINT
  5
D0E4
  8
DEFPOINTS
  6
CONTINUOUS
 62
     0
 10
100.25000000000109
 20
174.49999999999989
 30
0.0
  0
ENDBLK
  5
85C4
  8
0
 62
     7
  0
BLOCK
  8
0
 62
     7
  2
*D10
 70
     1
 10
0.0
 20
0.0
 30
0.0
  3
*D10
  1

  0
LINE
  5
D0D3
  8
0
  6
CONTINUOUS
 62
     1
 10
56.850000000000122
 20
222.49999999999989
 30
0.0
 11
56.850000000000122
 21
227.7631014902266
 31
0.0
  0
LINE
  5
D0D4
  8
0
  6
CONTINUOUS
 62
     1
 10
76.250000000001137
 20
222.49999999999989
 30
0.0
 11
76.250000000001137
 21
227.7631014902266
 31
0.0
  0
LINE
  5
D0D5
  8
0
  6
CONTINUOUS
 62
     1
 10
60.570000000000121
 20
226.2631014902266
 30
0.0
 11
72.530000000001124
 21
226.2631014902266
 31
0.0
  0
INSERT
  5
D0D6
  8
0
  6
CONTINUOUS
 62
     1
  2
_OPEN15
 10
56.850000000000122
 20
226.2631014902266
 30
0.0
 41
3.7200000000000002
 42
3.7200000000000002
 43
3.7200000000000002
 50
180.0
  0
INSERT
  5
D0D7
  8
0
  6
CONTINUOUS
 62
     1
  2
_OPEN15
 10
76.250000000001137
 20
226.2631014902266
 30
0.0
 41
3.7200000000000002
 42
3.7200000000000002
 43
3.7200000000000002
  0
INSERT
  5
D0D8
  8
0
  6
CONTINUOUS
 62
     1
  2
*U25
 10
0.0
 20
0.0
 30
0.0
  0
POINT
  5
D0D9
  8
DEFPOINTS
  6
CONTINUOUS
 62
     0
 10
56.850000000000122
 20
222.49999999999989
 30
0.0
  0
POINT
  5
D0DA
  8
DEFPOINTS
  6
CONTINUOUS
 62
     0
 10
76.250000000001137
 20
222.49999999999989
 30
0.0
  0
POINT
  5
D0DB
  8
DEFPOINTS
  6
CONTINUOUS
 62
     0
 10
76.250000000001137
 20
226.2631014902266
 30
0.0
  0
ENDBLK
  5
8B9F
  8
0
 62
     7
  0
BLOCK
  8
0
 62
     7
  2
*D11
 70
     1
 10
0.0
 20
0.0
 30
0.0
  3
*D11
  1

  0
LINE
  5
957B
  8
0
  6
CONTINUOUS
 62
     1
 10
76.250000000001137
 20
231.03945092557879
 30
0.0
 11
76.250000000001137
 21
229.20614509280409
 31
0.0
  0
LINE
  5
957C
  8
0
  6
CONTINUOUS
 62
     1
 10
78.250000000000909
 20
230.77113980865229
 30
0.0
 11
78.250000000000909
 21
229.20614509280409
 31
0.0
  0
LINE
  5
957D
  8
0
  6
CONTINUOUS
 62
     1
 10
81.970000000000908
 20
230.70614509280421
 30
0.0
 11
85.690000000000907
 21
230.70614509280421
 31
0.0
  0
LINE
  5
957E
  8
0
  6
CONTINUOUS
 62
     1
 10
72.530000000001124
 20
230.70614509280421
 30
0.0
 11
66.553641732284603
 21
230.70614509280421
 31
0.0
  0
LINE
  5
957F
  8
0
  6
CONTINUOUS
 62
     1
 10
78.250000000000909
 20
230.70614509280421
 30
0.0
 11
76.250000000001137
 21
230.70614509280421
 31
0.0
  0
INSERT
  5
9580
  8
0
  6
CONTINUOUS
 62
     1
  2
_OPEN15
 10
78.250000000000909
 20
230.70614509280421
 30
0.0
 41
3.7200000000000002
 42
3.7200000000000002
 43
3.7200000000000002
 50
180.0
  0
INSERT
  5
9581
  8
0
  6
CONTINUOUS
 62
     1
  2
_OPEN15
 10
76.250000000001137
 20
230.70614509280421
 30
0.0
 41
3.7200000000000002
 42
3.7200000000000002
 43
3.7200000000000002
  0
INSERT
  5
9582
  8
0
  6
CONTINUOUS
 62
     1
  2
*U22
 10
0.0
 20
0.0
 30
0.0
  0
POINT
  5
9583
  8
DEFPOINTS
  6
CONTINUOUS
 62
     0
 10
76.250000000001137
 20
231.03945092557879
 30
0.0
  0
POINT
  5
9584
  8
DEFPOINTS
  6
CONTINUOUS
 62
     0
 10
78.250000000000909
 20
230.77113980865229
 30
0.0
  0
POINT
  5
9585
  8
DEFPOINTS
  6
CONTINUOUS
 62
     0
 10
78.250000000000909
 20
230.70614509280421
 30
0.0
  0
ENDBLK
  5
91C8
  8
0
 62
     7
  0
BLOCK
  8
0
 62
     7
  2
*D12
 70
     1
 10
0.0
 20
0.0
 30
0.0
  3
*D12
  1

  0
LINE
  5
DEDF
  8
0
  6
CONTINUOUS
 62
     1
 10
63.350000000000811
 20
177.4999999999996
 30
0.0
 11
63.350000000000811
 21
187.79687161468601
 31
0.0
  0
LINE
  5
DEE0
  8
0
  6
CONTINUOUS
 62
     1
 10
65.550000000000864
 20
177.4999999999996
 30
0.0
 11
65.550000000000864
 21
187.79687161468601
 31
0.0
  0
LINE
  5
DEE1
  8
0
  6
CONTINUOUS
 62
     1
 10
59.630000000000813
 20
186.2968716146859
 30
0.0
 11
55.910000000000807
 21
186.2968716146859
 31
0.0
  0
LINE
  5
DEE2
  8
0
  6
CONTINUOUS
 62
     1
 10
69.270000000000863
 20
186.2968716146859
 30
0.0
 11
72.990000000000862
 21
186.2968716146859
 31
0.0
  0
TEXT
  8
0
  40
2.5
  5
E025
  62
5
  72
0
  71
0
 10
65.4538
 20
184.035
 30
0.000000
  1
2.2
  0
LINE
  5
DEE4
  8
0
  6
CONTINUOUS
 62
     1
 10
63.350000000000811
 20
186.2968716146859
 30
0.0
 11
65.550000000000864
 21
186.2968716146859
 31
0.0
  0
INSERT
  5
DEE5
  8
0
  6
CONTINUOUS
 62
     1
  2
_OPEN15
 10
63.350000000000811
 20
186.2968716146859
 30
0.0
 41
3.7200000000000002
 42
3.7200000000000002
 43
3.7200000000000002
  0
INSERT
  5
DEE6
  8
0
  6
CONTINUOUS
 62
     1
  2
_OPEN15
 10
65.550000000000864
 20
186.2968716146859
 30
0.0
 41
3.7200000000000002
 42
3.7200000000000002
 43
3.7200000000000002
 50
180.0
  0
POINT
  5
DEE7
  8
DEFPOINTS
  6
CONTINUOUS
 62
     0
 10
63.350000000000811
 20
177.4999999999996
 30
0.0
  0
POINT
  5
DEE8
  8
DEFPOINTS
  6
CONTINUOUS
 62
     0
 10
65.550000000000864
 20
177.4999999999996
 30
0.0
  0
POINT
  5
DEE9
  8
DEFPOINTS
  6
CONTINUOUS
 62
     0
 10
65.550000000000864
 20
186.2968716146859
 30
0.0
  0
ENDBLK
  5
9595
  8
0
 62
     7
  0
BLOCK
  8
0
 62
     7
  2
*D13
 70
     1
 10
0.0
 20
0.0
 30
0.0
  3
*D13
  1

  0
LINE
  5
D0E5
  8
0
  6
CONTINUOUS
 62
     1
 10
68.750000000000682
 20
175.99999999999989
 30
0.0
 11
68.750000000000682
 21
166.0
 31
0.0
  0
LINE
  5
D0E6
  8
0
  6
CONTINUOUS
 62
     1
 10
78.250000000000909
 20
176.09999999999999
 30
0.0
 11
78.250000000000909
 21
166.0
 31
0.0
  0
LINE
  5
D0E7
  8
0
  6
CONTINUOUS
 62
     1
 10
72.470000000000681
 20
167.5
 30
0.0
 11
74.530000000000911
 21
167.5
 31
0.0
  0
INSERT
  5
D0E8
  8
0
  6
CONTINUOUS
 62
     1
  2
_OPEN15
 10
68.750000000000682
 20
167.5
 30
0.0
 41
3.7200000000000002
 42
3.7200000000000002
 43
3.7200000000000002
 50
180.0
  0
INSERT
  5
D0E9
  8
0
  6
CONTINUOUS
 62
     1
  2
_OPEN15
 10
78.250000000000909
 20
167.5
 30
0.0
 41
3.7200000000000002
 42
3.7200000000000002
 43
3.7200000000000002
  0
INSERT
  5
D0EA
  8
0
  6
CONTINUOUS
 62
     1
  2
*U27
 10
0.0
 20
0.0
 30
0.0
  0
POINT
  5
D0EB
  8
DEFPOINTS
  6
CONTINUOUS
 62
     0
 10
68.750000000000682
 20
175.99999999999989
 30
0.0
  0
POINT
  5
D0EC
  8
DEFPOINTS
  6
CONTINUOUS
 62
     0
 10
78.250000000000909
 20
176.09999999999999
 30
0.0
  0
POINT
  5
D0ED
  8
DEFPOINTS
  6
CONTINUOUS
 62
     0
 10
78.250000000000909
 20
167.5
 30
0.0
  0
ENDBLK
  5
9D17
  8
0
 62
     7
  0
BLOCK
  8
0
 62
     7
  2
*D14
 70
     1
 10
0.0
 20
0.0
 30
0.0
  3
*D14
  1

  0
LINE
  5
D104
  8
0
  6
CONTINUOUS
 62
     1
 10
65.550000000000864
 20
175.9999999999996
 30
0.0
 11
65.550000000000864
 21
161.0
 31
0.0
  0
LINE
  5
D105
  8
0
  6
CONTINUOUS
 62
     1
 10
78.250000000000909
 20
176.09999999999999
 30
0.0
 11
78.250000000000909
 21
161.0
 31
0.0
  0
LINE
  5
D106
  8
0
  6
CONTINUOUS
 62
     1
 10
69.270000000000863
 20
162.5
 30
0.0
 11
74.530000000000911
 21
162.5
 31
0.0
  0
INSERT
  5
D107
  8
0
  6
CONTINUOUS
 62
     1
  2
_OPEN15
 10
65.550000000000864
 20
162.5
 30
0.0
 41
3.7200000000000002
 42
3.7200000000000002
 43
3.7200000000000002
 50
180.0
  0
INSERT
  5
D108
  8
0
  6
CONTINUOUS
 62
     1
  2
_OPEN15
 10
78.250000000000909
 20
162.5
 30
0.0
 41
3.7200000000000002
 42
3.7200000000000002
 43
3.7200000000000002
  0
INSERT
  5
D109
  8
0
  6
CONTINUOUS
 62
     1
  2
*U28
 10
0.0
 20
0.0
 30
0.0
  0
POINT
  5
D10A
  8
DEFPOINTS
  6
CONTINUOUS
 62
     0
 10
65.550000000000864
 20
175.9999999999996
 30
0.0
  0
POINT
  5
D10B
  8
DEFPOINTS
  6
CONTINUOUS
 62
     0
 10
78.250000000000909
 20
176.09999999999999
 30
0.0
  0
POINT
  5
D10C
  8
DEFPOINTS
  6
CONTINUOUS
 62
     0
 10
78.250000000000909
 20
162.5
 30
0.0
  0
ENDBLK
  5
A82C
  8
0
 62
     7
  0
BLOCK
  8
0
 62
     7
  2
*D15
 70
     1
 10
0.0
 20
0.0
 30
0.0
  3
*D15
  1

  0
LINE
  5
D116
  8
0
  6
CONTINUOUS
 62
     1
 10
62.350000000000811
 20
175.9999999999996
 30
0.0
 11
62.350000000000811
 21
156.0
 31
0.0
  0
LINE
  5
D117
  8
0
  6
CONTINUOUS
 62
     1
 10
78.250000000000909
 20
176.09999999999999
 30
0.0
 11
78.250000000000909
 21
156.0
 31
0.0
  0
LINE
  5
D118
  8
0
  6
CONTINUOUS
 62
     1
 10
66.070000000000803
 20
157.5
 30
0.0
 11
74.530000000000911
 21
157.5
 31
0.0
  0
INSERT
  5
D119
  8
0
  6
CONTINUOUS
 62
     1
  2
_OPEN15
 10
62.350000000000811
 20
157.5
 30
0.0
 41
3.7200000000000002
 42
3.7200000000000002
 43
3.7200000000000002
 50
180.0
  0
INSERT
  5
D11A
  8
0
  6
CONTINUOUS
 62
     1
  2
_OPEN15
 10
78.250000000000909
 20
157.5
 30
0.0
 41
3.7200000000000002
 42
3.7200000000000002
 43
3.7200000000000002
  0
INSERT
  5
D11B
  8
0
  6
CONTINUOUS
 62
     1
  2
*U29
 10
0.0
 20
0.0
 30
0.0
  0
POINT
  5
D11C
  8
DEFPOINTS
  6
CONTINUOUS
 62
     0
 10
62.350000000000811
 20
175.9999999999996
 30
0.0
  0
POINT
  5
D11D
  8
DEFPOINTS
  6
CONTINUOUS
 62
     0
 10
78.250000000000909
 20
176.09999999999999
 30
0.0
  0
POINT
  5
D11E
  8
DEFPOINTS
  6
CONTINUOUS
 62
     0
 10
78.250000000000909
 20
157.5
 30
0.0
  0
ENDBLK
  5
B0FF
  8
0
 62
     7
  0
BLOCK
  8
0
 62
     7
  2
*D16
 70
     1
 10
0.0
 20
0.0
 30
0.0
  3
*D16
  1

  0
LINE
  5
C98F
  8
0
  6
CONTINUOUS
 62
     1
 10
53.850000000000023
 20
195.8000000000003
 30
0.0
 11
53.850000000000023
 21
151.0
 31
0.0
  0
LINE
  5
C990
  8
0
  6
CONTINUOUS
 62
     1
 10
78.250000000000909
 20
176.19990081102571
 30
0.0
 11
78.250000000000909
 21
151.0
 31
0.0
  0
LINE
  5
C991
  8
0
  6
CONTINUOUS
 62
     1
 10
57.570000000000022
 20
152.5
 30
0.0
 11
74.530000000000911
 21
152.5
 31
0.0
  0
INSERT
  5
C992
  8
0
  6
CONTINUOUS
 62
     1
  2
_OPEN15
 10
53.850000000000023
 20
152.5
 30
0.0
 41
3.7200000000000002
 42
3.7200000000000002
 43
3.7200000000000002
 50
180.0
  0
INSERT
  5
C993
  8
0
  6
CONTINUOUS
 62
     1
  2
_OPEN15
 10
78.250000000000909
 20
152.5
 30
0.0
 41
3.7200000000000002
 42
3.7200000000000002
 43
3.7200000000000002
  0
INSERT
  5
C994
  8
0
  6
CONTINUOUS
 62
     1
  2
*U23
 10
0.0
 20
0.0
 30
0.0
  0
POINT
  5
C995
  8
DEFPOINTS
  6
CONTINUOUS
 62
     0
 10
53.850000000000023
 20
195.8000000000003
 30
0.0
  0
POINT
  5
C996
  8
DEFPOINTS
  6
CONTINUOUS
 62
     0
 10
78.250000000000909
 20
176.19990081102571
 30
0.0
  0
POINT
  5
C997
  8
DEFPOINTS
  6
CONTINUOUS
 62
     0
 10
78.250000000000909
 20
152.5
 30
0.0
  0
ENDBLK
  5
C17B
  8
0
 62
     7
  0
BLOCK
  8
0
 62
     7
  2
*D17
 70
     1
 10
0.0
 20
0.0
 30
0.0
  3
*D17
  1

  0
LINE
  5
DA9F
  8
0
  6
CONTINUOUS
 62
     1
 10
57.150000000000077
 20
247.9999999999998
 30
0.0
 11
37.84999999999993
 21
247.9999999999998
 31
0.0
  0
LINE
  5
DAA0
  8
0
  6
CONTINUOUS
 62
     1
 10
57.150000000000077
 20
175.9999999999998
 30
0.0
 11
37.849999999999902
 21
175.9999999999998
 31
0.0
  0
LINE
  5
DAA1
  8
0
  6
CONTINUOUS
 62
     1
 10
39.34999999999993
 20
244.2799999999998
 30
0.0
 11
39.349999999999909
 21
179.7199999999998
 31
0.0
  0
INSERT
  5
DAA2
  8
0
  6
CONTINUOUS
 62
     1
  2
_OPEN15
 10
39.34999999999993
 20
247.9999999999998
 30
0.0
 41
3.7200000000000002
 42
3.7200000000000002
 43
3.7200000000000002
 50
90.0
  0
INSERT
  5
DAA3
  8
0
  6
CONTINUOUS
 62
     1
  2
_OPEN15
 10
39.349999999999902
 20
175.9999999999998
 30
0.0
 41
3.7200000000000002
 42
3.7200000000000002
 43
3.7200000000000002
 50
270.0
  0
INSERT
  5
DAA4
  8
0
  6
CONTINUOUS
 62
     1
  2
*U33
 10
0.0
 20
0.0
 30
0.0
  0
POINT
  5
DAA5
  8
DEFPOINTS
  6
CONTINUOUS
 62
     0
 10
57.150000000000077
 20
247.9999999999998
 30
0.0
  0
POINT
  5
DAA6
  8
DEFPOINTS
  6
CONTINUOUS
 62
     0
 10
57.150000000000077
 20
175.9999999999998
 30
0.0
  0
POINT
  5
DAA7
  8
DEFPOINTS
  6
CONTINUOUS
 62
     0
 10
39.349999999999902
 20
175.9999999999998
 30
0.0
  0
ENDBLK
  5
D2C2
  8
0
 62
     7
  0
BLOCK
  8
0
 62
     1
  2
*U18
 70
     1
 10
0.0
 20
0.0
 30
0.0
  3
*U18
  1

  0
TEXT
  5
DEA4
  8
0
  6
CONTINUOUS
 62
     5
 10
124.45066712050181
 20
234.56082242298879
 30
0.0
 40
2.5
  1
Modell/
 41
1.1999999999999991
  0
TEXT
  5
DEA5
  8
0
  6
CONTINUOUS
 62
     5
 10
137.95066712050181
 20
234.56082242298879
 30
0.0
 40
2.5
  1
model
 41
1.1999999999999991
 51
20.0
  0
TEXT
  5
DEA6
  8
0
  6
CONTINUOUS
 62
     5
 10
124.45066712050181
 20
230.38971401808061
 30
0.0
 40
2.5
  1
ARPG 75/31-52.5
 41
1.1999999999999991
  0
TEXT
  5
DEA7
  8
0
  6
CONTINUOUS
 62
     5
 10
124.45066712050181
 20
226.21860561317229
 30
0.0
 40
2.5
  1
ARPG 75/31-70
 41
1.1999999999999991
  0
TEXT
  5
DEA8
  8
0
  6
CONTINUOUS
 62
     5
 10
124.45066712050181
 20
222.0474972082641
 30
0.0
 40
2.5
  1
ARPG 75/31-105
 41
1.1999999999999991
  0
TEXT
  5
DEA9
  8
0
  6
CONTINUOUS
 62
     5
 10
124.45066712050181
 20
217.87638880335581
 30
0.0
 40
2.5
  1
ARPG 75/31-140
 41
1.1999999999999991
  0
TEXT
  5
DEAA
  8
0
  6
CONTINUOUS
 62
     5
 10
124.45066712050181
 20
213.7052803984476
 30
0.0
 40
2.5
  1
ARPG 75/31-175
 41
1.1999999999999991
  0
TEXT
  5
DEAB
  8
0
  6
CONTINUOUS
 62
     5
 10
124.45066712050181
 20
209.5341719935393
 30
0.0
 40
2.5
  1
ARPG 75/31-210
 41
1.1999999999999991
  0
TEXT
  5
DEAC
  8
0
  6
CONTINUOUS
 62
     5
 10
124.45066712050181
 20
205.36306358863101
 30
0.0
 40
2.5
  1
ARPG 75/31-245
 41
1.1999999999999991
  0
TEXT
  5
DEAD
  8
0
  6
CONTINUOUS
 62
     5
 10
124.45066712050181
 20
201.19195518372271
 30
0.0
 40
2.5
  1
ARPG 75/31-1000
 41
1.1999999999999991
  0
ENDBLK
  5
DEAF
  8
0
 62
     1
  0
BLOCK
  8
0
 62
     1
  2
*U19
 70
     1
 10
0.0
 20
0.0
 30
0.0
  3
*U19
  1

  0
TEXT
  5
DEB1
  8
0
  6
CONTINUOUS
 62
     5
 10
158.48740805350741
 20
242.739797328788
 30
0.0
 40
2.5
  1
LG=Grundprofillдnge/
 41
1.1999999999999991
  0
TEXT
  5
DEB2
  8
0
  6
CONTINUOUS
 62
     5
 10
158.44191177422411
 20
238.56868892387979
 30
0.0
 40
2.5
  1
LG=basic prifile
 41
1.1999999999999991
 51
20.0
  0
TEXT
  5
DEB3
  8
0
  6
CONTINUOUS
 62
     5
 10
158.9374080535074
 20
234.4020222572131
 30
0.0
 40
2.5
  1
     length
 41
1.1999999999999991
 51
20.0
  0
TEXT
  5
DEB4
  8
0
  6
CONTINUOUS
 62
     5
 10
158.9374080535074
 20
230.23486346456221
 30
0.0
 40
2.5
  1
            42.5
 41
1.1999999999999991
  0
TEXT
  5
DEB5
  8
0
  6
CONTINUOUS
 62
     5
 10
158.9374080535074
 20
226.0681967978955
 30
0.0
 40
2.5
  1
            60.0
 41
1.1999999999999991
  0
TEXT
  5
DEB6
  8
0
  6
CONTINUOUS
 62
     5
 10
158.9374080535074
 20
221.9015301312289
 30
0.0
 40
2.5
  1
            95.0
 41
1.1999999999999991
  0
TEXT
  5
DEB7
  8
0
  6
CONTINUOUS
 62
     5
 10
158.9374080535074
 20
217.73486346456221
 30
0.0
 40
2.5
  1
           130.0
 41
1.1999999999999991
  0
TEXT
  5
DEB8
  8
0
  6
CONTINUOUS
 62
     5
 10
158.9374080535074
 20
213.56819679789561
 30
0.0
 40
2.5
  1
           165.0
 41
1.1999999999999991
  0
TEXT
  5
DEB9
  8
0
  6
CONTINUOUS
 62
     5
 10
158.9374080535074
 20
209.4010380052446
 30
0.0
 40
2.5
  1
           200.0
 41
1.1999999999999991
  0
TEXT
  5
DEBA
  8
0
  6
CONTINUOUS
 62
     5
 10
158.9374080535074
 20
205.23387921259371
 30
0.0
 40
2.5
  1
           235.0
 41
1.1999999999999991
  0
TEXT
  5
DEBB
  8
0
  6
CONTINUOUS
 62
     5
 10
158.9374080535074
 20
201.06721254592699
 30
0.0
 40
2.5
  1
           990.0
 41
1.1999999999999991
  0
ENDBLK
  5
DEBD
  8
0
 62
     1
  0
BLOCK
  8
0
 62
     1
  2
*X20
 70
     1
 10
0.0
 20
0.0
 30
0.0
  3
*X20
  1

  0
LINE
  5
DEBF
  8
0
  6
CONTINUOUS
 62
     0
 10
76.250000000001137
 20
177.859451563221
 30
0.0
 11
78.250000000000895
 21
179.8594515632208
 31
0.0
  0
LINE
  5
DEC0
  8
0
  6
CONTINUOUS
 62
     0
 10
76.250000000001137
 20
182.10209225034041
 30
0.0
 11
78.250000000000895
 21
184.10209225034009
 31
0.0
  0
LINE
  5
DEC1
  8
0
  6
CONTINUOUS
 62
     0
 10
76.250000000001137
 20
186.34473293745961
 30
0.0
 11
78.250000000000909
 21
188.34473293745941
 31
0.0
  0
LINE
  5
DEC2
  8
0
  6
CONTINUOUS
 62
     0
 10
76.250000000001137
 20
190.5873736245789
 30
0.0
 11
78.250000000000909
 21
192.5873736245787
 31
0.0
  0
LINE
  5
DEC3
  8
0
  6
CONTINUOUS
 62
     0
 10
76.250000000001137
 20
194.83001431169819
 30
0.0
 11
78.250000000000895
 21
196.83001431169791
 31
0.0
  0
LINE
  5
DEC4
  8
0
  6
CONTINUOUS
 62
     0
 10
76.250000000001137
 20
199.0726549988174
 30
0.0
 11
78.250000000000895
 21
201.07265499881731
 31
0.0
  0
LINE
  5
DEC5
  8
0
  6
CONTINUOUS
 62
     0
 10
76.250000000001137
 20
203.3152956859368
 30
0.0
 11
78.250000000000895
 21
205.31529568593649
 31
0.0
  0
LINE
  5
DEC6
  8
0
  6
CONTINUOUS
 62
     0
 10
76.250000000001137
 20
207.55793637305609
 30
0.0
 11
78.250000000000909
 21
209.55793637305581
 31
0.0
  0
LINE
  5
DEC7
  8
0
  6
CONTINUOUS
 62
     0
 10
76.250000000001137
 20
211.8005770601753
 30
0.0
 11
78.250000000000895
 21
213.8005770601751
 31
0.0
  0
LINE
  5
DEC8
  8
0
  6
CONTINUOUS
 62
     0
 10
76.250000000001137
 20
216.0432177472947
 30
0.0
 11
78.250000000000895
 21
218.04321774729439
 31
0.0
  0
LINE
  5
DEC9
  8
0
  6
CONTINUOUS
 62
     0
 10
76.250000000001137
 20
220.28585843441391
 30
0.0
 11
78.250000000000909
 21
222.28585843441371
 31
0.0
  0
LINE
  5
DECA
  8
0
  6
CONTINUOUS
 62
     0
 10
76.250000000001137
 20
224.5284991215332
 30
0.0
 11
78.250000000000909
 21
226.528499121533
 31
0.0
  0
LINE
  5
DECB
  8
0
  6
CONTINUOUS
 62
     0
 10
76.250000000001137
 20
228.77113980865249
 30
0.0
 11
78.250000000000909
 21
230.77113980865229
 31
0.0
  0
LINE
  5
DECC
  8
0
  6
CONTINUOUS
 62
     0
 10
76.250000000001137
 20
233.01378049577181
 30
0.0
 11
78.250000000000895
 21
235.0137804957715
 31
0.0
  0
LINE
  5
DECD
  8
0
  6
CONTINUOUS
 62
     0
 10
76.250000000001137
 20
237.2564211828911
 30
0.0
 11
78.250000000000895
 21
239.25642118289079
 31
0.0
  0
LINE
  5
DECE
  8
0
  6
CONTINUOUS
 62
     0
 10
76.250000000001137
 20
241.49906187001039
 30
0.0
 11
78.250000000000909
 21
243.49906187001011
 31
0.0
  0
LINE
  5
DECF
  8
0
  6
CONTINUOUS
 62
     0
 10
76.250000000001137
 20
245.74170255712971
 30
0.0
 11
78.250000000000909
 21
247.7417025571294
 31
0.0
  0
ENDBLK
  5
DED1
  8
0
 62
     1
  0
BLOCK
  8
0
 62
     1
  2
*U21
 70
     1
 10
0.0
 20
0.0
 30
0.0
  3
*U21
  1

  0
TEXT
  5
DED8
  8
0
  6
CONTINUOUS
 62
     5
 10
60.837867965644627
 20
261.89999999999998
 30
0.0
 40
2.5
  1
33
 41
1.1999999999999991
  0
ENDBLK
  5
DEDA
  8
0
 62
     1
  0
BLOCK
  8
0
 62
     1
  2
*U22
 70
     1
 10
0.0
 20
0.0
 30
0.0
  3
*U22
  1

  0
TEXT
  5
DEDC
  8
0
  6
CONTINUOUS
 62
     5
 10
66.579822834646819
 20
231.10639115579619
 30
0.0
 40
2.5
  1
2
 41
1.1999999999999991
  0
ENDBLK
  5
DEDE
  8
0
 62
     1
  0
BLOCK
  8
0
 62
     1
  2
*U23
 70
     1
 10
0.0
 20
0.0
 30
0.0
  3
*U23
  1

  0
TEXT
  5
DEEB
  8
0
  6
CONTINUOUS
 62
     5
 10
62.888090551181321
 20
152.9002460629921
 30
0.0
 40
2.5
  1
24.4
 41
1.1999999999999991
  0
ENDBLK
  5
DEED
  8
0
 62
     1
  0
BLOCK
  8
0
 62
     1
  2
*U24
 70
     1
 10
0.0
 20
0.0
 30
0.0
  3
*U24
  1

  0
TEXT
  5
DEEF
  8
0
  6
CONTINUOUS
 62
     5
 10
38.17546016773322
 20
281.9999121373915
 30
0.0
 40
2.5
  1
Grundprofil ARPG 75/31-... Teil1/
 41
1.1999999999999991
  0
TEXT
  5
DEF0
  8
0
  6
CONTINUOUS
 62
     5
 10
37.974633802560042
 20
277.8225537324833
 30
0.0
 40
2.5
  1
basic profile ARPG 75/31-... part1
 41
1.1999999999999991
 51
20.0
  0
ENDBLK
  5
DEF2
  8
0
 62
     1
  0
BLOCK
  8
0
 62
     1
  2
*U25
 70
     1
 10
0.0
 20
0.0
 30
0.0
  3
*U25
  1

  0
TEXT
  5
DEF4
  8
0
  6
CONTINUOUS
 62
     5
 10
63.373022148343061
 20
226.66310149022661
 30
0.0
 40
2.5
  1
19.4
 41
1.1999999999999991
  0
ENDBLK
  5
DEF6
  8
0
 62
     1
  0
BLOCK
  8
0
 62
     1
  2
*U26
 70
     1
 10
0.0
 20
0.0
 30
0.0
  3
*U26
  1

  0
TEXT
  5
DEF8
  8
0
  6
CONTINUOUS
 62
     5
 10
99.850000000001131
 20
209.83786796564411
 30
0.0
 40
2.5
  1
75
 50
90.0
 41
1.1999999999999991
  0
ENDBLK
  5
DEFA
  8
0
 62
     1
  0
BLOCK
  8
0
 62
     1
  2
*U27
 70
     1
 10
0.0
 20
0.0
 30
0.0
  3
*U27
  1

  0
TEXT
  5
DEFC
  8
0
  6
CONTINUOUS
 62
     5
 10
70.939517008517953
 20
167.90000000000001
 30
0.0
 40
2.5
  1
9.5
 41
1.1999999999999991
  0
ENDBLK
  5
DEFE
  8
0
 62
     1
  0
BLOCK
  8
0
 62
     1
  2
*U28
 70
     1
 10
0.0
 20
0.0
 30
0.0
  3
*U28
  1

  0
TEXT
  5
DF00
  8
0
  6
CONTINUOUS
 62
     5
 10
68.60000000000089
 20
162.9002460629921
 30
0.0
 40
2.5
  1
12.7
 41
1.1999999999999991
  0
ENDBLK
  5
DF02
  8
0
 62
     1
  0
BLOCK
  8
0
 62
     1
  2
*U29
 70
     1
 10
0.0
 20
0.0
 30
0.0
  3
*U29
  1

  0
TEXT
  5
DF04
  8
0
  6
CONTINUOUS
 62
     5
 10
67.342609781497586
 20
157.90000000000001
 30
0.0
 40
2.5
  1
15.9
 41
1.1999999999999991
  0
ENDBLK
  5
DF06
  8
0
 62
     1
  0
BLOCK
  8
0
 62
     1
  2
*U30
 70
     1
 10
0.0
 20
0.0
 30
0.0
  3
*U30
  1

  0
TEXT
  5
DF08
  8
0
  6
CONTINUOUS
 62
     5
 10
94.850000000001089
 20
209.88237356102491
 30
0.0
 40
2.5
  1
69
 50
90.0
 41
1.1999999999999991
  0
ENDBLK
  5
DF0A
  8
0
 62
     1
  0
BLOCK
  8
0
 62
     1
  2
*U31
 70
     1
 10
0.0
 20
0.0
 30
0.0
  3
*U31
  1

  0
TEXT
  5
DF0C
  8
0
  6
CONTINUOUS
 62
     5
 10
86.740000000000819
 20
256.89999999999998
 30
0.0
 40
2.5
  1
1.1
 41
1.1999999999999991
  0
ENDBLK
  5
DF0E
  8
0
 62
     1
  0
BLOCK
  8
0
 62
     1
  2
*U32
 70
     1
 10
0.0
 20
0.0
 30
0.0
  3
*U32
  1

  0
TEXT
  5
DF10
  8
0
  6
CONTINUOUS
 62
     5
 10
89.850000000001231
 20
208.18976377952751
 30
0.0
 40
2.5
  1
64.4
 50
90.0
 41
1.1999999999999991
  0
ENDBLK
  5
DF12
  8
0
 62
     1
  0
BLOCK
  8
0
 62
     1
  2
*U33
 70
     1
 10
0.0
 20
0.0
 30
0.0
  3
*U33
  1

  0
TEXT
  5
DF14
  8
0
  6
CONTINUOUS
 62
     5
 10
38.949753937007749
 20
209.8099114173227
 30
0.0
 40
2.5
  1
72
 50
90.0
 41
1.1999999999999991
  0
ENDBLK
  5
DF16
  8
0
 62
     1
  0
BLOCK
  8
0
 62
     1
  2
*U34
 70
     1
 10
0.0
 20
0.0
 30
0.0
  3
*U34
  1

  0
TEXT
  5
DF18
  8
0
  6
CONTINUOUS
 62
     5
 10
89.186154707162174
 20
273.80159555229091
 30
0.0
 40
2.5
  1
Oberseite/
 41
1.1999999999999991
  0
TEXT
  5
DF19
  8
0
  6
CONTINUOUS
 62
     5
 10
88.840658427878907
 20
269.63492888562428
 30
0.0
 40
2.5
  1
top side
 41
1.1999999999999991
 51
20.0
  0
ENDBLK
  5
DF1B
  8
0
 62
     1
  0
BLOCK
  8
0
 62
     1
  2
*U35
 70
     1
 10
0.0
 20
0.0
 30
0.0
  3
*U35
  1

  0
TEXT
  5
DF1D
  8
0
  6
CONTINUOUS
 62
     5
 10
89.186154707162288
 20
160.46738026963251
 30
0.0
 40
2.5
  1
Unterseite/
 41
1.1999999999999991
  0
TEXT
  5
DF1E
  8
0
  6
CONTINUOUS
 62
     5
 10
89.140658427879018
 20
156.3007136029658
 30
0.0
 40
2.5
  1
bottom
 41
1.1999999999999991
 51
20.0
  0
ENDBLK
  5
DF20
  8
0
 62
     1
  0
BLOCK
  8
0
 62
     1
  2
*U36
 70
     1
 10
0.0
 20
0.0
 30
0.0
  3
*U36
  1

  0
TEXT
  5
DF22
  8
0
  6
CONTINUOUS
 62
     5
 10
40.327085529284162
 20
149.25554149988861
 30
0.0
 40
2.5
  1
Grundprofil ARPG 75/31-... Teil2/
 41
1.1999999999999991
  0
TEXT
  5
DF23
  8
0
  6
CONTINUOUS
 62
     5
 10
40.126259164110976
 20
145.07818309498029
 30
0.0
 40
2.5
  1
basic profile ARPG 75/31-... part2
 41
1.1999999999999991
 51
20.0
  0
ENDBLK
  5
DF25
  8
0
 62
     1
  0
BLOCK
  8
0
 62
     1
  2
*U37
 70
     1
 10
0.0
 20
0.0
 30
0.0
  3
*U37
  1

  0
TEXT
  5
DF52
  8
0
  6
CONTINUOUS
 62
     1
 10
19.135499812995668
 20
55.033512079133182
 30
0.0
 40
2.0
  1
"Schutzvermerk nach DIN ISO 16016 beachten" 
 50
89.999999999999986
 41
1.1999999999999991
  0
TEXT
  5
DF53
  8
0
  6
CONTINUOUS
 62
     1
 10
19.13549981299569
 20
127.89751207913319
 30
0.0
 40
2.0
  1
"Please pay attention to copyright note DIN ISO 16016"
 50
89.999999999999986
 41
1.1999999999999991
 51
20.0
  0
ENDBLK
  5
DF55
  8
0
 62
     1
  0
BLOCK
  8
0
 62
     1
  2
*X38
 70
     1
 10
0.0
 20
0.0
 30
0.0
  3
*X38
  1

  0
LINE
  5
DF57
  8
0
  6
CONTINUOUS
 62
     0
 10
202.7239389668502
 20
27.36453811398022
 30
0.0
 11
202.7334749940255
 21
27.37407414115561
 31
0.0
  0
LINE
  5
DF58
  8
0
  6
CONTINUOUS
 62
     0
 10
202.5825176106128
 20
27.364538113980188
 30
0.0
 11
202.7334749940255
 21
27.515495497392859
 31
0.0
  0
LINE
  5
DF59
  8
0
  6
CONTINUOUS
 62
     0
 10
202.44109625437551
 20
27.364538113980132
 30
0.0
 11
202.7334749940255
 21
27.656916853630211
 31
0.0
  0
LINE
  5
DF5A
  8
0
  6
CONTINUOUS
 62
     0
 10
202.29967489813819
 20
27.36453811398016
 30
0.0
 11
202.73347499402561
 21
27.79833820986752
 31
0.0
  0
LINE
  5
DF5B
  8
0
  6
CONTINUOUS
 62
     0
 10
202.1582535419009
 20
27.36453811398016
 30
0.0
 11
202.7334749940255
 21
27.939759566104811
 31
0.0
  0
LINE
  5
DF5C
  8
0
  6
CONTINUOUS
 62
     0
 10
202.01683218566359
 20
27.36453811398016
 30
0.0
 11
202.7334749940255
 21
28.08118092234216
 31
0.0
  0
LINE
  5
DF5D
  8
0
  6
CONTINUOUS
 62
     0
 10
201.8754108294263
 20
27.36453811398016
 30
0.0
 11
202.7334749940255
 21
28.222602278579419
 31
0.0
  0
LINE
  5
DF5E
  8
0
  6
CONTINUOUS
 62
     0
 10
201.7339894731889
 20
27.364538113980132
 30
0.0
 11
202.7334749940255
 21
28.364023634816729
 31
0.0
  0
LINE
  5
DF5F
  8
0
  6
CONTINUOUS
 62
     0
 10
201.59256811695161
 20
27.36453811398016
 30
0.0
 11
202.7334749940255
 21
28.50544499105408
 31
0.0
  0
LINE
  5
DF60
  8
0
  6
CONTINUOUS
 62
     0
 10
201.45114676071441
 20
27.364538113980188
 30
0.0
 11
202.7334749940255
 21
28.646866347291368
 31
0.0
  0
LINE
  5
DF61
  8
0
  6
CONTINUOUS
 62
     0
 10
201.30972540447701
 20
27.364538113980188
 30
0.0
 11
202.7334749940255
 21
28.788287703528709
 31
0.0
  0
LINE
  5
DF62
  8
0
  6
CONTINUOUS
 62
     0
 10
201.16830404823969
 20
27.36453811398016
 30
0.0
 11
202.7334749940255
 21
28.929709059765969
 31
0.0
  0
LINE
  5
DF63
  8
0
  6
CONTINUOUS
 62
     0
 10
201.0268826920024
 20
27.36453811398016
 30
0.0
 11
202.7334749940255
 21
29.071130416003289
 31
0.0
  0
LINE
  5
DF64
  8
0
  6
CONTINUOUS
 62
     0
 10
200.88546133576509
 20
27.36453811398016
 30
0.0
 11
202.7334749940255
 21
29.21255177224063
 31
0.0
  0
LINE
  5
DF65
  8
0
  6
CONTINUOUS
 62
     0
 10
200.7440399795278
 20
27.364538113980188
 30
0.0
 11
202.7334749940255
 21
29.353973128477922
 31
0.0
  0
LINE
  5
DF66
  8
0
  6
CONTINUOUS
 62
     0
 10
200.60261862329051
 20
27.364538113980188
 30
0.0
 11
202.7334749940255
 21
29.495394484715259
 31
0.0
  0
LINE
  5
DF67
  8
0
  6
CONTINUOUS
 62
     0
 10
200.46119726705319
 20
27.36453811398016
 30
0.0
 11
202.7334749940255
 21
29.636815840952519
 31
0.0
  0
LINE
  5
DF68
  8
0
  6
CONTINUOUS
 62
     0
 10
200.31977591081591
 20
27.36453811398016
 30
0.0
 11
202.7334749940255
 21
29.778237197189839
 31
0.0
  0
LINE
  5
DF69
  8
0
  6
CONTINUOUS
 62
     0
 10
200.1783545545785
 20
27.36453811398016
 30
0.0
 11
202.7334749940255
 21
29.91965855342718
 31
0.0
  0
LINE
  5
DF6A
  8
0
  6
CONTINUOUS
 62
     0
 10
200.0369331983413
 20
27.364538113980188
 30
0.0
 11
202.7334749940255
 21
30.061079909664471
 31
0.0
  0
LINE
  5
DF6B
  8
0
  6
CONTINUOUS
 62
     0
 10
199.8955118421039
 20
27.36453811398016
 30
0.0
 11
202.7334749940255
 21
30.202501265901759
 31
0.0
  0
LINE
  5
DF6C
  8
0
  6
CONTINUOUS
 62
     0
 10
199.75409048586661
 20
27.364538113980188
 30
0.0
 11
202.7334749940255
 21
30.343922622139079
 31
0.0
  0
LINE
  5
DF6D
  8
0
  6
CONTINUOUS
 62
     0
 10
199.6126691296293
 20
27.36453811398016
 30
0.0
 11
202.7334749940255
 21
30.485343978376392
 31
0.0
  0
LINE
  5
DF6E
  8
0
  6
CONTINUOUS
 62
     0
 10
199.47124777339201
 20
27.36453811398016
 30
0.0
 11
202.7334749940255
 21
30.62676533461374
 31
0.0
  0
LINE
  5
DF6F
  8
0
  6
CONTINUOUS
 62
     0
 10
199.32982641715469
 20
27.364538113980188
 30
0.0
 11
202.7334749940255
 21
30.768186690851
 31
0.0
  0
LINE
  5
DF70
  8
0
  6
CONTINUOUS
 62
     0
 10
199.1884050609174
 20
27.36453811398016
 30
0.0
 11
202.7334749940255
 21
30.909608047088309
 31
0.0
  0
LINE
  5
DF71
  8
0
  6
CONTINUOUS
 62
     0
 10
199.04698370468009
 20
27.364538113980188
 30
0.0
 11
202.7334749940255
 21
31.051029403325629
 31
0.0
  0
LINE
  5
DF72
  8
0
  6
CONTINUOUS
 62
     0
 10
198.9055623484428
 20
27.36453811398016
 30
0.0
 11
202.7334749940255
 21
31.192450759562949
 31
0.0
  0
LINE
  5
DF73
  8
0
  6
CONTINUOUS
 62
     0
 10
198.7641409922054
 20
27.364538113980132
 30
0.0
 11
202.7334749940255
 21
31.333872115800261
 31
0.0
  0
LINE
  5
DF74
  8
0
  6
CONTINUOUS
 62
     0
 10
198.62271963596811
 20
27.36453811398016
 30
0.0
 11
202.7334749940255
 21
31.475293472037549
 31
0.0
  0
LINE
  5
DF75
  8
0
  6
CONTINUOUS
 62
     0
 10
198.48129827973079
 20
27.36453811398016
 30
0.0
 11
202.73347499402561
 21
31.616714828274869
 31
0.0
  0
LINE
  5
DF76
  8
0
  6
CONTINUOUS
 62
     0
 10
198.33987692349359
 20
27.364538113980188
 30
0.0
 11
202.7334749940255
 21
31.758136184512178
 31
0.0
  0
LINE
  5
DF77
  8
0
  6
CONTINUOUS
 62
     0
 10
198.19845556725619
 20
27.364538113980188
 30
0.0
 11
202.7334749940255
 21
31.899557540749498
 31
0.0
  0
LINE
  5
DF78
  8
0
  6
CONTINUOUS
 62
     0
 10
198.0570342110189
 20
27.36453811398016
 30
0.0
 11
202.7334749940255
 21
32.040978896986822
 31
0.0
  0
LINE
  5
DF79
  8
0
  6
CONTINUOUS
 62
     0
 10
197.9156128547815
 20
27.36453811398016
 30
0.0
 11
202.7334749940255
 21
32.18240025322411
 31
0.0
  0
LINE
  5
DF7A
  8
0
  6
CONTINUOUS
 62
     0
 10
197.7741914985443
 20
27.36453811398016
 30
0.0
 11
202.7334749940255
 21
32.323821609461419
 31
0.0
  0
LINE
  5
DF7B
  8
0
  6
CONTINUOUS
 62
     0
 10
197.63277014230701
 20
27.36453811398022
 30
0.0
 11
202.7334749940255
 21
32.465242965698728
 31
0.0
  0
LINE
  5
DF7C
  8
0
  6
CONTINUOUS
 62
     0
 10
197.49134878606969
 20
27.364538113980188
 30
0.0
 11
202.7334749940255
 21
32.606664321936051
 31
0.0
  0
LINE
  5
DF7D
  8
0
  6
CONTINUOUS
 62
     0
 10
197.34992742983229
 20
27.36453811398016
 30
0.0
 11
202.73347499402561
 21
32.748085678173368
 31
0.0
  0
LINE
  5
DF7E
  8
0
  6
CONTINUOUS
 62
     0
 10
197.208506073595
 20
27.36453811398016
 30
0.0
 11
202.7334749940255
 21
32.889507034410663
 31
0.0
  0
LINE
  5
DF7F
  8
0
  6
CONTINUOUS
 62
     0
 10
197.06708471735769
 20
27.36453811398016
 30
0.0
 11
202.7334749940255
 21
33.030928390647979
 31
0.0
  0
LINE
  5
DF80
  8
0
  6
CONTINUOUS
 62
     0
 10
196.9256633611204
 20
27.364538113980188
 30
0.0
 11
202.7334749940255
 21
33.17234974688526
 31
0.0
  0
LINE
  5
DF81
  8
0
  6
CONTINUOUS
 62
     0
 10
196.78424200488311
 20
27.364538113980188
 30
0.0
 11
202.73347499402561
 21
33.31377110312264
 31
0.0
  0
LINE
  5
DF82
  8
0
  6
CONTINUOUS
 62
     0
 10
196.6428206486458
 20
27.36453811398016
 30
0.0
 11
202.73347499402561
 21
33.455192459359893
 31
0.0
  0
LINE
  5
DF83
  8
0
  6
CONTINUOUS
 62
     0
 10
197.53972575563171
 20
28.402864577203449
 30
0.0
 11
202.73347499402561
 21
33.596613815597237
 31
0.0
  0
LINE
  5
DF84
  8
0
  6
CONTINUOUS
 62
     0
 10
196.50139929240851
 20
27.36453811398016
 30
0.0
 11
197.4334749940256
 21
28.296613815597279
 31
0.0
  0
LINE
  5
DF85
  8
0
  6
CONTINUOUS
 62
     0
 10
198.00818399816791
 20
29.01274417597682
 30
0.0
 11
202.73347499402561
 21
33.738035171834561
 31
0.0
  0
LINE
  5
DF86
  8
0
  6
CONTINUOUS
 62
     0
 10
196.35997793617119
 20
27.36453811398016
 30
0.0
 11
197.4334749940256
 21
28.438035171834599
 31
0.0
  0
LINE
  5
DF87
  8
0
  6
CONTINUOUS
 62
     0
 10
198.476642240704
 20
29.622623774750281
 30
0.0
 11
202.7334749940255
 21
33.879456528071842
 31
0.0
  0
LINE
  5
DF88
  8
0
  6
CONTINUOUS
 62
     0
 10
196.2185565799339
 20
27.364538113980188
 30
0.0
 11
197.4334749940256
 21
28.579456528071891
 31
0.0
  0
LINE
  5
DF89
  8
0
  6
CONTINUOUS
 62
     0
 10
198.94510048324011
 20
30.232503373523691
 30
0.0
 11
202.73347499402561
 21
34.020877884309193
 31
0.0
  0
LINE
  5
DF8A
  8
0
  6
CONTINUOUS
 62
     0
 10
196.07713522369659
 20
27.364538113980188
 30
0.0
 11
197.4334749940256
 21
28.720877884309228
 31
0.0
  0
LINE
  5
DF8B
  8
0
  6
CONTINUOUS
 62
     0
 10
199.4135587257762
 20
30.842382972297059
 30
0.0
 11
202.73347499402561
 21
34.162299240546453
 31
0.0
  0
LINE
  5
DF8C
  8
0
  6
CONTINUOUS
 62
     0
 10
195.93571386745921
 20
27.36453811398016
 30
0.0
 11
197.4334749940256
 21
28.862299240546491
 31
0.0
  0
LINE
  5
DF8D
  8
0
  6
CONTINUOUS
 62
     0
 10
199.88201696831231
 20
31.452262571070492
 30
0.0
 11
202.73347499402561
 21
34.303720596783762
 31
0.0
  0
LINE
  5
DF8E
  8
0
  6
CONTINUOUS
 62
     0
 10
195.7942925112219
 20
27.364538113980132
 30
0.0
 11
197.4334749940256
 21
29.003720596783811
 31
0.0
  0
LINE
  5
DF8F
  8
0
  6
CONTINUOUS
 62
     0
 10
200.3504752108484
 20
32.062142169843924
 30
0.0
 11
202.73347499402561
 21
34.445141953021107
 31
0.0
  0
LINE
  5
DF90
  8
0
  6
CONTINUOUS
 62
     0
 10
195.65287115498461
 20
27.36453811398016
 30
0.0
 11
197.4334749940256
 21
29.145141953021131
 31
0.0
  0
LINE
  5
DF91
  8
0
  6
CONTINUOUS
 62
     0
 10
200.81893345338449
 20
32.67202176861727
 30
0.0
 11
202.73347499402561
 21
34.586563309258402
 31
0.0
  0
LINE
  5
DF92
  8
0
  6
CONTINUOUS
 62
     0
 10
195.51144979874729
 20
27.364538113980188
 30
0.0
 11
197.4334749940256
 21
29.28656330925844
 31
0.0
  0
LINE
  5
DF93
  8
0
  6
CONTINUOUS
 62
     0
 10
201.2873916959206
 20
33.281901367390759
 30
0.0
 11
202.73347499402561
 21
34.72798466549574
 31
0.0
  0
LINE
  5
DF94
  8
0
  6
CONTINUOUS
 62
     0
 10
195.37002844251001
 20
27.364538113980188
 30
0.0
 11
197.4334749940256
 21
29.427984665495789
 31
0.0
  0
LINE
  5
DF95
  8
0
  6
CONTINUOUS
 62
     0
 10
201.75584993845669
 20
33.891780966164113
 30
0.0
 11
202.73347499402561
 21
34.869406021732999
 31
0.0
  0
LINE
  5
DF96
  8
0
  6
CONTINUOUS
 62
     0
 10
195.22860708627269
 20
27.36453811398016
 30
0.0
 11
197.4334749940256
 21
29.569406021733041
 31
0.0
  0
LINE
  5
DF97
  8
0
  6
CONTINUOUS
 62
     0
 10
202.22430818099281
 20
34.501660564937573
 30
0.0
 11
202.73347499402561
 21
35.010827377970323
 31
0.0
  0
LINE
  5
DF98
  8
0
  6
CONTINUOUS
 62
     0
 10
195.0871857300354
 20
27.36453811398016
 30
0.0
 11
197.4334749940256
 21
29.710827377970361
 31
0.0
  0
LINE
  5
DF99
  8
0
  6
CONTINUOUS
 62
     0
 10
202.69276642352901
 20
35.111540163710998
 30
0.0
 11
202.73347499402561
 21
35.15224873420766
 31
0.0
  0
LINE
  5
DF9A
  8
0
  6
CONTINUOUS
 62
     0
 10
194.94576437379811
 20
27.36453811398016
 30
0.0
 11
197.4334749940256
 21
29.852248734207681
 31
0.0
  0
LINE
  5
DF9B
  8
0
  6
CONTINUOUS
 62
     0
 10
194.8043430175608
 20
27.36453811398016
 30
0.0
 11
197.4334749940256
 21
29.993670090445001
 31
0.0
  0
LINE
  5
DF9C
  8
0
  6
CONTINUOUS
 62
     0
 10
194.66292166132351
 20
27.364538113980188
 30
0.0
 11
197.4334749940256
 21
30.135091446682338
 31
0.0
  0
LINE
  5
DF9D
  8
0
  6
CONTINUOUS
 62
     0
 10
194.52150030508619
 20
27.364538113980188
 30
0.0
 11
197.4334749940256
 21
30.276512802919601
 31
0.0
  0
LINE
  5
DF9E
  8
0
  6
CONTINUOUS
 62
     0
 10
194.3800789488489
 20
27.364538113980188
 30
0.0
 11
197.4334749940256
 21
30.417934159156911
 31
0.0
  0
LINE
  5
DF9F
  8
0
  6
CONTINUOUS
 62
     0
 10
194.2386575926115
 20
27.364538113980188
 30
0.0
 11
197.4334749940256
 21
30.55935551539423
 31
0.0
  0
LINE
  5
DFA0
  8
0
  6
CONTINUOUS
 62
     0
 10
194.09723623637419
 20
27.36453811398016
 30
0.0
 11
197.4334749940256
 21
30.70077687163155
 31
0.0
  0
LINE
  5
DFA1
  8
0
  6
CONTINUOUS
 62
     0
 10
193.9558148801369
 20
27.36453811398016
 30
0.0
 11
197.4334749940256
 21
30.84219822786887
 31
0.0
  0
LINE
  5
DFA2
  8
0
  6
CONTINUOUS
 62
     0
 10
193.81439352389961
 20
27.36453811398022
 30
0.0
 11
197.4334749940256
 21
30.983619584106151
 31
0.0
  0
LINE
  5
DFA3
  8
0
  6
CONTINUOUS
 62
     0
 10
193.67297216766229
 20
27.364538113980188
 30
0.0
 11
197.4334749940256
 21
31.125040940343471
 31
0.0
  0
LINE
  5
DFA4
  8
0
  6
CONTINUOUS
 62
     0
 10
193.53155081142501
 20
27.364538113980188
 30
0.0
 11
197.4334749940256
 21
31.26646229658078
 31
0.0
  0
LINE
  5
DFA5
  8
0
  6
CONTINUOUS
 62
     0
 10
193.39012945518769
 20
27.36453811398016
 30
0.0
 11
197.4334749940256
 21
31.4078836528181
 31
0.0
  0
LINE
  5
DFA6
  8
0
  6
CONTINUOUS
 62
     0
 10
193.2487080989504
 20
27.36453811398016
 30
0.0
 11
197.4334749940256
 21
31.54930500905536
 31
0.0
  0
LINE
  5
DFA7
  8
0
  6
CONTINUOUS
 62
     0
 10
193.10728674271309
 20
27.36453811398022
 30
0.0
 11
197.4334749940256
 21
31.690726365292701
 31
0.0
  0
LINE
  5
DFA8
  8
0
  6
CONTINUOUS
 62
     0
 10
192.9658653864758
 20
27.364538113980188
 30
0.0
 11
197.4334749940256
 21
31.832147721529989
 31
0.0
  0
LINE
  5
DFA9
  8
0
  6
CONTINUOUS
 62
     0
 10
192.8244440302384
 20
27.36453811398016
 30
0.0
 11
197.4334749940256
 21
31.97356907776728
 31
0.0
  0
LINE
  5
DFAA
  8
0
  6
CONTINUOUS
 62
     0
 10
192.68302267400111
 20
27.36453811398016
 30
0.0
 11
197.4334749940256
 21
32.114990434004632
 31
0.0
  0
LINE
  5
DFAB
  8
0
  6
CONTINUOUS
 62
     0
 10
192.54160131776379
 20
27.36453811398016
 30
0.0
 11
197.4334749940256
 21
32.256411790241913
 31
0.0
  0
LINE
  5
DFAC
  8
0
  6
CONTINUOUS
 62
     0
 10
192.4001799615265
 20
27.36453811398022
 30
0.0
 11
197.4334749940256
 21
32.397833146479257
 31
0.0
  0
LINE
  5
DFAD
  8
0
  6
CONTINUOUS
 62
     0
 10
192.25875860528919
 20
27.364538113980188
 30
0.0
 11
197.4334749940256
 21
32.539254502716517
 31
0.0
  0
LINE
  5
DFAE
  8
0
  6
CONTINUOUS
 62
     0
 10
192.1173372490519
 20
27.36453811398016
 30
0.0
 11
197.4334749940256
 21
32.68067585895384
 31
0.0
  0
LINE
  5
DFAF
  8
0
  6
CONTINUOUS
 62
     0
 10
191.97591589281461
 20
27.36453811398016
 30
0.0
 11
197.4334749940256
 21
32.822097215191178
 31
0.0
  0
LINE
  5
DFB0
  8
0
  6
CONTINUOUS
 62
     0
 10
191.8344945365773
 20
27.36453811398016
 30
0.0
 11
197.4334749940256
 21
32.963518571428473
 31
0.0
  0
LINE
  5
DFB1
  8
0
  6
CONTINUOUS
 62
     0
 10
191.69307318034001
 20
27.36453811398016
 30
0.0
 11
197.4334749940256
 21
33.104939927665811
 31
0.0
  0
LINE
  5
DFB2
  8
0
  6
CONTINUOUS
 62
     0
 10
191.55165182410269
 20
27.364538113980188
 30
0.0
 11
197.4334749940256
 21
33.24636128390307
 31
0.0
  0
LINE
  5
DFB3
  8
0
  6
CONTINUOUS
 62
     0
 10
191.41023046786529
 20
27.36453811398016
 30
0.0
 11
197.4334749940256
 21
33.387782640140387
 31
0.0
  0
LINE
  5
DFB4
  8
0
  6
CONTINUOUS
 62
     0
 10
191.26880911162809
 20
27.364538113980188
 30
0.0
 11
197.43347499402549
 21
33.529203996377653
 31
0.0
  0
LINE
  5
DFB5
  8
0
  6
CONTINUOUS
 62
     0
 10
191.1273877553908
 20
27.364538113980188
 30
0.0
 11
197.4334749940256
 21
33.670625352614962
 31
0.0
  0
LINE
  5
DFB6
  8
0
  6
CONTINUOUS
 62
     0
 10
190.9859663991534
 20
27.36453811398016
 30
0.0
 11
197.43347499402549
 21
33.81204670885225
 31
0.0
  0
LINE
  5
DFB7
  8
0
  6
CONTINUOUS
 62
     0
 10
190.84454504291611
 20
27.364538113980188
 30
0.0
 11
197.43347499402549
 21
33.953468065089602
 31
0.0
  0
LINE
  5
DFB8
  8
0
  6
CONTINUOUS
 62
     0
 10
190.918342047865
 20
27.579756475166391
 30
0.0
 11
197.4334749940256
 21
34.094889421326911
 31
0.0
  0
LINE
  5
DFB9
  8
0
  6
CONTINUOUS
 62
     0
 10
191.77972667221951
 20
28.58256245575825
 30
0.0
 11
197.43347499402549
 21
34.236310777564199
 31
0.0
  0
LINE
  5
DFBA
  8
0
  6
CONTINUOUS
 62
     0
 10
192.641111296574
 20
29.58536843635002
 30
0.0
 11
197.4334749940256
 21
34.377732133801523
 31
0.0
  0
LINE
  5
DFBB
  8
0
  6
CONTINUOUS
 62
     0
 10
193.50249592092851
 20
30.588174416941801
 30
0.0
 11
197.4334749940256
 21
34.519153490038832
 31
0.0
  0
LINE
  5
DFBC
  8
0
  6
CONTINUOUS
 62
     0
 10
194.363880545283
 20
31.590980397533599
 30
0.0
 11
197.43347499402549
 21
34.660574846276148
 31
0.0
  0
LINE
  5
DFBD
  8
0
  6
CONTINUOUS
 62
     0
 10
195.22526516963751
 20
32.593786378125372
 30
0.0
 11
197.43347499402549
 21
34.801996202513408
 31
0.0
  0
LINE
  5
DFBE
  8
0
  6
CONTINUOUS
 62
     0
 10
196.08664979399191
 20
33.596592358717118
 30
0.0
 11
197.43347499402549
 21
34.943417558750731
 31
0.0
  0
LINE
  5
DFBF
  8
0
  6
CONTINUOUS
 62
     0
 10
196.9480344183464
 20
34.599398339308948
 30
0.0
 11
197.43347499402549
 21
35.084838914988069
 31
0.0
  0
ENDBLK
  5
DFC1
  8
0
 62
     1
  0
BLOCK
  8
0
 62
     1
  2
*X39
 70
     1
 10
0.0
 20
0.0
 30
0.0
  3
*X39
  1

  0
LINE
  5
DFC3
  8
0
  6
CONTINUOUS
 62
     0
 10
193.7217528367803
 20
31.514538113980141
 30
0.0
 11
194.02255891482389
 21
31.81534419202373
 31
0.0
  0
LINE
  5
DFC4
  8
0
  6
CONTINUOUS
 62
     0
 10
189.5826689159818
 20
27.37545419318176
 30
0.0
 11
189.88347499402539
 21
27.676260271225321
 31
0.0
  0
LINE
  5
DFC5
  8
0
  6
CONTINUOUS
 62
     0
 10
192.80251402123781
 20
31.514538113980169
 30
0.0
 11
193.88878569887311
 21
32.600809791615461
 31
0.0
  0
LINE
  5
DFC6
  8
0
  6
CONTINUOUS
 62
     0
 10
188.7972033163901
 20
27.50922740913251
 30
0.0
 11
189.88347499402551
 21
28.595499086767859
 31
0.0
  0
LINE
  5
DFC7
  8
0
  6
CONTINUOUS
 62
     0
 10
191.8832752056953
 20
31.514538113980191
 30
0.0
 11
193.64226070429399
 21
33.273523612578913
 31
0.0
  0
LINE
  5
DFC8
  8
0
  6
CONTINUOUS
 62
     0
 10
188.1244894954267
 20
27.7557524037116
 30
0.0
 11
189.88347499402539
 21
29.51473790231034
 31
0.0
  0
LINE
  5
DFC9
  8
0
  6
CONTINUOUS
 62
     0
 10
190.9640363901527
 20
31.514538113980109
 30
0.0
 11
193.30808347639169
 21
33.858585200219068
 31
0.0
  0
LINE
  5
DFCA
  8
0
  6
CONTINUOUS
 62
     0
 10
187.53942790778649
 20
28.089929631613931
 30
0.0
 11
189.88347499402551
 21
30.433976717852889
 31
0.0
  0
LINE
  5
DFCB
  8
0
  6
CONTINUOUS
 62
     0
 10
190.04479757461019
 20
31.514538113980141
 30
0.0
 11
192.897520636265
 21
34.367261175634901
 31
0.0
  0
LINE
  5
DFCC
  8
0
  6
CONTINUOUS
 62
     0
 10
187.03075193237069
 20
28.500492471740639
 30
0.0
 11
189.88347499402551
 21
31.353215533395431
 31
0.0
  0
LINE
  5
DFCD
  8
0
  6
CONTINUOUS
 62
     0
 10
186.59459578737651
 20
28.983575142288942
 30
0.0
 11
192.41443796571659
 21
34.803417320629052
 31
0.0
  0
LINE
  5
DFCE
  8
0
  6
CONTINUOUS
 62
     0
 10
186.23277411903669
 20
29.540992289491669
 30
0.0
 11
191.85702081851389
 21
35.165238988968902
 31
0.0
  0
LINE
  5
DFCF
  8
0
  6
CONTINUOUS
 62
     0
 10
185.95356099355669
 20
30.181017979554159
 30
0.0
 11
191.2169951284514
 21
35.4444521144489
 31
0.0
  0
LINE
  5
DFD0
  8
0
  6
CONTINUOUS
 62
     0
 10
185.77590723828649
 20
30.922603039826502
 30
0.0
 11
190.47541006817909
 21
35.6221058697191
 31
0.0
  0
LINE
  5
DFD1
  8
0
  6
CONTINUOUS
 62
     0
 10
185.7440016024924
 20
31.809936219574809
 30
0.0
 11
189.58807688843081
 21
35.654011505513239
 31
0.0
  0
LINE
  5
DFD2
  8
0
  6
CONTINUOUS
 62
     0
 10
186.00449401221721
 20
32.989667444842183
 30
0.0
 11
188.4083456631634
 21
35.393519095788442
 31
0.0
  0
ENDBLK
  5
DFD4
  8
0
 62
     1
  0
BLOCK
  8
0
 62
     1
  2
*U40
 70
     1
 10
0.0
 20
0.0
 30
0.0
  3
*U40
  1

  0
TEXT
  5
DFD6
  8
0
  6
CONTINUOUS
 62
     1
 10
171.0842366554657
 20
18.353856234410561
 30
0.0
 40
1.6000000000000001
  1
A Phoenix Mecano Company
 41
1.1000000000000001
  0
ENDBLK
  5
DFD8
  8
0
 62
     1
  0
BLOCK
  8
0
 62
     1
  2
*U41
 70
     1
 10
0.0
 20
0.0
 30
0.0
  3
*U41
  1

  0
TEXT
  5
DFDA
  8
0
  6
CONTINUOUS
 62
     7
 10
183.14944142699909
 20
21.52827613548726
 30
0.0
 40
3.7000000000000002
  1
BOPLA
 41
1.1000000000000001
  0
ENDBLK
  5
DFDC
  8
0
 62
     1
  0
BLOCK
  8
0
 62
     1
  2
*U42
 70
     1
 10
0.0
 20
0.0
 30
0.0
  3
*U42
  1

  0
TEXT
  5
DFDE
  8
0
  6
CONTINUOUS
 62
     7
 10
108.1016488773619
 20
53.32587518670163
 30
0.0
 40
4.0
  1
Catalogue drawing
 41
1.1999999999999991
 51
20.0
  0
ENDBLK
  5
DFE0
  8
0
 62
     1
  0
BLOCK
  8
0
 62
     1
  2
*U43
 70
     1
 10
0.0
 20
0.0
 30
0.0
  3
*U43
  1

  0
TEXT
  5
DFE2
  8
0
  6
CONTINUOUS
 62
     7
 10
108.21049817807329
 20
60.325875186701623
 30
0.0
 40
4.0
  1
Katalogzeichnung/
 41
1.1999999999999991
  0
ENDBLK
  5
DFE4
  8
0
 62
     1
  0
BLOCK
  8
0
 62
     1
  2
*U44
 70
     1
 10
0.0
 20
0.0
 30
0.0
  3
*U44
  1

  0
TEXT
  5
DFE6
  8
0
  6
CONTINUOUS
 62
     7
 10
108.21049817807329
 20
66.188007221057589
 30
0.0
 40
4.0
  1
ARPG 75/31-...
 41
1.1999999999999991
  0
ENDBLK
  5
DFE8
  8
0
 62
     1
  0
BLOCK
  8
0
 62
     1
  2
*U45
 70
     1
 10
0.0
 20
0.0
 30
0.0
  3
*U45
  1

  0
TEXT
  5
DFEA
  8
0
  6
CONTINUOUS
 62
     7
 10
129.5874630969179
 20
95.198758006823468
 30
0.0
 40
4.0
  1
1:1
 41
1.1999999999999991
  0
ENDBLK
  5
DFEC
  8
0
 62
     1
  0
BLOCK
  8
0
 62
     1
  2
*U46
 70
     1
 10
0.0
 20
0.0
 30
0.0
  3
*U46
  1

  0
TEXT
  5
DFEE
  8
0
  6
CONTINUOUS
 62
     1
 10
108.8442762589884
 20
98.413357459217579
 30
0.0
 40
2.5
  1
MaЯstab/
 41
1.1999999999999991
  0
TEXT
  5
DFEF
  8
0
  6
CONTINUOUS
 62
     1
 10
108.7483921383142
 20
94.246690792550908
 30
0.0
 40
2.5
  1
Scale:
 41
1.1999999999999991
 51
20.0
  0
ENDBLK
  5
DFF1
  8
0
 62
     1
  0
BLOCK
  8
0
 62
     1
  2
*U47
 70
     1
 10
0.0
 20
0.0
 30
0.0
  3
*U47
  1

  0
TEXT
  5
DFF3
  8
0
  6
CONTINUOUS
 62
     5
 10
109.0302130763932
 20
87.437192853128707
 30
0.0
 40
3.0
  1
Zeichnungs-Nr. / 
 41
1.1999999999999991
  0
TEXT
  5
DFF4
  8
0
  6
CONTINUOUS
 62
     5
 10
146.83921307639321
 20
87.437192853128707
 30
0.0
 40
3.0
  1
Drawing-No.:
 41
1.1999999999999991
 51
20.0
  0
ENDBLK
  5
DFF6
  8
0
 62
     1
  0
BLOCK
  8
0
 62
     1
  2
*U48
 70
     1
 10
0.0
 20
0.0
 30
0.0
  3
*U48
  1

  0
TEXT
  5
DFF8
  8
0
  6
CONTINUOUS
 62
     7
 10
129.96109421693521
 20
80.436304674055464
 30
0.0
 40
4.0
  1
4K 5255.246.01
 41
1.1999999999999991
  0
ENDBLK
  5
DFFA
  8
0
 62
     1
  0
BLOCK
  8
0
 62
     1
  2
*U49
 70
     1
 10
0.0
 20
0.0
 30
0.0
  3
*U49
  1

  0
TEXT
  5
DFFC
  8
0
  6
CONTINUOUS
 62
     7
 10
108.16006023816639
 20
72.428961671636898
 30
0.0
 40
4.0
  1
Artikel / 
 41
1.1999999999999991
  0
TEXT
  5
DFFD
  8
0
  6
CONTINUOUS
 62
     7
 10
135.52006023816639
 20
72.428961671636898
 30
0.0
 40
4.0
  1
Article:
 41
1.1999999999999991
 51
20.0
  0
ENDBLK
  5
DFFF
  8
0
 62
     1
  0
BLOCK
  8
0
 62
     1
  2
*U50
 70
     1
 10
0.0
 20
0.0
 30
0.0
  3
*U50
  1

  0
TEXT
  5
E001
  8
0
  6
CONTINUOUS
 62
     1
 10
119.23183404189859
 20
18.684193584549199
 30
0.0
 40
2.0
  1
Datum/
 41
1.1999999999999991
  0
TEXT
  5
E002
  8
0
  6
CONTINUOUS
 62
     1
 10
119.19543701847201
 20
15.33695152156327
 30
0.0
 40
2.0
  1
Date:
 41
1.1999999999999991
 51
20.0
  0
ENDBLK
  5
E004
  8
0
 62
     1
  0
BLOCK
  8
0
 62
     1
  2
*U51
 70
     1
 10
0.0
 20
0.0
 30
0.0
  3
*U51
  1

  0
TEXT
  5
E006
  8
0
  6
CONTINUOUS
 62
     1
 10
105.807758256943
 20
18.656372463869349
 30
0.0
 40
2.0
  1
Д.Nr/
 41
1.1999999999999991
  0
TEXT
  5
E007
  8
0
  6
CONTINUOUS
 62
     1
 10
105.7713612335164
 20
15.323039130536021
 30
0.0
 40
2.0
  1
Alt-No.:
 41
1.1999999999999991
 51
20.0
  0
ENDBLK
  5
E009
  8
0
 62
     1
  0
BLOCK
  8
0
 62
     1
  2
*U52
 70
     1
 10
0.0
 20
0.0
 30
0.0
  3
*U52
  1

  0
TEXT
  5
E00B
  8
0
  6
CONTINUOUS
 62
     5
 10
131.84404692807951
 20
10.605921666139119
 30
0.0
 40
2.5
  1
2 602 360
 41
1.1999999999999991
  0
ENDBLK
  5
E00D
  8
0
 62
     1
  0
BLOCK
  8
0
 62
     1
  2
*U53
 70
     1
 10
0.0
 20
0.0
 30
0.0
  3
*U53
  1

  0
TEXT
  5
E00F
  8
0
  6
CONTINUOUS
 62
     5
 10
106.0789912646938
 20
10.51214118304668
 30
0.0
 40
2.5
  1
DISK:
 41
1.1999999999999991
  0
ENDBLK
  5
E011
  8
0
 62
     1
  0
BLOCK
  8
0
 62
     1
  2
*U54
 70
     1
 10
0.0
 20
0.0
 30
0.0
  3
*U54
  1

  0
TEXT
  5
E013
  8
0
  6
CONTINUOUS
 62
     5
 10
131.7702280304417
 20
6.2488875231874772
 30
0.0
 40
2.5
  1
07.10.2003 HR
 41
1.1999999999999991
  0
ENDBLK
  5
E015
  8
0
 62
     1
  0
BLOCK
  8
0
 62
     1
  2
*U55
 70
     1
 10
0.0
 20
0.0
 30
0.0
  3
*U55
  1

  0
TEXT
  5
E017
  8
0
  6
CONTINUOUS
 62
     5
 10
106.0789912646938
 20
6.2662734352532263
 30
0.0
 40
2.5
  1
Datum/
 41
1.1999999999999991
  0
TEXT
  5
E018
  8
0
  6
CONTINUOUS
 62
     5
 10
119.2789912646938
 20
6.2662734352532263
 30
0.0
 40
2.5
  1
Date:
 41
1.1999999999999991
 51
20.0
  0
ENDBLK
  5
E01A
  8
0
 62
     1
  0
ENDSEC
  0
SECTION
  2
ENTITIES
  0
LINE
  5
38B0
  8
0
  6
CONTINUOUS
 62
     7
 10
55.350000000000129
 20
220.99999999999989
 30
0.0
 11
55.350000000000129
 21
202.99999999999989
 31
0.0
1001
PHOENIX7010
1002
{
1070
    41
1040
1.0
1002
}
  0
LINE
  5
38B1
  8
0
  6
CONTINUOUS
 62
     7
 10
56.850000000000122
 20
222.49999999999989
 30
0.0
 11
56.850000000000122
 21
201.49999999999989
 31
0.0
1001
PHOENIX7010
1002
{
1070
    41
1040
1.0
1002
}
  0
LINE
  5
38B2
  8
0
  6
CONTINUOUS
 62
     7
 10
55.850000000000129
 20
200.49999999999989
 30
0.0
 11
56.850000000000122
 21
201.49999999999989
 31
0.0
1001
PHOENIX7010
1002
{
1070
    41
1040
1.0
1002
}
  0
LINE
  5
38B3
  8
0
  6
CONTINUOUS
 62
     7
 10
55.850000000000129
 20
193.49999999999989
 30
0.0
 11
56.850000000000122
 21
192.49999999999989
 31
0.0
1001
PHOENIX7010
1002
{
1070
    41
1040
1.0
1002
}
  0
LINE
  5
38B4
  8
0
  6
ACAD_ISO04W100
 62
     1
 10
44.350000000000023
 20
211.99999999999989
 30
0.0
 11
80.250000000000895
 21
211.99999999999989
 31
0.0
1001
PHOENIX7010
1002
{
1070
    41
1040
1.0
1002
}
  0
ARC
  5
38B5
  8
0
  6
CONTINUOUS
 62
     7
 10
57.150000000000077
 20
176.29999999999981
 30
0.0
 40
1.8
 50
180.0
 51
270.0
1001
PHOENIX7010
1002
{
1070
    41
1040
1.0
1002
}
  0
LINE
  5
38B6
  8
0
  6
ACAD_ISO04W100
 62
     1
 10
58.850000000000129
 20
184.49999999999989
 30
0.0
 11
48.64999999999997
 21
184.49999999999989
 31
0.0
1001
PHOENIX7010
1002
{
1070
    41
1040
1.0
1002
}
  0
LINE
  5
38B7
  8
0
  6
CONTINUOUS
 62
     7
 10
55.350000000000129
 20
187.79999999999981
 30
0.0
 11
55.350000000000129
 21
191.19999999999979
 31
0.0
1001
PHOENIX7010
1002
{
1070
    41
1040
1.0
1002
}
  0
LINE
  5
38B8
  8
0
  6
CONTINUOUS
 62
     7
 10
51.00000000000022
 20
190.6999999999997
 30
0.0
 11
50.0
 21
190.12264973080991
 31
0.0
1001
PHOENIX7010
1002
{
1070
    41
1040
1.0
1002
}
  0
ARC
  5
38B9
  8
0
  6
CONTINUOUS
 62
     7
 10
51.400000000000077
 20
190.39999999999969
 30
0.0
 40
0.3
 50
0.0
 51
90.0
1001
PHOENIX7010
1002
{
1070
    41
1040
1.0
1002
}
  0
ARC
  5
38BA
  8
0
  6
CONTINUOUS
 62
     7
 10
55.050000000000168
 20
187.79999999999981
 30
0.0
 40
0.3
 50
270.0
 51
0.0
1001
PHOENIX7010
1002
{
1070
    41
1040
1.0
1002
}
  0
ARC
  5
38BB
  8
0
  6
CONTINUOUS
 62
     7
 10
52.00000000000022
 20
187.79999999999961
 30
0.0
 40
0.3
 50
180.0
 51
270.0
1001
PHOENIX7010
1002
{
1070
    41
1040
1.0
1002
}
  0
LINE
  5
38BC
  8
0
  6
CONTINUOUS
 62
     7
 10
50.0
 20
186.65000000000001
 30
0.0
 11
50.0
 21
190.12264973080991
 31
0.0
1001
PHOENIX7010
1002
{
1070
    41
1040
1.0
1002
}
  0
LINE
  5
38BD
  8
0
  6
CONTINUOUS
 62
     7
 10
51.700000000000038
 20
187.79999999999961
 30
0.0
 11
51.700000000000038
 21
190.39999999999969
 31
0.0
1001
PHOENIX7010
1002
{
1070
    41
1040
1.0
1002
}
  0
LINE
  5
38BE
  8
0
  6
CONTINUOUS
 62
     7
 10
55.050000000000168
 20
187.4999999999996
 30
0.0
 11
52.00000000000022
 21
187.4999999999996
 31
0.0
1001
PHOENIX7010
1002
{
1070
    41
1040
1.0
1002
}
  0
ARC
  5
38BF
  8
0
  6
CONTINUOUS
 62
     7
 10
55.050000000000168
 20
181.2000000000001
 30
0.0
 40
0.3
 50
0.0
 51
90.0
1001
PHOENIX7010
1002
{
1070
    41
1040
1.0
1002
}
  0
LINE
  5
38C0
  8
0
  6
CONTINUOUS
 62
     7
 10
55.350000000000129
 20
181.2000000000001
 30
0.0
 11
55.350000000000129
 21
176.29999999999981
 31
0.0
1001
PHOENIX7010
1002
{
1070
    41
1040
1.0
1002
}
  0
LINE
  5
38C1
  8
0
  6
CONTINUOUS
 62
     7
 10
52.537564434701828
 20
185.1999999999999
 30
0.0
 11
51.758141571295702
 21
185.65000000000001
 31
0.0
1001
PHOENIX7010
1002
{
1070
    41
1040
1.0
1002
}
  0
LINE
  5
38C2
  8
0
  6
CONTINUOUS
 62
     7
 10
52.537564434701828
 20
183.79999999999981
 30
0.0
 11
51.75814157129593
 21
183.3499999999998
 31
0.0
1001
PHOENIX7010
1002
{
1070
    41
1040
1.0
1002
}
  0
LINE
  5
38C3
  8
0
  6
CONTINUOUS
 62
     7
 10
50.94188659322753
 20
183.3499999999998
 30
0.0
 11
51.758141571295702
 21
183.3499999999998
 31
0.0
1001
PHOENIX7010
1002
{
1070
    41
1040
1.0
1002
}
  0
LINE
  5
38C4
  8
0
  6
CONTINUOUS
 62
     7
 10
50.999999999999993
 20
185.65000000000001
 30
0.0
 11
51.758141571295702
 21
185.65000000000001
 31
0.0
1001
PHOENIX7010
1002
{
1070
    41
1040
1.0
1002
}
  0
ARC
  5
38C5
  8
0
  6
CONTINUOUS
 62
     7
 10
53.00000000000022
 20
181.2000000000001
 30
0.0
 40
0.3
 50
90.0
 51
180.0
1001
PHOENIX7010
1002
{
1070
    41
1040
1.0
1002
}
  0
ARC
  5
38C6
  8
0
  6
CONTINUOUS
 62
     7
 10
50.94188659322753
 20
182.8499999999998
 30
0.0
 40
0.5
 50
90.0
 51
187.4999999999861
1001
PHOENIX7010
1002
{
1070
    41
1040
1.0
1002
}
  0
ARC
  5
38C7
  8
0
  6
CONTINUOUS
 62
     7
 10
52.400000000000091
 20
178.59999999999999
 30
0.0
 40
0.3
 50
270.0
 51
0.0
1001
PHOENIX7010
1002
{
1070
    41
1040
1.0
1002
}
  0
ARC
  5
38C8
  8
0
  6
CONTINUOUS
 62
     7
 10
51.475079208455092
 20
178.80000000000001
 30
0.0
 40
0.5
 50
187.4999999999861
 51
270.0
1001
PHOENIX7010
1002
{
1070
    41
1040
1.0
1002
}
  0
LINE
  5
38C9
  8
0
  6
CONTINUOUS
 62
     7
 10
52.400000000000091
 20
178.3000000000001
 30
0.0
 11
51.475079208455092
 21
178.3000000000001
 31
0.0
1001
PHOENIX7010
1002
{
1070
    41
1040
1.0
1002
}
  0
LINE
  5
38CA
  8
0
  6
CONTINUOUS
 62
     7
 10
50.446164162540057
 20
182.78473690388989
 30
0.0
 11
50.979356777768309
 21
178.73473690389011
 31
0.0
1001
PHOENIX7010
1002
{
1070
    41
1040
1.0
1002
}
  0
LINE
  5
38CB
  8
0
  6
CONTINUOUS
 62
     7
 10
52.700000000000038
 20
178.59999999999999
 30
0.0
 11
52.700000000000038
 21
181.2000000000001
 31
0.0
1001
PHOENIX7010
1002
{
1070
    41
1040
1.0
1002
}
  0
ARC
  5
38CC
  8
0
  6
CONTINUOUS
 62
     7
 10
53.75
 20
184.49999999999989
 30
0.0
 40
1.400000000000005
 50
209.9999999999973
 51
150.0000000000027
1001
PHOENIX7010
1002
{
1070
    41
1040
1.0
1002
}
  0
LINE
  5
38CD
  8
0
  6
CONTINUOUS
 62
     7
 10
55.050000000000168
 20
181.50000000000011
 30
0.0
 11
52.999999999999993
 21
181.50000000000011
 31
0.0
1001
PHOENIX7010
1002
{
1070
    41
1040
1.0
1002
}
  0
ARC
  5
38CE
  8
0
  6
CONTINUOUS
 62
     7
 10
50.999999999999993
 20
186.65000000000001
 30
0.0
 40
1.0
 50
180.0
 51
270.0
1001
PHOENIX7010
1002
{
1070
    41
1040
1.0
1002
}
  0
LINE
  5
38CF
  8
0
  6
ACAD_ISO04W100
 62
     1
 10
53.75
 20
179.50000000000011
 30
0.0
 11
53.75
 21
189.49999999999989
 31
0.0
1001
PHOENIX7010
1002
{
1070
    41
1040
1.0
1002
}
  0
LINE
  5
38D0
  8
0
  6
CONTINUOUS
 62
     7
 10
55.350000000000129
 20
202.99999999999989
 30
0.0
 11
54.350000000000122
 21
202.99999999999989
 31
0.0
1001
PHOENIX7010
1002
{
1070
    41
1040
1.0
1002
}
  0
LINE
  5
38D1
  8
0
  6
CONTINUOUS
 62
     7
 10
54.350000000000122
 20
202.99999999999989
 30
0.0
 11
54.350000000000122
 21
203.99999999999989
 31
0.0
1001
PHOENIX7010
1002
{
1070
    41
1040
1.0
1002
}
  0
LINE
  5
38D2
  8
0
  6
CONTINUOUS
 62
     7
 10
54.350000000000122
 20
194.93397459622591
 30
0.0
 11
53.850000000000129
 21
195.79999999999981
 31
0.0
1001
PHOENIX7010
1002
{
1070
    41
1040
1.0
1002
}
  0
LINE
  5
38D3
  8
0
  6
CONTINUOUS
 62
     7
 10
55.049999999999947
 20
191.49999999999969
 30
0.0
 11
54.650000000000311
 21
191.49999999999969
 31
0.0
1001
PHOENIX7010
1002
{
1070
    41
1040
1.0
1002
}
  0
ARC
  5
38D4
  8
0
  6
CONTINUOUS
 62
     7
 10
55.050000000000168
 20
191.1999999999997
 30
0.0
 40
0.3
 50
0.0
 51
90.0
1001
PHOENIX7010
1002
{
1070
    41
1040
1.0
1002
}
  0
ARC
  5
38D5
  8
0
  6
CONTINUOUS
 62
     7
 10
54.650000000000077
 20
191.7999999999997
 30
0.0
 40
0.3
 50
180.0
 51
270.0
1001
PHOENIX7010
1002
{
1070
    41
1040
1.0
1002
}
  0
LINE
  5
38D6
  8
0
  6
CONTINUOUS
 62
     7
 10
54.350000000000122
 20
191.79999999999961
 30
0.0
 11
54.350000000000122
 21
194.93397459622591
 31
0.0
1001
PHOENIX7010
1002
{
1070
    41
1040
1.0
1002
}
  0
LINE
  5
38D7
  8
0
  6
CONTINUOUS
 62
     7
 10
55.850000000000129
 20
193.49999999999989
 30
0.0
 11
55.850000000000129
 21
200.49999999999989
 31
0.0
1001
PHOENIX7010
1002
{
1070
    41
1040
1.0
1002
}
  0
LINE
  5
38D8
  8
0
  6
CONTINUOUS
 62
     7
 10
53.849999999999902
 20
195.8000000000003
 30
0.0
 11
53.849999999999902
 21
201.13397459621581
 31
0.0
1001
PHOENIX7010
1002
{
1070
    41
1040
1.0
1002
}
  0
LINE
  5
38D9
  8
0
  6
CONTINUOUS
 62
     7
 10
53.350000000000129
 20
202.99999999999989
 30
0.0
 11
53.350000000000129
 21
203.99999999999989
 31
0.0
1001
PHOENIX7010
1002
{
1070
    41
1040
1.0
1002
}
  0
LINE
  5
38DA
  8
0
  6
CONTINUOUS
 62
     7
 10
51.400000000000077
 20
190.6999999999997
 30
0.0
 11
50.999999999999993
 21
190.6999999999997
 31
0.0
1001
PHOENIX7010
1002
{
1070
    41
1040
1.0
1002
}
  0
LINE
  5
38DB
  8
0
  6
CONTINUOUS
 62
     7
 10
53.350000000000129
 20
202.99999999999989
 30
0.0
 11
53.849999999999902
 21
201.13397459621581
 31
0.0
1001
PHOENIX7010
1002
{
1070
    41
1040
1.0
1002
}
  0
LINE
  5
38DC
  8
0
  6
CONTINUOUS
 62
     7
 10
53.350000000000129
 20
203.99999999999989
 30
0.0
 11
54.350000000000122
 21
203.99999999999989
 31
0.0
1001
PHOENIX7010
1002
{
1070
    41
1040
1.0
1002
}
  0
LINE
  5
38DD
  8
0
  6
CONTINUOUS
 62
     7
 10
56.850000000000122
 20
192.49999999999989
 30
0.0
 11
56.850000000000122
 21
176.29999999999981
 31
0.0
1001
PHOENIX7010
1002
{
1070
    41
1040
1.0
1002
}
  0
ARC
  5
38DE
  8
0
  6
CONTINUOUS
 62
     7
 10
70.248889300107294
 20
179.50000000000011
 30
0.0
 40
0.3
 50
29.999999999997289
 51
90.0
1001
PHOENIX7010
1002
{
1070
    41
1040
1.0
1002
}
  0
ARC
  5
38DF
  8
0
  6
CONTINUOUS
 62
     7
 10
71.750000000000682
 20
177.49999999999989
 30
0.0
 40
1.3999999999998971
 50
130.16424862174119
 51
49.835751378258742
1001
PHOENIX7010
1002
{
1070
    41
1040
1.0
1002
}
  0
LINE
  5
38E0
  8
0
  6
CONTINUOUS
 62
     7
 10
78.350000000000819
 20
174.49999999999989
 30
0.0
 11
57.150000000000077
 21
174.49999999999989
 31
0.0
1001
PHOENIX7010
1002
{
1070
    41
1040
1.0
1002
}
  0
LINE
  5
38E1
  8
0
  6
ACAD_ISO04W100
 62
     1
 10
76.750000000000796
 20
177.49999999999989
 30
0.0
 11
66.750000000000682
 21
177.49999999999989
 31
0.0
1001
PHOENIX7010
1002
{
1070
    41
1040
1.0
1002
}
  0
ARC
  5
38E2
  8
0
  6
CONTINUOUS
 62
     7
 10
71.750000000000682
 20
177.49999999999989
 30
0.0
 40
3.0
 50
132.20544640369559
 51
179.99999999997391
1001
PHOENIX7010
1002
{
1070
    41
1040
1.0
1002
}
  0
ARC
  5
38E3
  8
0
  6
CONTINUOUS
 62
     7
 10
69.936164285281166
 20
179.50000000000011
 30
0.0
 40
0.3
 50
90.0
 51
132.20544640367731
1001
PHOENIX7010
1002
{
1070
    41
1040
1.0
1002
}
  0
LINE
  5
38E4
  8
0
  6
CONTINUOUS
 62
     7
 10
66.550000000000864
 20
175.9999999999996
 30
0.0
 11
68.750000000000682
 21
175.99999999999989
 31
0.0
1001
PHOENIX7010
1002
{
1070
    41
1040
1.0
1002
}
  0
LINE
  5
38E5
  8
0
  6
CONTINUOUS
 62
     7
 10
66.550000000000864
 20
175.9999999999996
 30
0.0
 11
66.550000000000637
 21
177.4999999999996
 31
0.0
1001
PHOENIX7010
1002
{
1070
    41
1040
1.0
1002
}
  0
LINE
  5
38E6
  8
0
  6
CONTINUOUS
 62
     7
 10
68.750000000000682
 20
177.49999999999989
 30
0.0
 11
68.750000000000682
 21
175.99999999999989
 31
0.0
1001
PHOENIX7010
1002
{
1070
    41
1040
1.0
1002
}
  0
LINE
  5
38E7
  8
0
  6
CONTINUOUS
 62
     7
 10
63.350000000000811
 20
177.4999999999996
 30
0.0
 11
62.350000000000811
 21
177.4999999999996
 31
0.0
1001
PHOENIX7010
1002
{
1070
    41
1040
1.0
1002
}
  0
LINE
  5
38E8
  8
0
  6
CONTINUOUS
 62
     7
 10
65.550000000000864
 20
175.9999999999996
 30
0.0
 11
63.350000000000811
 21
175.99999999999989
 31
0.0
1001
PHOENIX7010
1002
{
1070
    41
1040
1.0
1002
}
  0
LINE
  5
38E9
  8
0
  6
CONTINUOUS
 62
     7
 10
62.350000000000811
 20
175.9999999999996
 30
0.0
 11
62.350000000000811
 21
177.4999999999996
 31
0.0
1001
PHOENIX7010
1002
{
1070
    41
1040
1.0
1002
}
  0
LINE
  5
38EA
  8
0
  6
CONTINUOUS
 62
     7
 10
63.350000000000811
 20
175.99999999999989
 30
0.0
 11
63.350000000000811
 21
177.4999999999996
 31
0.0
1001
PHOENIX7010
1002
{
1070
    41
1040
1.0
1002
}
  0
LINE
  5
38EB
  8
0
  6
CONTINUOUS
 62
     7
 10
65.550000000000864
 20
175.9999999999996
 30
0.0
 11
65.550000000000864
 21
177.4999999999996
 31
0.0
1001
PHOENIX7010
1002
{
1070
    41
1040
1.0
1002
}
  0
LINE
  5
38EC
  8
0
  6
CONTINUOUS
 62
     7
 10
66.550000000000637
 20
177.4999999999996
 30
0.0
 11
65.550000000000864
 21
177.4999999999996
 31
0.0
1001
PHOENIX7010
1002
{
1070
    41
1040
1.0
1002
}
  0
LINE
  5
38ED
  8
0
  6
CONTINUOUS
 62
     7
 10
60.150000000000759
 20
177.49999999999989
 30
0.0
 11
59.150000000000773
 21
177.49999999999989
 31
0.0
1001
PHOENIX7010
1002
{
1070
    41
1040
1.0
1002
}
  0
LINE
  5
38EE
  8
0
  6
CONTINUOUS
 62
     7
 10
59.150000000000773
 20
175.99999999999989
 30
0.0
 11
59.150000000000773
 21
177.49999999999989
 31
0.0
1001
PHOENIX7010
1002
{
1070
    41
1040
1.0
1002
}
  0
LINE
  5
38EF
  8
0
  6
CONTINUOUS
 62
     7
 10
60.150000000001
 20
175.99999999999989
 30
0.0
 11
60.150000000000759
 21
177.49999999999989
 31
0.0
1001
PHOENIX7010
1002
{
1070
    41
1040
1.0
1002
}
  0
ARC
  5
38F0
  8
0
  6
CONTINUOUS
 62
     7
 10
57.150000000000077
 20
176.29999999999981
 30
0.0
 40
0.3
 50
180.0
 51
270.0
1001
PHOENIX7010
1002
{
1070
    41
1040
1.0
1002
}
  0
LINE
  5
38F1
  8
0
  6
CONTINUOUS
 62
     7
 10
59.150000000000773
 20
175.99999999999989
 30
0.0
 11
57.150000000000077
 21
175.99999999999989
 31
0.0
1001
PHOENIX7010
1002
{
1070
    41
1040
1.0
1002
}
  0
LINE
  5
38F2
  8
0
  6
CONTINUOUS
 62
     7
 10
62.350000000000811
 20
175.9999999999996
 30
0.0
 11
60.150000000001
 21
175.99999999999989
 31
0.0
1001
PHOENIX7010
1002
{
1070
    41
1040
1.0
1002
}
  0
LINE
  5
38F3
  8
0
  6
CONTINUOUS
 62
     7
 10
70.248889300107294
 20
179.80000000000001
 30
0.0
 11
69.936164285281166
 21
179.80000000000001
 31
0.0
1001
PHOENIX7010
1002
{
1070
    41
1040
1.0
1002
}
  0
LINE
  5
38F4
  8
0
  6
CONTINUOUS
 62
     7
 10
79.350000000000819
 20
176.99999999999989
 30
0.0
 11
79.350000000000819
 21
175.99999999999989
 31
0.0
1001
PHOENIX7010
1002
{
1070
    41
1040
1.0
1002
}
  0
ARC
  5
38F5
  8
0
  6
CONTINUOUS
 62
     7
 10
78.350000000000819
 20
175.99999999999989
 30
0.0
 40
0.9999999999998578
 50
297.48642625035728
 51
0.0
1001
PHOENIX7010
1002
{
1070
    41
1040
1.0
1002
}
  0
ARC
  5
38F6
  8
0
  6
CONTINUOUS
 62
     7
 10
78.950000000000728
 20
174.84674374053191
 30
0.0
 40
0.3
 50
117.4864262503573
 51
180.0
1001
PHOENIX7010
1002
{
1070
    41
1040
1.0
1002
}
  0
LINE
  5
38F7
  8
0
  6
CONTINUOUS
 62
     7
 10
78.650000000000773
 20
174.84674374053191
 30
0.0
 11
78.650000000000773
 21
174.80000000000001
 31
0.0
1001
PHOENIX7010
1002
{
1070
    41
1040
1.0
1002
}
  0
ARC
  5
38F8
  8
0
  6
CONTINUOUS
 62
     7
 10
78.850000000000819
 20
176.99999999999989
 30
0.0
 40
0.5
 50
0.0
 51
89.999999999973952
1001
PHOENIX7010
1002
{
1070
    41
1040
1.0
1002
}
  0
LINE
  5
38F9
  8
0
  6
CONTINUOUS
 62
     7
 10
74.63617393793038
 20
178.80000000000001
 30
0.0
 11
75.850000000001046
 21
178.80000000000001
 31
0.0
1001
PHOENIX7010
1002
{
1070
    41
1040
1.0
1002
}
  0
ARC
  5
38FA
  8
0
  6
CONTINUOUS
 62
     7
 10
74.63617393793038
 20
179.09999999999999
 30
0.0
 40
0.3
 50
209.00254602670211
 51
270.0
1001
PHOENIX7010
1002
{
1070
    41
1040
1.0
1002
}
  0
ARC
  5
38FB
  8
0
  6
CONTINUOUS
 62
     7
 10
75.850000000001046
 20
178.26491106406809
 30
0.0
 40
0.3
 50
256.65763620289607
 51
0.0
1001
PHOENIX7010
1002
{
1070
    41
1040
1.0
1002
}
  0
LINE
  5
38FC
  8
0
  6
CONTINUOUS
 62
     7
 10
76.150000000001
 20
178.26491106406809
 30
0.0
 11
76.150000000001
 21
178.50000000000011
 31
0.0
1001
PHOENIX7010
1002
{
1070
    41
1040
1.0
1002
}
  0
ARC
  5
38FD
  8
0
  6
CONTINUOUS
 62
     7
 10
75.850000000001046
 20
178.50000000000011
 30
0.0
 40
0.3
 50
0.0
 51
90.0
1001
PHOENIX7010
1002
{
1070
    41
1040
1.0
1002
}
  0
LINE
  5
38FE
  8
0
  6
CONTINUOUS
 62
     7
 10
75.550000000001091
 20
175.99999999999989
 30
0.0
 11
78.050000000000864
 21
175.99999999999989
 31
0.0
1001
PHOENIX7010
1002
{
1070
    41
1040
1.0
1002
}
  0
ARC
  5
38FF
  8
0
  6
CONTINUOUS
 62
     7
 10
75.550000000000864
 20
177.0000000000008
 30
0.0
 40
1.0
 50
76.657636202921651
 51
270.0
1001
PHOENIX7010
1002
{
1070
    41
1040
1.0
1002
}
  0
LINE
  5
3900
  8
0
  6
CONTINUOUS
 62
     7
 10
78.350000000001046
 20
176.30000000000001
 30
0.0
 11
78.350000000000819
 21
177.49999999999989
 31
0.0
1001
PHOENIX7010
1002
{
1070
    41
1040
1.0
1002
}
  0
ARC
  5
3901
  8
0
  6
CONTINUOUS
 62
     7
 10
73.563835714720653
 20
179.4999999999996
 30
0.0
 40
0.3
 50
47.794553596285837
 51
90.0
1001
PHOENIX7010
1002
{
1070
    41
1040
1.0
1002
}
  0
LINE
  5
3902
  8
0
  6
CONTINUOUS
 62
     7
 10
73.563835714720881
 20
179.79999999999981
 30
0.0
 11
73.251110699893843
 21
179.79999999999981
 31
0.0
1001
PHOENIX7010
1002
{
1070
    41
1040
1.0
1002
}
  0
ARC
  5
3903
  8
0
  6
CONTINUOUS
 62
     7
 10
73.251110699893616
 20
179.49999999999989
 30
0.0
 40
0.3
 50
89.999999999973952
 51
149.99999999998491
1001
PHOENIX7010
1002
{
1070
    41
1040
1.0
1002
}
  0
LINE
  5
3904
  8
0
  6
CONTINUOUS
 62
     7
 10
72.586660026532172
 20
178.94913767461469
 30
0.0
 11
72.991303078758392
 21
179.64999999999989
 31
0.0
1001
PHOENIX7010
1002
{
1070
    41
1040
1.0
1002
}
  0
ARC
  5
3905
  8
0
  6
CONTINUOUS
 62
     7
 10
72.846467647667851
 20
178.7991376746148
 30
0.0
 40
0.2999999999999998
 50
150.0000000000027
 51
229.83575137825869
1001
PHOENIX7010
1002
{
1070
    41
1040
1.0
1002
}
  0
ARC
  5
3906
  8
0
  6
CONTINUOUS
 62
     7
 10
70.653532352333286
 20
178.7991376746146
 30
0.0
 40
0.2999999999999998
 50
310.16424862174119
 51
29.999999999997289
1001
PHOENIX7010
1002
{
1070
    41
1040
1.0
1002
}
  0
LINE
  5
3907
  8
0
  6
CONTINUOUS
 62
     7
 10
70.913339973468737
 20
178.94913767461469
 30
0.0
 11
70.508696921242745
 21
179.6500000000002
 31
0.0
1001
PHOENIX7010
1002
{
1070
    41
1040
1.0
1002
}
  0
LINE
  5
3908
  8
0
  6
ACAD_ISO04W100
 62
     1
 10
71.750000000000682
 20
172.49999999999989
 30
0.0
 11
71.750000000000682
 21
182.49999999999989
 31
0.0
1001
PHOENIX7010
1002
{
1070
    41
1040
1.0
1002
}
  0
ARC
  5
3909
  8
0
  6
CONTINUOUS
 62
     7
 10
71.750000000000682
 20
177.49999999999989
 30
0.0
 40
3.0
 50
29.002546026702039
 51
47.794553596285837
1001
PHOENIX7010
1002
{
1070
    41
1040
1.0
1002
}
  0
LINE
  5
390A
  8
0
  6
CONTINUOUS
 62
     7
 10
78.850000000000819
 20
177.49999999999989
 30
0.0
 11
78.350000000000819
 21
177.49999999999989
 31
0.0
1001
PHOENIX7010
1002
{
1070
    41
1040
1.0
1002
}
  0
ARC
  5
390B
  8
0
  6
CONTINUOUS
 62
     7
 10
78.050000000000864
 20
176.30000000000001
 30
0.0
 40
0.3
 50
270.0
 51
0.0
1001
PHOENIX7010
1002
{
1070
    41
1040
1.0
1002
}
  0
ARC
  5
390C
  8
0
  6
CONTINUOUS
 62
     7
 10
78.350000000000819
 20
174.80000000000001
 30
0.0
 40
0.3
 50
270.0
 51
0.0
1001
PHOENIX7010
1002
{
1070
    41
1040
1.0
1002
}
  0
LINE
  5
390D
  8
0
  6
CONTINUOUS
 62
     7
 10
55.850000000000129
 20
230.49999999999989
 30
0.0
 11
56.850000000000122
 21
231.49999999999989
 31
0.0
1001
PHOENIX7010
1002
{
1070
    41
1040
1.0
1002
}
  0
LINE
  5
390E
  8
0
  6
CONTINUOUS
 62
     7
 10
55.850000000000129
 20
223.49999999999989
 30
0.0
 11
56.850000000000122
 21
222.49999999999989
 31
0.0
1001
PHOENIX7010
1002
{
1070
    41
1040
1.0
1002
}
  0
LINE
  5
390F
  8
0
  6
CONTINUOUS
 62
     7
 10
78.350000000000819
 20
249.4999999999998
 30
0.0
 11
51.650000000000077
 21
249.4999999999998
 31
0.0
1001
PHOENIX7010
1002
{
1070
    41
1040
1.0
1002
}
  0
LINE
  5
3910
  8
0
  6
ACAD_ISO04W100
 62
     1
 10
58.850000000000129
 20
239.49999999999989
 30
0.0
 11
48.64999999999997
 21
239.49999999999989
 31
0.0
1001
PHOENIX7010
1002
{
1070
    41
1040
1.0
1002
}
  0
ARC
  5
3911
  8
0
  6
CONTINUOUS
 62
     7
 10
51.50000000000022
 20
241.14544826719009
 30
0.0
 40
0.3
 50
180.0
 51
240.00000000000281
1001
PHOENIX7010
1002
{
1070
    41
1040
1.0
1002
}
  0
LINE
  5
3912
  8
0
  6
ACAD_ISO04W100
 62
     1
 10
53.75
 20
234.49999999999989
 30
0.0
 11
53.75
 21
244.4999999999998
 31
0.0
1001
PHOENIX7010
1002
{
1070
    41
1040
1.0
1002
}
  0
LINE
  5
3915
  8
0
  6
CONTINUOUS
 62
     7
 10
55.350000000000129
 20
220.99999999999989
 30
0.0
 11
54.350000000000122
 21
220.99999999999989
 31
0.0
1001
PHOENIX7010
1002
{
1070
    41
1040
1.0
1002
}
  0
LINE
  5
3916
  8
0
  6
CONTINUOUS
 62
     7
 10
55.850000000000129
 20
230.49999999999989
 30
0.0
 11
55.850000000000129
 21
223.49999999999989
 31
0.0
1001
PHOENIX7010
1002
{
1070
    41
1040
1.0
1002
}
  0
LINE
  5
3917
  8
0
  6
CONTINUOUS
 62
     7
 10
53.849999999999902
 20
229.64999999999989
 30
0.0
 11
53.849999999999902
 21
222.86602540378399
 31
0.0
1001
PHOENIX7010
1002
{
1070
    41
1040
1.0
1002
}
  0
LINE
  5
3918
  8
0
  6
CONTINUOUS
 62
     7
 10
54.350000000000122
 20
220.99999999999989
 30
0.0
 11
54.350000000000122
 21
219.99999999999989
 31
0.0
1001
PHOENIX7010
1002
{
1070
    41
1040
1.0
1002
}
  0
ARC
  5
391A
  8
0
  6
CONTINUOUS
 62
     7
 10
52.450862325381188
 20
240.5964676476691
 30
0.0
 40
0.3
 50
240.00000000000281
 51
319.83575137828711
1001
PHOENIX7010
1002
{
1070
    41
1040
1.0
1002
}
  0
ARC
  5
391B
  8
0
  6
CONTINUOUS
 62
     7
 10
52.450862325381188
 20
238.40353235233059
 30
0.0
 40
0.3
 50
40.164248621712957
 51
119.9999999999971
1001
PHOENIX7010
1002
{
1070
    41
1040
1.0
1002
}
  0
LINE
  5
391C
  8
0
  6
CONTINUOUS
 62
     7
 10
52.30086232538121
 20
240.33666002653371
 30
0.0
 11
51.350000000000129
 21
240.8856406460549
 31
0.0
1001
PHOENIX7010
1002
{
1070
    41
1040
1.0
1002
}
  0
LINE
  5
391F
  8
0
  6
CONTINUOUS
 62
     7
 10
52.300862325381317
 20
238.6633399734659
 30
0.0
 11
51.500000000000107
 21
238.2009618943234
 31
0.0
1001
PHOENIX7010
1002
{
1070
    41
1040
1.0
1002
}
  0
LINE
  5
3920
  8
0
  6
CONTINUOUS
 62
     7
 10
51.200000000000038
 20
228.4499999999999
 30
0.0
 11
52.252943725152363
 21
228.4499999999999
 31
0.0
1001
PHOENIX7010
1002
{
1070
    41
1040
1.0
1002
}
  0
LINE
  5
3922
  8
0
  6
CONTINUOUS
 62
     7
 10
52.749999999999993
 20
229.65000000000001
 30
0.0
 11
52.252943725152363
 21
228.4499999999999
 31
0.0
1001
PHOENIX7010
1002
{
1070
    41
1040
1.0
1002
}
  0
LINE
  5
3923
  8
0
  6
CONTINUOUS
 62
     7
 10
53.350000000000129
 20
220.99999999999989
 30
0.0
 11
53.350000000000129
 21
219.99999999999989
 31
0.0
1001
PHOENIX7010
1002
{
1070
    41
1040
1.0
1002
}
  0
LINE
  5
3925
  8
0
  6
CONTINUOUS
 62
     7
 10
52.749999999999993
 20
229.65000000000001
 30
0.0
 11
53.849999999999902
 21
229.64999999999989
 31
0.0
1001
PHOENIX7010
1002
{
1070
    41
1040
1.0
1002
}
  0
LINE
  5
3926
  8
0
  6
CONTINUOUS
 62
     7
 10
53.350000000000129
 20
219.99999999999989
 30
0.0
 11
54.350000000000122
 21
219.99999999999989
 31
0.0
1001
PHOENIX7010
1002
{
1070
    41
1040
1.0
1002
}
  0
LINE
  5
3927
  8
0
  6
CONTINUOUS
 62
     7
 10
53.350000000000129
 20
220.99999999999989
 30
0.0
 11
53.849999999999902
 21
222.86602540378399
 31
0.0
1001
PHOENIX7010
1002
{
1070
    41
1040
1.0
1002
}
  0
ARC
  5
3929
  8
0
  6
CONTINUOUS
 62
     7
 10
53.75
 20
239.49999999999989
 30
0.0
 40
1.400000000000005
 50
220.16424862171289
 51
139.835751378287
1001
PHOENIX7010
1002
{
1070
    41
1040
1.0
1002
}
  0
ARC
  5
392B
  8
0
  6
CONTINUOUS
 62
     7
 10
55.050000000000168
 20
247.6999999999997
 30
0.0
 40
0.3
 50
0.0
 51
90.0
1001
PHOENIX7010
1002
{
1070
    41
1040
1.0
1002
}
  0
ARC
  5
392C
  8
0
  6
CONTINUOUS
 62
     7
 10
55.050000000000168
 20
242.7999999999999
 30
0.0
 40
0.3
 50
270.0
 51
0.0
1001
PHOENIX7010
1002
{
1070
    41
1040
1.0
1002
}
  0
LINE
  5
392D
  8
0
  6
CONTINUOUS
 62
     7
 10
55.350000000000129
 20
242.7999999999999
 30
0.0
 11
55.350000000000129
 21
247.6999999999997
 31
0.0
1001
PHOENIX7010
1002
{
1070
    41
1040
1.0
1002
}
  0
ARC
  5
392E
  8
0
  6
CONTINUOUS
 62
     7
 10
50.29999999999994
 20
248.29999999999981
 30
0.0
 40
0.3
 50
180.0
 51
270.0
1001
PHOENIX7010
1002
{
1070
    41
1040
1.0
1002
}
  0
ARC
  5
392F
  8
0
  6
CONTINUOUS
 62
     7
 10
51.650000000000077
 20
247.6999999999997
 30
0.0
 40
1.8
 50
90.0
 51
156.44353569088341
1001
PHOENIX7010
1002
{
1070
    41
1040
1.0
1002
}
  0
LINE
  5
3930
  8
0
  6
CONTINUOUS
 62
     7
 10
50.0
 20
248.29999999999981
 30
0.0
 11
50.0
 21
248.41937472849671
 31
0.0
1001
PHOENIX7010
1002
{
1070
    41
1040
1.0
1002
}
  0
ARC
  5
3931
  8
0
  6
CONTINUOUS
 62
     7
 10
52.400000000000091
 20
245.39999999999969
 30
0.0
 40
0.3
 50
0.0
 51
90.0
1001
PHOENIX7010
1002
{
1070
    41
1040
1.0
1002
}
  0
ARC
  5
3932
  8
0
  6
CONTINUOUS
 62
     7
 10
51.50000000000022
 20
245.39999999999969
 30
0.0
 40
0.3
 50
90.0
 51
180.0
1001
PHOENIX7010
1002
{
1070
    41
1040
1.0
1002
}
  0
LINE
  5
3933
  8
0
  6
CONTINUOUS
 62
     7
 10
52.400000000000091
 20
245.6999999999997
 30
0.0
 11
51.50000000000022
 21
245.6999999999997
 31
0.0
1001
PHOENIX7010
1002
{
1070
    41
1040
1.0
1002
}
  0
ARC
  5
3934
  8
0
  6
CONTINUOUS
 62
     7
 10
53.00000000000022
 20
242.79999999999961
 30
0.0
 40
0.3
 50
180.0
 51
270.0
1001
PHOENIX7010
1002
{
1070
    41
1040
1.0
1002
}
  0
LINE
  5
3935
  8
0
  6
CONTINUOUS
 62
     7
 10
51.200000000000038
 20
241.14544826719009
 30
0.0
 11
51.200000000000038
 21
245.39999999999969
 31
0.0
1001
PHOENIX7010
1002
{
1070
    41
1040
1.0
1002
}
  0
LINE
  5
3936
  8
0
  6
CONTINUOUS
 62
     7
 10
52.700000000000038
 20
245.39999999999969
 30
0.0
 11
52.700000000000038
 21
242.79999999999961
 31
0.0
1001
PHOENIX7010
1002
{
1070
    41
1040
1.0
1002
}
  0
LINE
  5
3937
  8
0
  6
CONTINUOUS
 62
     7
 10
55.050000000000168
 20
247.9999999999998
 30
0.0
 11
50.29999999999994
 21
247.9999999999998
 31
0.0
1001
PHOENIX7010
1002
{
1070
    41
1040
1.0
1002
}
  0
LINE
  5
3938
  8
0
  6
CONTINUOUS
 62
     7
 10
53.00000000000022
 20
242.49999999999989
 30
0.0
 11
55.050000000000168
 21
242.49999999999989
 31
0.0
1001
PHOENIX7010
1002
{
1070
    41
1040
1.0
1002
}
  0
LINE
  5
3939
  8
0
  6
CONTINUOUS
 62
     7
 10
56.850000000000122
 20
247.6999999999997
 30
0.0
 11
56.850000000000122
 21
231.49999999999989
 31
0.0
1001
PHOENIX7010
1002
{
1070
    41
1040
1.0
1002
}
  0
ARC
  5
393A
  8
0
  6
CONTINUOUS
 62
     7
 10
70.248889300107294
 20
244.49999999999969
 30
0.0
 40
0.3
 50
270.0
 51
330.00000000000267
1001
PHOENIX7010
1002
{
1070
    41
1040
1.0
1002
}
  0
ARC
  5
393B
  8
0
  6
CONTINUOUS
 62
     7
 10
71.750000000000682
 20
246.49999999999989
 30
0.0
 40
1.3999999999998971
 50
310.16424862174119
 51
229.83575137825869
1001
PHOENIX7010
1002
{
1070
    41
1040
1.0
1002
}
  0
LINE
  5
393C
  8
0
  6
ACAD_ISO04W100
 62
     1
 10
76.750000000000796
 20
246.49999999999989
 30
0.0
 11
66.750000000000682
 21
246.49999999999989
 31
0.0
1001
PHOENIX7010
1002
{
1070
    41
1040
1.0
1002
}
  0
LINE
  5
393D
  8
0
  6
CONTINUOUS
 62
     7
 10
66.550000000000864
 20
248.0
 30
0.0
 11
68.750000000000682
 21
247.9999999999998
 31
0.0
1001
PHOENIX7010
1002
{
1070
    41
1040
1.0
1002
}
  0
ARC
  5
393E
  8
0
  6
CONTINUOUS
 62
     7
 10
69.936164285281166
 20
244.49999999999969
 30
0.0
 40
0.3
 50
227.79455359630441
 51
270.0
1001
PHOENIX7010
1002
{
1070
    41
1040
1.0
1002
}
  0
ARC
  5
393F
  8
0
  6
CONTINUOUS
 62
     7
 10
71.750000000000682
 20
246.49999999999989
 30
0.0
 40
3.0
 50
180.0
 51
227.79455359630441
1001
PHOENIX7010
1002
{
1070
    41
1040
1.0
1002
}
  0
LINE
  5
3940
  8
0
  6
CONTINUOUS
 62
     7
 10
66.550000000000864
 20
248.0
 30
0.0
 11
66.550000000000637
 21
246.5
 31
0.0
1001
PHOENIX7010
1002
{
1070
    41
1040
1.0
1002
}
  0
LINE
  5
3941
  8
0
  6
CONTINUOUS
 62
     7
 10
68.750000000000682
 20
246.4999999999998
 30
0.0
 11
68.750000000000682
 21
247.9999999999998
 31
0.0
1001
PHOENIX7010
1002
{
1070
    41
1040
1.0
1002
}
  0
LINE
  5
3942
  8
0
  6
CONTINUOUS
 62
     7
 10
65.550000000000864
 20
248.0
 30
0.0
 11
63.350000000000811
 21
247.99999999999989
 31
0.0
1001
PHOENIX7010
1002
{
1070
    41
1040
1.0
1002
}
  0
LINE
  5
3943
  8
0
  6
CONTINUOUS
 62
     7
 10
63.350000000000811
 20
246.5
 30
0.0
 11
62.350000000000811
 21
246.5
 31
0.0
1001
PHOENIX7010
1002
{
1070
    41
1040
1.0
1002
}
  0
LINE
  5
3944
  8
0
  6
CONTINUOUS
 62
     7
 10
63.350000000000811
 20
247.99999999999989
 30
0.0
 11
63.350000000000811
 21
246.5
 31
0.0
1001
PHOENIX7010
1002
{
1070
    41
1040
1.0
1002
}
  0
LINE
  5
3945
  8
0
  6
CONTINUOUS
 62
     7
 10
62.350000000000811
 20
248.0
 30
0.0
 11
62.350000000000811
 21
246.5
 31
0.0
1001
PHOENIX7010
1002
{
1070
    41
1040
1.0
1002
}
  0
LINE
  5
3946
  8
0
  6
CONTINUOUS
 62
     7
 10
65.550000000000864
 20
248.0
 30
0.0
 11
65.550000000000864
 21
246.5
 31
0.0
1001
PHOENIX7010
1002
{
1070
    41
1040
1.0
1002
}
  0
LINE
  5
3947
  8
0
  6
CONTINUOUS
 62
     7
 10
66.550000000000637
 20
246.5
 30
0.0
 11
65.550000000000864
 21
246.5
 31
0.0
1001
PHOENIX7010
1002
{
1070
    41
1040
1.0
1002
}
  0
LINE
  5
3948
  8
0
  6
CONTINUOUS
 62
     7
 10
60.150000000000759
 20
246.49999999999989
 30
0.0
 11
59.150000000000773
 21
246.49999999999989
 31
0.0
1001
PHOENIX7010
1002
{
1070
    41
1040
1.0
1002
}
  0
LINE
  5
3949
  8
0
  6
CONTINUOUS
 62
     7
 10
59.150000000000773
 20
247.9999999999998
 30
0.0
 11
59.150000000000773
 21
246.49999999999989
 31
0.0
1001
PHOENIX7010
1002
{
1070
    41
1040
1.0
1002
}
  0
LINE
  5
394A
  8
0
  6
CONTINUOUS
 62
     7
 10
60.150000000001
 20
247.9999999999998
 30
0.0
 11
60.150000000000759
 21
246.49999999999989
 31
0.0
1001
PHOENIX7010
1002
{
1070
    41
1040
1.0
1002
}
  0
ARC
  5
394B
  8
0
  6
CONTINUOUS
 62
     7
 10
57.150000000000077
 20
247.6999999999997
 30
0.0
 40
0.3
 50
90.0
 51
180.0
1001
PHOENIX7010
1002
{
1070
    41
1040
1.0
1002
}
  0
LINE
  5
394C
  8
0
  6
CONTINUOUS
 62
     7
 10
59.150000000000773
 20
247.9999999999998
 30
0.0
 11
57.150000000000077
 21
247.9999999999998
 31
0.0
1001
PHOENIX7010
1002
{
1070
    41
1040
1.0
1002
}
  0
LINE
  5
394D
  8
0
  6
CONTINUOUS
 62
     7
 10
62.350000000000811
 20
248.0
 30
0.0
 11
60.150000000001
 21
247.9999999999998
 31
0.0
1001
PHOENIX7010
1002
{
1070
    41
1040
1.0
1002
}
  0
LINE
  5
394E
  8
0
  6
CONTINUOUS
 62
     7
 10
70.248889300107294
 20
244.1999999999997
 30
0.0
 11
69.936164285281166
 21
244.19999999999959
 31
0.0
1001
PHOENIX7010
1002
{
1070
    41
1040
1.0
1002
}
  0
ARC
  5
394F
  8
0
  6
CONTINUOUS
 62
     7
 10
78.350000000000819
 20
247.9999999999998
 30
0.0
 40
0.9999999999998578
 50
0.0
 51
62.513573749642688
1001
PHOENIX7010
1002
{
1070
    41
1040
1.0
1002
}
  0
LINE
  5
3950
  8
0
  6
CONTINUOUS
 62
     7
 10
78.650000000000773
 20
249.1532562594679
 30
0.0
 11
78.650000000000773
 21
249.19999999999959
 31
0.0
1001
PHOENIX7010
1002
{
1070
    41
1040
1.0
1002
}
  0
ARC
  5
3951
  8
0
  6
CONTINUOUS
 62
     7
 10
78.950000000000728
 20
249.1532562594679
 30
0.0
 40
0.3
 50
180.0
 51
242.51357374964269
1001
PHOENIX7010
1002
{
1070
    41
1040
1.0
1002
}
  0
ARC
  5
3952
  8
0
  6
CONTINUOUS
 62
     7
 10
78.850000000000819
 20
246.99999999999989
 30
0.0
 40
0.5
 50
270.0
 51
0.0
1001
PHOENIX7010
1002
{
1070
    41
1040
1.0
1002
}
  0
LINE
  5
3953
  8
0
  6
CONTINUOUS
 62
     7
 10
79.350000000000819
 20
246.99999999999989
 30
0.0
 11
79.350000000000819
 21
247.9999999999996
 31
0.0
1001
PHOENIX7010
1002
{
1070
    41
1040
1.0
1002
}
  0
LINE
  5
3954
  8
0
  6
CONTINUOUS
 62
     7
 10
75.550000000000864
 20
247.99999999999989
 30
0.0
 11
78.050000000000864
 21
247.9999999999998
 31
0.0
1001
PHOENIX7010
1002
{
1070
    41
1040
1.0
1002
}
  0
LINE
  5
3955
  8
0
  6
CONTINUOUS
 62
     7
 10
74.63617393793038
 20
245.1999999999997
 30
0.0
 11
75.850000000001046
 21
245.1999999999997
 31
0.0
1001
PHOENIX7010
1002
{
1070
    41
1040
1.0
1002
}
  0
ARC
  5
3956
  8
0
  6
CONTINUOUS
 62
     7
 10
74.63617393793038
 20
244.89999999999981
 30
0.0
 40
0.3
 50
90.0
 51
150.99745397329789
1001
PHOENIX7010
1002
{
1070
    41
1040
1.0
1002
}
  0
LINE
  5
3957
  8
0
  6
CONTINUOUS
 62
     7
 10
76.150000000001
 20
245.73508893593171
 30
0.0
 11
76.150000000001
 21
245.4999999999996
 31
0.0
1001
PHOENIX7010
1002
{
1070
    41
1040
1.0
1002
}
  0
ARC
  5
3958
  8
0
  6
CONTINUOUS
 62
     7
 10
75.850000000001046
 20
245.4999999999996
 30
0.0
 40
0.3
 50
270.0
 51
0.0
1001
PHOENIX7010
1002
{
1070
    41
1040
1.0
1002
}
  0
ARC
  5
3959
  8
0
  6
CONTINUOUS
 62
     7
 10
75.850000000001046
 20
245.73508893593171
 30
0.0
 40
0.3
 50
0.0
 51
103.34236379707831
1001
PHOENIX7010
1002
{
1070
    41
1040
1.0
1002
}
  0
ARC
  5
395A
  8
0
  6
CONTINUOUS
 62
     7
 10
75.550000000000637
 20
246.99999999999989
 30
0.0
 40
1.0
 50
90.0
 51
283.34236379707829
1001
PHOENIX7010
1002
{
1070
    41
1040
1.0
1002
}
  0
LINE
  5
395B
  8
0
  6
CONTINUOUS
 62
     7
 10
78.350000000000819
 20
247.6999999999997
 30
0.0
 11
78.350000000000819
 21
246.4999999999998
 31
0.0
1001
PHOENIX7010
1002
{
1070
    41
1040
1.0
1002
}
  0
ARC
  5
395C
  8
0
  6
CONTINUOUS
 62
     7
 10
72.846467647667851
 20
245.200862325385
 30
0.0
 40
0.2999999999999998
 50
130.16424862174119
 51
209.9999999999973
1001
PHOENIX7010
1002
{
1070
    41
1040
1.0
1002
}
  0
LINE
  5
395D
  8
0
  6
CONTINUOUS
 62
     7
 10
72.586660026532172
 20
245.05086232538511
 30
0.0
 11
72.991303078758392
 21
244.34999999999991
 31
0.0
1001
PHOENIX7010
1002
{
1070
    41
1040
1.0
1002
}
  0
LINE
  5
395E
  8
0
  6
CONTINUOUS
 62
     7
 10
73.563835714720881
 20
244.1999999999999
 30
0.0
 11
73.251110699893843
 21
244.1999999999999
 31
0.0
1001
PHOENIX7010
1002
{
1070
    41
1040
1.0
1002
}
  0
ARC
  5
395F
  8
0
  6
CONTINUOUS
 62
     7
 10
73.251110699893616
 20
244.5
 30
0.0
 40
0.3
 50
210.00000000001509
 51
270.0
1001
PHOENIX7010
1002
{
1070
    41
1040
1.0
1002
}
  0
ARC
  5
3960
  8
0
  6
CONTINUOUS
 62
     7
 10
73.563835714720653
 20
244.5
 30
0.0
 40
0.3
 50
270.0
 51
312.20544640371412
1001
PHOENIX7010
1002
{
1070
    41
1040
1.0
1002
}
  0
LINE
  5
3961
  8
0
  6
CONTINUOUS
 62
     7
 10
70.913339973468737
 20
245.0508623253852
 30
0.0
 11
70.508696921242745
 21
244.34999999999971
 31
0.0
1001
PHOENIX7010
1002
{
1070
    41
1040
1.0
1002
}
  0
ARC
  5
3962
  8
0
  6
CONTINUOUS
 62
     7
 10
70.653532352333286
 20
245.20086232538529
 30
0.0
 40
0.2999999999999998
 50
330.00000000000267
 51
49.835751378258742
1001
PHOENIX7010
1002
{
1070
    41
1040
1.0
1002
}
  0
ARC
  5
3963
  8
0
  6
CONTINUOUS
 62
     7
 10
71.750000000000682
 20
246.49999999999989
 30
0.0
 40
3.0
 50
312.20544640371412
 51
330.99745397329798
1001
PHOENIX7010
1002
{
1070
    41
1040
1.0
1002
}
  0
ARC
  5
3964
  8
0
  6
CONTINUOUS
 62
     7
 10
78.050000000000864
 20
247.6999999999997
 30
0.0
 40
0.3
 50
0.0
 51
90.0
1001
PHOENIX7010
1002
{
1070
    41
1040
1.0
1002
}
  0
LINE
  5
3965
  8
0
  6
CONTINUOUS
 62
     7
 10
78.850000000000819
 20
246.49999999999989
 30
0.0
 11
78.350000000000819
 21
246.4999999999998
 31
0.0
1001
PHOENIX7010
1002
{
1070
    41
1040
1.0
1002
}
  0
ARC
  5
3966
  8
0
  6
CONTINUOUS
 62
     7
 10
78.350000000000819
 20
249.1999999999997
 30
0.0
 40
0.3
 50
359.99999999997402
 51
90.0
1001
PHOENIX7010
1002
{
1070
    41
1040
1.0
1002
}
  0
LINE
  5
3967
  8
0
  6
ACAD_ISO04W100
 62
     1
 10
71.750000000000682
 20
241.49999999999989
 30
0.0
 11
71.750000000000682
 21
251.4999999999998
 31
0.0
1001
PHOENIX7010
1002
{
1070
    41
1040
1.0
1002
}
  0
INSERT
  5
3A2C
  8
0
  6
CONTINUOUS
 62
     1
  2
*U18
 10
0.0
 20
0.0
 30
0.0
  0
LINE
  5
3A33
  8
0
  6
CONTINUOUS
 62
     1
 10
122.28281590237469
 20
204.307722172648
 30
0.0
 11
197.51851347939919
 21
204.307722172648
 31
0.0
1001
PHOENIX7010
1002
{
1070
    41
1040
1.0
1002
}
  0
LINE
  5
3A34
  8
0
  6
CONTINUOUS
 62
     1
 10
122.28281590237469
 20
208.46772217264811
 30
0.0
 11
197.51851347939919
 21
208.46772217264811
 31
0.0
1001
PHOENIX7010
1002
{
1070
    41
1040
1.0
1002
}
  0
LINE
  5
3A35
  8
0
  6
CONTINUOUS
 62
     1
 10
122.28281590237469
 20
212.62772217264799
 30
0.0
 11
197.51851347939919
 21
212.62772217264799
 31
0.0
1001
PHOENIX7010
1002
{
1070
    41
1040
1.0
1002
}
  0
LINE
  5
3A36
  8
0
  6
CONTINUOUS
 62
     1
 10
122.28281590237469
 20
216.7877221726481
 30
0.0
 11
197.51851347939919
 21
216.7877221726481
 31
0.0
1001
PHOENIX7010
1002
{
1070
    41
1040
1.0
1002
}
  0
LINE
  5
3A37
  8
0
  6
CONTINUOUS
 62
     1
 10
122.28281590237469
 20
220.9477221726481
 30
0.0
 11
197.51851347939919
 21
220.9477221726481
 31
0.0
1001
PHOENIX7010
1002
{
1070
    41
1040
1.0
1002
}
  0
LINE
  5
3A38
  8
0
  6
CONTINUOUS
 62
     1
 10
122.28281590237469
 20
225.1077221726481
 30
0.0
 11
197.51851347939919
 21
225.1077221726481
 31
0.0
1001
PHOENIX7010
1002
{
1070
    41
1040
1.0
1002
}
  0
LINE
  5
3A39
  8
0
  6
CONTINUOUS
 62
     1
 10
122.28281590237469
 20
229.26772217264809
 30
0.0
 11
197.51851347939919
 21
229.26772217264809
 31
0.0
1001
PHOENIX7010
1002
{
1070
    41
1040
1.0
1002
}
  0
LINE
  5
3A3A
  8
0
  6
CONTINUOUS
 62
     1
 10
122.28281590237469
 20
233.42772217264809
 30
0.0
 11
197.51851347939919
 21
233.42772217264809
 31
0.0
1001
PHOENIX7010
1002
{
1070
    41
1040
1.0
1002
}
  0
INSERT
  5
3A3B
  8
0
  6
CONTINUOUS
 62
     1
  2
*U19
 10
0.0
 20
0.0
 30
0.0
  0
LINE
  5
3A4B
  8
0
  6
CONTINUOUS
 62
     1
 10
157.28281590237469
 20
200.14772217264789
 30
0.0
 11
157.28281590237469
 21
245.363842558203
 31
0.0
1001
PHOENIX7010
1002
{
1070
    41
1040
1.0
1002
}
  0
LINE
  5
3A4E
  8
0
  6
CONTINUOUS
 62
     1
 10
197.51851347939919
 20
200.14772217264789
 30
0.0
 11
197.51851347939919
 21
245.363842558203
 31
0.0
1001
PHOENIX7010
1002
{
1070
    41
1040
1.0
1002
}
  0
LINE
  5
420E
  8
0
  6
CONTINUOUS
 62
     1
 10
52.850000000000023
 20
229.50000000000011
 30
0.0
 11
52.850000000000023
 21
226.3000000000001
 31
0.0
1001
PHOENIX7010
1002
{
1070
    41
1040
1.0
1002
}
  0
LINE
  5
420F
  8
0
  6
CONTINUOUS
 62
     1
 10
52.850000000000144
 20
229.49999999999989
 30
0.0
 11
53.850000000000129
 21
229.49999999999989
 31
0.0
1001
PHOENIX7010
1002
{
1070
    41
1040
1.0
1002
}
  0
ARC
  5
4210
  8
0
  6
CONTINUOUS
 62
     1
 10
52.049999999999947
 20
226.3000000000001
 30
0.0
 40
1.7999999999999989
 50
270.0
 51
0.0
1001
PHOENIX7010
1002
{
1070
    41
1040
1.0
1002
}
  0
LINE
  5
4211
  8
0
  6
CONTINUOUS
 62
     1
 10
52.050000000000068
 20
224.49999999999989
 30
0.0
 11
48.150000000000091
 21
224.50000000000011
 31
0.0
1001
PHOENIX7010
1002
{
1070
    41
1040
1.0
1002
}
  0
LINE
  5
4212
  8
0
  6
CONTINUOUS
 62
     1
 10
52.050000000000068
 20
225.50000000000011
 30
0.0
 11
48.150000000000091
 21
225.50000000000011
 31
0.0
1001
PHOENIX7010
1002
{
1070
    41
1040
1.0
1002
}
  0
ARC
  5
4213
  8
0
  6
CONTINUOUS
 62
     1
 10
52.049999999999947
 20
226.3000000000001
 30
0.0
 40
0.8
 50
270.0
 51
0.0
1001
PHOENIX7010
1002
{
1070
    41
1040
1.0
1002
}
  0
ARC
  5
4214
  8
0
  6
CONTINUOUS
 62
     1
 10
48.150000000000091
 20
223.7000000000001
 30
0.0
 40
1.7999999999999989
 50
90.0
 51
180.0
1001
PHOENIX7010
1002
{
1070
    41
1040
1.0
1002
}
  0
ARC
  5
4215
  8
0
  6
CONTINUOUS
 62
     1
 10
48.150000000000091
 20
223.7000000000001
 30
0.0
 40
0.8
 50
90.0
 51
180.0
1001
PHOENIX7010
1002
{
1070
    41
1040
1.0
1002
}
  0
LINE
  5
4216
  8
0
  6
CONTINUOUS
 62
     1
 10
47.350000000000023
 20
200.3000000000001
 30
0.0
 11
47.350000000000023
 21
223.6999999999999
 31
0.0
1001
PHOENIX7010
1002
{
1070
    41
1040
1.0
1002
}
  0
LINE
  5
4217
  8
0
  6
CONTINUOUS
 62
     1
 10
46.350000000000023
 20
200.3000000000001
 30
0.0
 11
46.350000000000023
 21
223.7000000000001
 31
0.0
1001
PHOENIX7010
1002
{
1070
    41
1040
1.0
1002
}
  0
ARC
  5
4218
  8
0
  6
CONTINUOUS
 62
     1
 10
48.150000000000091
 20
200.3000000000001
 30
0.0
 40
1.8000000000000109
 50
180.0
 51
270.0
1001
PHOENIX7010
1002
{
1070
    41
1040
1.0
1002
}
  0
ARC
  5
4219
  8
0
  6
CONTINUOUS
 62
     1
 10
48.150000000000091
 20
200.3000000000001
 30
0.0
 40
0.8000000000000112
 50
180.0
 51
270.0
1001
PHOENIX7010
1002
{
1070
    41
1040
1.0
1002
}
  0
LINE
  5
421A
  8
0
  6
CONTINUOUS
 62
     1
 10
52.050000000000068
 20
199.50000000000011
 30
0.0
 11
48.14999999999997
 21
199.50000000000011
 31
0.0
1001
PHOENIX7010
1002
{
1070
    41
1040
1.0
1002
}
  0
LINE
  5
421B
  8
0
  6
CONTINUOUS
 62
     1
 10
52.049999999999947
 20
198.50000000000011
 30
0.0
 11
48.150000000000091
 21
198.50000000000011
 31
0.0
1001
PHOENIX7010
1002
{
1070
    41
1040
1.0
1002
}
  0
ARC
  5
421C
  8
0
  6
CONTINUOUS
 62
     1
 10
52.049999999999947
 20
197.6999999999999
 30
0.0
 40
1.8000000000000109
 50
0.0
 51
90.0
1001
PHOENIX7010
1002
{
1070
    41
1040
1.0
1002
}
  0
ARC
  5
421D
  8
0
  6
CONTINUOUS
 62
     1
 10
52.049999999999947
 20
197.6999999999999
 30
0.0
 40
0.8000000000000112
 50
0.0
 51
90.0
1001
PHOENIX7010
1002
{
1070
    41
1040
1.0
1002
}
  0
LINE
  5
421E
  8
0
  6
CONTINUOUS
 62
     1
 10
52.850000000000144
 20
194.50000000000011
 30
0.0
 11
52.850000000000023
 21
197.6999999999999
 31
0.0
1001
PHOENIX7010
1002
{
1070
    41
1040
1.0
1002
}
  0
LINE
  5
421F
  8
0
  6
CONTINUOUS
 62
     1
 10
53.850000000000023
 20
195.8000000000003
 30
0.0
 11
53.850000000000023
 21
194.50000000000011
 31
0.0
1001
PHOENIX7010
1002
{
1070
    41
1040
1.0
1002
}
  0
LINE
  5
4220
  8
0
  6
CONTINUOUS
 62
     1
 10
52.850000000000144
 20
194.50000000000011
 30
0.0
 11
53.850000000000023
 21
194.50000000000011
 31
0.0
1001
PHOENIX7010
1002
{
1070
    41
1040
1.0
1002
}
  0
INSERT
  5
4221
  8
0
  6
CONTINUOUS
 62
     1
  2
PH_GRPBLK
 10
52.850000000000023
 20
229.50000000000011
 30
0.0
1001
PHOENIX7010
1002
{
1070
    41
1040
1.0
1002
}
  0
LINE
  5
4224
  8
0
 62
     1
 10
47.424999999999727
 20
185.5126682220619
 30
0.0
 11
48.438724231422718
 21
177.81266822206231
 31
0.0
1001
PHOENIX7010
1002
{
1070
    41
1040
1.0
1002
}
  0
LINE
  5
4225
  8
0
 62
     1
 10
48.767855475391109
 20
175.31266822206231
 30
0.0
 11
48.438724231422611
 21
177.81266822206231
 31
0.0
1001
PHOENIX7010
1002
{
1070
    41
1040
1.0
1002
}
  0
LINE
  5
4227
  8
0
 62
     1
 10
48.767855475391109
 20
175.31266822206231
 30
0.0
 11
51.289427876841501
 21
175.31266822206231
 31
0.0
1001
PHOENIX7010
1002
{
1070
    41
1040
1.0
1002
}
  0
LINE
  5
422C
  8
0
 62
     1
 10
51.775000000000091
 20
188.6126682220623
 30
0.0
 11
51.775000000000091
 21
187.49999999999989
 31
0.0
1001
PHOENIX7010
1002
{
1070
    41
1040
1.0
1002
}
  0
LINE
  5
422D
  8
0
 62
     1
 10
55.275000000000091
 20
187.49999999999989
 30
0.0
 11
55.275000000000091
 21
189.89999999999981
 31
0.0
1001
PHOENIX7010
1002
{
1070
    41
1040
1.0
1002
}
  0
LINE
  5
4230
  8
0
 62
     1
 10
54.275000000000091
 20
194.50000000000011
 30
0.0
 11
54.275000000000091
 21
194.5126682220619
 31
0.0
1001
PHOENIX7010
1002
{
1070
    41
1040
1.0
1002
}
  0
ARC
  5
4231
  8
0
 62
     1
 10
51.475000000000144
 20
191.91266822206191
 30
0.0
 40
0.3
 50
80.651620648430452
 51
90.000000000091191
1001
PHOENIX7010
1002
{
1070
    41
1040
1.0
1002
}
  0
ARC
  5
4232
  8
0
 62
     1
 10
51.475000000000144
 20
191.91266822206191
 30
0.0
 40
0.3
 50
0.0
 51
40.337308889287058
1001
PHOENIX7010
1002
{
1070
    41
1040
1.0
1002
}
  0
ARC
  5
4233
  8
0
 62
     1
 10
54.575000000000159
 20
191.31266822206189
 30
0.0
 40
0.3
 50
180.0
 51
270.0
1001
PHOENIX7010
1002
{
1070
    41
1040
1.0
1002
}
  0
LINE
  5
4234
  8
0
 62
     1
 10
54.97500000000025
 20
191.0126682220619
 30
0.0
 11
54.575000000000159
 21
191.0126682220619
 31
0.0
1001
PHOENIX7010
1002
{
1070
    41
1040
1.0
1002
}
  0
LINE
  5
4235
  8
0
 62
     1
 10
55.274999999999743
 20
190.7126682220624
 30
0.0
 11
54.97500000000025
 21
191.0126682220619
 31
0.0
1001
PHOENIX7010
1002
{
1070
    41
1040
1.0
1002
}
  0
LINE
  5
4236
  8
0
 62
     1
 10
55.274999999999743
 20
189.31266822206209
 30
0.0
 11
55.274999999999743
 21
190.7126682220624
 31
0.0
1001
PHOENIX7010
1002
{
1070
    41
1040
1.0
1002
}
  0
LINE
  5
4237
  8
0
 62
     1
 10
55.275000000000091
 20
180.71266822206221
 30
0.0
 11
55.275000000000091
 21
175.31266822206231
 31
0.0
1001
PHOENIX7010
1002
{
1070
    41
1040
1.0
1002
}
  0
ARC
  5
4238
  8
0
 62
     1
 10
52.475000000000129
 20
178.1126682220623
 30
0.0
 40
0.3
 50
270.0
 51
0.0
1001
PHOENIX7010
1002
{
1070
    41
1040
1.0
1002
}
  0
LINE
  5
4239
  8
0
 62
     1
 10
52.775000000000091
 20
178.1126682220623
 30
0.0
 11
52.775000000000091
 21
180.71266822206221
 31
0.0
1001
PHOENIX7010
1002
{
1070
    41
1040
1.0
1002
}
  0
LINE
  5
423A
  8
0
 62
     1
 10
52.775000000000091
 20
180.71266822206221
 30
0.0
 11
53.075000000000159
 21
181.01266822206239
 31
0.0
1001
PHOENIX7010
1002
{
1070
    41
1040
1.0
1002
}
  0
LINE
  5
423B
  8
0
 62
     1
 10
53.075000000000159
 20
181.01266822206239
 30
0.0
 11
54.975000000000129
 21
181.01266822206239
 31
0.0
1001
PHOENIX7010
1002
{
1070
    41
1040
1.0
1002
}
  0
LINE
  5
423C
  8
0
 62
     1
 10
54.975000000000129
 20
181.01266822206239
 30
0.0
 11
55.275000000000091
 21
180.71266822206221
 31
0.0
1001
PHOENIX7010
1002
{
1070
    41
1040
1.0
1002
}
  0
LINE
  5
423D
  8
0
 62
     1
 10
55.275000000000091
 20
175.31266822206231
 30
0.0
 11
51.289427876841501
 21
175.31266822206231
 31
0.0
1001
PHOENIX7010
1002
{
1070
    41
1040
1.0
1002
}
  0
LINE
  5
423E
  8
0
 62
     1
 10
50.925956113358893
 20
178.0735103643961
 30
0.0
 11
49.924999999999841
 21
185.67652687910041
 31
0.0
1001
PHOENIX7010
1002
{
1070
    41
1040
1.0
1002
}
  0
ARC
  5
423F
  8
0
 62
     1
 10
51.223389571770888
 20
178.1126682220621
 30
0.0
 40
0.3
 50
187.49999999999881
 51
270.0
1001
PHOENIX7010
1002
{
1070
    41
1040
1.0
1002
}
  0
LINE
  5
4240
  8
0
 62
     1
 10
47.424999999999841
 20
193.20326714530341
 30
0.0
 11
47.424999999999841
 21
185.5126682220619
 31
0.0
1001
PHOENIX7010
1002
{
1070
    41
1040
1.0
1002
}
  0
LINE
  5
4241
  8
0
 62
     1
 10
51.425000000000068
 20
195.5126682220619
 30
0.0
 11
47.425000000000182
 21
193.20326714530341
 31
0.0
1001
PHOENIX7010
1002
{
1070
    41
1040
1.0
1002
}
  0
LINE
  5
4242
  8
0
 62
     1
 10
52.557050807568999
 20
195.51266822206219
 30
0.0
 11
51.424999999999947
 21
195.51266822206219
 31
0.0
1001
PHOENIX7010
1002
{
1070
    41
1040
1.0
1002
}
  0
LINE
  5
4243
  8
0
 62
     1
 10
52.825000000000159
 20
194.5126682220619
 30
0.0
 11
52.557050807568999
 21
195.5126682220619
 31
0.0
1001
PHOENIX7010
1002
{
1070
    41
1040
1.0
1002
}
  0
LINE
  5
4244
  8
0
 62
     1
 10
54.275000000000091
 20
194.5126682220619
 30
0.0
 11
52.825000000000159
 21
194.5126682220619
 31
0.0
1001
PHOENIX7010
1002
{
1070
    41
1040
1.0
1002
}
  0
LINE
  5
4246
  8
0
 62
     1
 10
49.924999999999841
 20
191.4712163377346
 30
0.0
 11
51.209232335022421
 21
192.21266822206201
 31
0.0
1001
PHOENIX7010
1002
{
1070
    41
1040
1.0
1002
}
  0
LINE
  5
4247
  8
0
 62
     1
 10
49.924999999999841
 20
185.67652687910041
 30
0.0
 11
49.924999999999841
 21
191.4712163377346
 31
0.0
1001
PHOENIX7010
1002
{
1070
    41
1040
1.0
1002
}
  0
LINE
  5
4249
  8
0
 62
     1
 10
55.275000000000091
 20
187.49999999999989
 30
0.0
 11
51.775000000000091
 21
187.49999999999989
 31
0.0
1001
PHOENIX7010
1002
{
1070
    41
1040
1.0
1002
}
  0
LINE
  5
4256
  8
0
 62
     1
 10
51.223389571770888
 20
177.81266822206231
 30
0.0
 11
52.475000000000129
 21
177.81266822206231
 31
0.0
1001
PHOENIX7010
1002
{
1070
    41
1040
1.0
1002
}
  0
LINE
  5
425B
  8
0
 62
     1
 10
54.275000000000091
 20
194.50000000000011
 30
0.0
 11
52.850000000000144
 21
194.50000000000011
 31
0.0
1001
PHOENIX7010
1002
{
1070
    41
1040
1.0
1002
}
  0
LINE
  5
4264
  8
0
 62
     1
 10
51.209232335022421
 20
192.21266822206201
 30
0.0
 11
51.475000000000144
 21
192.21266822206201
 31
0.0
1001
PHOENIX7010
1002
{
1070
    41
1040
1.0
1002
}
  0
POLYLINE
  5
4266
  8
0
 62
     1
 10
51.523731113083961
 20
192.20868389498759
 30
0.0
 66
     1
 70
     8
  0
VERTEX
  8
0
  5
E026
 10
51.5237
 20
192.209
 30
0.000000
  70
    32
  0
VERTEX
  8
0
  5
E027
 10
51.5255
 20
192.208
 30
0.000000
  70
    32
  0
VERTEX
  8
0
  5
E028
 10
51.5272
 20
192.208
 30
0.000000
  70
    32
  0
VERTEX
  8
0
  5
E029
 10
51.5289
 20
192.207
 30
0.000000
  70
    32
  0
VERTEX
  8
0
  5
E02A
 10
51.5306
 20
192.206
 30
0.000000
  70
    32
  0
VERTEX
  8
0
  5
E02B
 10
51.5323
 20
192.206
 30
0.000000
  70
    32
  0
VERTEX
  8
0
  5
E02C
 10
51.5340
 20
192.205
 30
0.000000
  70
    32
  0
VERTEX
  8
0
  5
E02D
 10
51.5357
 20
192.205
 30
0.000000
  70
    32
  0
VERTEX
  8
0
  5
E02E
 10
51.5374
 20
192.204
 30
0.000000
  70
    32
  0
VERTEX
  8
0
  5
E02F
 10
51.5391
 20
192.203
 30
0.000000
  70
    32
  0
VERTEX
  8
0
  5
E030
 10
51.5408
 20
192.203
 30
0.000000
  70
    32
  0
VERTEX
  8
0
  5
E031
 10
51.5425
 20
192.202
 30
0.000000
  70
    32
  0
VERTEX
  8
0
  5
E032
 10
51.5442
 20
192.202
 30
0.000000
  70
    32
  0
VERTEX
  8
0
  5
E033
 10
51.5458
 20
192.201
 30
0.000000
  70
    32
  0
VERTEX
  8
0
  5
E034
 10
51.5475
 20
192.200
 30
0.000000
  70
    32
  0
VERTEX
  8
0
  5
E035
 10
51.5492
 20
192.200
 30
0.000000
  70
    32
  0
VERTEX
  8
0
  5
E036
 10
51.5508
 20
192.199
 30
0.000000
  70
    32
  0
VERTEX
  8
0
  5
E037
 10
51.5525
 20
192.198
 30
0.000000
  70
    32
  0
VERTEX
  8
0
  5
E038
 10
51.5541
 20
192.198
 30
0.000000
  70
    32
  0
VERTEX
  8
0
  5
E039
 10
51.5558
 20
192.197
 30
0.000000
  70
    32
  0
VERTEX
  8
0
  5
E03A
 10
51.5574
 20
192.196
 30
0.000000
  70
    32
  0
VERTEX
  8
0
  5
E03B
 10
51.5591
 20
192.196
 30
0.000000
  70
    32
  0
VERTEX
  8
0
  5
E03C
 10
51.5607
 20
192.195
 30
0.000000
  70
    32
  0
VERTEX
  8
0
  5
E03D
 10
51.5623
 20
192.195
 30
0.000000
  70
    32
  0
VERTEX
  8
0
  5
E03E
 10
51.5640
 20
192.194
 30
0.000000
  70
    32
  0
VERTEX
  8
0
  5
E03F
 10
51.5656
 20
192.193
 30
0.000000
  70
    32
  0
VERTEX
  8
0
  5
E040
 10
51.5672
 20
192.193
 30
0.000000
  70
    32
  0
VERTEX
  8
0
  5
E041
 10
51.5688
 20
192.192
 30
0.000000
  70
    32
  0
VERTEX
  8
0
  5
E042
 10
51.5704
 20
192.191
 30
0.000000
  70
    32
  0
VERTEX
  8
0
  5
E043
 10
51.5720
 20
192.190
 30
0.000000
  70
    32
  0
VERTEX
  8
0
  5
E044
 10
51.5736
 20
192.190
 30
0.000000
  70
    32
  0
VERTEX
  8
0
  5
E045
 10
51.5752
 20
192.189
 30
0.000000
  70
    32
  0
VERTEX
  8
0
  5
E046
 10
51.5768
 20
192.188
 30
0.000000
  70
    32
  0
VERTEX
  8
0
  5
E047
 10
51.5784
 20
192.188
 30
0.000000
  70
    32
  0
VERTEX
  8
0
  5
E048
 10
51.5800
 20
192.187
 30
0.000000
  70
    32
  0
VERTEX
  8
0
  5
E049
 10
51.5815
 20
192.186
 30
0.000000
  70
    32
  0
VERTEX
  8
0
  5
E04A
 10
51.5831
 20
192.186
 30
0.000000
  70
    32
  0
VERTEX
  8
0
  5
E04B
 10
51.5847
 20
192.185
 30
0.000000
  70
    32
  0
VERTEX
  8
0
  5
E04C
 10
51.5862
 20
192.184
 30
0.000000
  70
    32
  0
VERTEX
  8
0
  5
E04D
 10
51.5878
 20
192.183
 30
0.000000
  70
    32
  0
VERTEX
  8
0
  5
E04E
 10
51.5893
 20
192.183
 30
0.000000
  70
    32
  0
VERTEX
  8
0
  5
E04F
 10
51.5909
 20
192.182
 30
0.000000
  70
    32
  0
VERTEX
  8
0
  5
E050
 10
51.5924
 20
192.181
 30
0.000000
  70
    32
  0
VERTEX
  8
0
  5
E051
 10
51.5940
 20
192.181
 30
0.000000
  70
    32
  0
VERTEX
  8
0
  5
E052
 10
51.5955
 20
192.180
 30
0.000000
  70
    32
  0
VERTEX
  8
0
  5
E053
 10
51.5970
 20
192.179
 30
0.000000
  70
    32
  0
VERTEX
  8
0
  5
E054
 10
51.5985
 20
192.178
 30
0.000000
  70
    32
  0
VERTEX
  8
0
  5
E055
 10
51.6001
 20
192.178
 30
0.000000
  70
    32
  0
VERTEX
  8
0
  5
E056
 10
51.6016
 20
192.177
 30
0.000000
  70
    32
  0
VERTEX
  8
0
  5
E057
 10
51.6031
 20
192.176
 30
0.000000
  70
    32
  0
VERTEX
  8
0
  5
E058
 10
51.6046
 20
192.175
 30
0.000000
  70
    32
  0
VERTEX
  8
0
  5
E059
 10
51.6061
 20
192.175
 30
0.000000
  70
    32
  0
VERTEX
  8
0
  5
E05A
 10
51.6075
 20
192.174
 30
0.000000
  70
    32
  0
VERTEX
  8
0
  5
E05B
 10
51.6090
 20
192.173
 30
0.000000
  70
    32
  0
VERTEX
  8
0
  5
E05C
 10
51.6105
 20
192.172
 30
0.000000
  70
    32
  0
VERTEX
  8
0
  5
E05D
 10
51.6120
 20
192.172
 30
0.000000
  70
    32
  0
VERTEX
  8
0
  5
E05E
 10
51.6135
 20
192.171
 30
0.000000
  70
    32
  0
VERTEX
  8
0
  5
E05F
 10
51.6149
 20
192.170
 30
0.000000
  70
    32
  0
VERTEX
  8
0
  5
E060
 10
51.6164
 20
192.169
 30
0.000000
  70
    32
  0
VERTEX
  8
0
  5
E061
 10
51.6178
 20
192.168
 30
0.000000
  70
    32
  0
VERTEX
  8
0
  5
E062
 10
51.6193
 20
192.168
 30
0.000000
  70
    32
  0
VERTEX
  8
0
  5
E063
 10
51.6207
 20
192.167
 30
0.000000
  70
    32
  0
VERTEX
  8
0
  5
E064
 10
51.6221
 20
192.166
 30
0.000000
  70
    32
  0
VERTEX
  8
0
  5
E065
 10
51.6236
 20
192.165
 30
0.000000
  70
    32
  0
VERTEX
  8
0
  5
E066
 10
51.6250
 20
192.164
 30
0.000000
  70
    32
  0
VERTEX
  8
0
  5
E067
 10
51.6264
 20
192.164
 30
0.000000
  70
    32
  0
VERTEX
  8
0
  5
E068
 10
51.6278
 20
192.163
 30
0.000000
  70
    32
  0
VERTEX
  8
0
  5
E069
 10
51.6292
 20
192.162
 30
0.000000
  70
    32
  0
VERTEX
  8
0
  5
E06A
 10
51.6306
 20
192.161
 30
0.000000
  70
    32
  0
VERTEX
  8
0
  5
E06B
 10
51.6320
 20
192.160
 30
0.000000
  70
    32
  0
VERTEX
  8
0
  5
E06C
 10
51.6334
 20
192.160
 30
0.000000
  70
    32
  0
VERTEX
  8
0
  5
E06D
 10
51.6348
 20
192.159
 30
0.000000
  70
    32
  0
VERTEX
  8
0
  5
E06E
 10
51.6362
 20
192.158
 30
0.000000
  70
    32
  0
VERTEX
  8
0
  5
E06F
 10
51.6376
 20
192.157
 30
0.000000
  70
    32
  0
VERTEX
  8
0
  5
E070
 10
51.6389
 20
192.156
 30
0.000000
  70
    32
  0
VERTEX
  8
0
  5
E071
 10
51.6403
 20
192.155
 30
0.000000
  70
    32
  0
VERTEX
  8
0
  5
E072
 10
51.6416
 20
192.155
 30
0.000000
  70
    32
  0
VERTEX
  8
0
  5
E073
 10
51.6430
 20
192.154
 30
0.000000
  70
    32
  0
VERTEX
  8
0
  5
E074
 10
51.6443
 20
192.153
 30
0.000000
  70
    32
  0
VERTEX
  8
0
  5
E075
 10
51.6457
 20
192.152
 30
0.000000
  70
    32
  0
VERTEX
  8
0
  5
E076
 10
51.6470
 20
192.151
 30
0.000000
  70
    32
  0
VERTEX
  8
0
  5
E077
 10
51.6483
 20
192.150
 30
0.000000
  70
    32
  0
VERTEX
  8
0
  5
E078
 10
51.6497
 20
192.149
 30
0.000000
  70
    32
  0
VERTEX
  8
0
  5
E079
 10
51.6510
 20
192.149
 30
0.000000
  70
    32
  0
VERTEX
  8
0
  5
E07A
 10
51.6523
 20
192.148
 30
0.000000
  70
    32
  0
VERTEX
  8
0
  5
E07B
 10
51.6536
 20
192.147
 30
0.000000
  70
    32
  0
VERTEX
  8
0
  5
E07C
 10
51.6549
 20
192.146
 30
0.000000
  70
    32
  0
VERTEX
  8
0
  5
E07D
 10
51.6562
 20
192.145
 30
0.000000
  70
    32
  0
VERTEX
  8
0
  5
E07E
 10
51.6575
 20
192.144
 30
0.000000
  70
    32
  0
VERTEX
  8
0
  5
E07F
 10
51.6587
 20
192.143
 30
0.000000
  70
    32
  0
VERTEX
  8
0
  5
E080
 10
51.6600
 20
192.142
 30
0.000000
  70
    32
  0
VERTEX
  8
0
  5
E081
 10
51.6613
 20
192.142
 30
0.000000
  70
    32
  0
VERTEX
  8
0
  5
E082
 10
51.6625
 20
192.141
 30
0.000000
  70
    32
  0
VERTEX
  8
0
  5
E083
 10
51.6638
 20
192.140
 30
0.000000
  70
    32
  0
VERTEX
  8
0
  5
E084
 10
51.6650
 20
192.139
 30
0.000000
  70
    32
  0
VERTEX
  8
0
  5
E085
 10
51.6663
 20
192.138
 30
0.000000
  70
    32
  0
VERTEX
  8
0
  5
E086
 10
51.6675
 20
192.137
 30
0.000000
  70
    32
  0
VERTEX
  8
0
  5
E087
 10
51.6687
 20
192.136
 30
0.000000
  70
    32
  0
VERTEX
  8
0
  5
E088
 10
51.6700
 20
192.135
 30
0.000000
  70
    32
  0
VERTEX
  8
0
  5
E089
 10
51.6712
 20
192.134
 30
0.000000
  70
    32
  0
VERTEX
  8
0
  5
E08A
 10
51.6724
 20
192.133
 30
0.000000
  70
    32
  0
VERTEX
  8
0
  5
E08B
 10
51.6736
 20
192.133
 30
0.000000
  70
    32
  0
VERTEX
  8
0
  5
E08C
 10
51.6748
 20
192.132
 30
0.000000
  70
    32
  0
VERTEX
  8
0
  5
E08D
 10
51.6760
 20
192.131
 30
0.000000
  70
    32
  0
VERTEX
  8
0
  5
E08E
 10
51.6772
 20
192.130
 30
0.000000
  70
    32
  0
VERTEX
  8
0
  5
E08F
 10
51.6784
 20
192.129
 30
0.000000
  70
    32
  0
VERTEX
  8
0
  5
E090
 10
51.6795
 20
192.128
 30
0.000000
  70
    32
  0
VERTEX
  8
0
  5
E091
 10
51.6807
 20
192.127
 30
0.000000
  70
    32
  0
VERTEX
  8
0
  5
E092
 10
51.6819
 20
192.126
 30
0.000000
  70
    32
  0
VERTEX
  8
0
  5
E093
 10
51.6830
 20
192.125
 30
0.000000
  70
    32
  0
VERTEX
  8
0
  5
E094
 10
51.6842
 20
192.124
 30
0.000000
  70
    32
  0
VERTEX
  8
0
  5
E095
 10
51.6853
 20
192.123
 30
0.000000
  70
    32
  0
VERTEX
  8
0
  5
E096
 10
51.6864
 20
192.122
 30
0.000000
  70
    32
  0
VERTEX
  8
0
  5
E097
 10
51.6876
 20
192.121
 30
0.000000
  70
    32
  0
VERTEX
  8
0
  5
E098
 10
51.6887
 20
192.120
 30
0.000000
  70
    32
  0
VERTEX
  8
0
  5
E099
 10
51.6898
 20
192.119
 30
0.000000
  70
    32
  0
VERTEX
  8
0
  5
E09A
 10
51.6909
 20
192.119
 30
0.000000
  70
    32
  0
VERTEX
  8
0
  5
E09B
 10
51.6920
 20
192.118
 30
0.000000
  70
    32
  0
VERTEX
  8
0
  5
E09C
 10
51.6931
 20
192.117
 30
0.000000
  70
    32
  0
VERTEX
  8
0
  5
E09D
 10
51.6942
 20
192.116
 30
0.000000
  70
    32
  0
VERTEX
  8
0
  5
E09E
 10
51.6953
 20
192.115
 30
0.000000
  70
    32
  0
VERTEX
  8
0
  5
E09F
 10
51.6963
 20
192.114
 30
0.000000
  70
    32
  0
VERTEX
  8
0
  5
E0A0
 10
51.6974
 20
192.113
 30
0.000000
  70
    32
  0
VERTEX
  8
0
  5
E0A1
 10
51.6985
 20
192.112
 30
0.000000
  70
    32
  0
VERTEX
  8
0
  5
E0A2
 10
51.6995
 20
192.111
 30
0.000000
  70
    32
  0
VERTEX
  8
0
  5
E0A3
 10
51.7006
 20
192.110
 30
0.000000
  70
    32
  0
VERTEX
  8
0
  5
E0A4
 10
51.7016
 20
192.109
 30
0.000000
  70
    32
  0
VERTEX
  8
0
  5
E0A5
 10
51.7026
 20
192.108
 30
0.000000
  70
    32
  0
VERTEX
  8
0
  5
E0A6
 10
51.7037
 20
192.107
 30
0.000000
  70
    32
  0
SEQEND
  8
0
  5
E0A7
  0
LINE
  5
4268
  8
0
 62
     1
 10
51.775000000000091
 20
188.6126682220623
 30
0.0
 11
51.775000000000091
 21
191.91266822206191
 31
0.0
1001
PHOENIX7010
1002
{
1070
    41
1040
1.0
1002
}
  0
LINE
  5
426B
  8
0
 62
     1
 10
54.275000000000091
 20
194.50000000000011
 30
0.0
 11
54.275000000000091
 21
191.31266822206189
 31
0.0
1001
PHOENIX7010
1002
{
1070
    41
1040
1.0
1002
}
  0
LINE
  5
4272
  8
0
  6
CONTINUOUS
 62
     1
 10
76.250000000001137
 20
247.90000000000001
 30
0.0
 11
78.250000000000909
 21
247.89999999999969
 31
0.0
1001
PHOENIX7010
1002
{
1070
    41
1040
1.0
1002
}
  0
LINE
  5
4273
  8
0
  6
CONTINUOUS
 62
     1
 10
76.250000000001137
 20
247.90000000000001
 30
0.0
 11
76.250000000001137
 21
176.09999999999999
 31
0.0
1001
PHOENIX7010
1002
{
1070
    41
1040
1.0
1002
}
  0
INSERT
  5
4274
  8
0
  6
CONTINUOUS
 62
     1
  2
*X20
 10
0.0
 20
0.0
 30
0.0
1001
PHOENIX7010
1002
{
1070
    41
1040
1.0
1002
}
1001
ACAD
1000
HATCH
1002
{
1070
    19
1000
_U
1040
3.0
1040
0.7853981633974483
1070
     0
1000
ASC_BOUNDS
1070
     1
1070
     2
1070
     1
1005
4277
1000
ASC_SEEDPOINT
1011
-12.66202220163461
1021
0.0
1031
0.0
1021
127.1311955456589
1031
0.0
1000
R14_HATCH_DATA
1000
4274
1011
1.0
1021
0.0
1031
0.0
1021
0.0
1031
0.0
1011
0.0
1021
0.0
1031
0.0
1021
1.0
1031
0.0
1011
0.0
1021
0.0
1031
0.0
1021
0.0
1031
1.0
1040
0.0
1010
0.0
1020
0.0
1030
1.0
1000
_U
1070
     0
1070
     1
1071
        1
1071
        1
1071
        4
1070
     1
1040
78.250000000000909
1040
247.89999999999989
1040
76.250000000001137
1040
247.89999999999989
1070
     1
1040
76.250000000001137
1040
247.89999999999989
1040
76.250000000001137
1040
176.09999999999999
1070
     1
1040
76.250000000001137
1040
176.09999999999999
1040
78.250000000000909
1040
176.09999999999999
1070
     1
1040
78.250000000000909
1040
176.09999999999999
1040
78.250000000000909
1040
247.89999999999989
1071
        1
1005
4277
1070
     0
1070
     0
1040
0.7853981633974483
1040
3.0
1070
     0
1070
     1
1040
0.7853981633974483
1040
-12.66202220163461
1040
127.1311955456589
1040
-2.1213203435596419
1040
2.1213203435596419
1070
     0
1071
        1
1040
-12.66202220163461
1040
127.1311955456589
1040
0.0
1002
}
  0
LINE
  5
4275
  8
0
  6
CONTINUOUS
 62
     1
 10
78.250000000000909
 20
247.89999999999969
 30
0.0
 11
78.250000000000909
 21
176.09999999999999
 31
0.0
1001
PHOENIX7010
1002
{
1070
    41
1040
1.0
1002
}
  0
LINE
  5
4276
  8
0
  6
CONTINUOUS
 62
     1
 10
76.250000000001137
 20
176.09999999999999
 30
0.0
 11
78.250000000000909
 21
176.09999999999999
 31
0.0
1001
PHOENIX7010
1002
{
1070
    41
1040
1.0
1002
}
  0
POLYLINE
  5
4277
  8
0
  6
CONTINUOUS
 62
     7
 66
     1
 10
0.0
 20
0.0
 30
0.0
 70
     1
1001
PHOENIX7010
1002
{
1070
    41
1040
1.0
1002
}
1001
ACAD
1000
ASC_BOUNDS
1002
{
1070
    19
1005
4274
1002
}
  0
VERTEX
  5
DED2
  8
0
  6
CONTINUOUS
 62
     7
 10
78.250000000000909
 20
247.89999999999989
 30
0.0
  0
VERTEX
  5
DED3
  8
0
  6
CONTINUOUS
 62
     7
 10
76.250000000001137
 20
247.89999999999989
 30
0.0
  0
VERTEX
  5
DED4
  8
0
  6
CONTINUOUS
 62
     7
 10
76.250000000001137
 20
176.09999999999999
 30
0.0
  0
VERTEX
  5
DED5
  8
0
  6
CONTINUOUS
 62
     7
 10
78.250000000000909
 20
176.09999999999999
 30
0.0
  0
SEQEND
  5
DED6
  8
0
  6
CONTINUOUS
 62
     7
  0
INSERT
  5
427E
  8
0
  6
CONTINUOUS
 62
     7
  2
PH_GRPBLK
 10
76.250000000001137
 20
247.90000000000001
 30
0.0
  0
DIMENSION
  5
536F
  8
0
  6
CONTINUOUS
 62
     7
  2
*D5
 10
79.350000000000819
 20
256.5
 30
0.0
 11
88.690000000000836
 21
256.5
 31
0.0
 70
   128
 13
78.250000000000909
 23
247.7417025571294
 33
0.0
 14
79.350000000000819
 24
247.9999999999996
 34
0.0
1001
ACAD
1000
DSTYLE
1002
{
1070
   173
1070
     1
1002
}
  0
DIMENSION
  5
6488
  8
0
  6
CONTINUOUS
 62
     7
  2
*D6
 10
46.350000000000023
 20
261.5
 30
0.0
 11
63.000000000000597
 21
261.5
 31
0.0
 70
   128
 13
79.350000000000819
 23
247.9999999999996
 33
0.0
 14
46.350000000000023
 24
223.7000000000001
 34
0.0
1001
ACAD
1000
DSTYLE
1002
{
1070
   173
1070
     1
1002
}
  0
DIMENSION
  5
70A3
  8
0
  6
CONTINUOUS
 62
     7
  2
*D7
 10
90.250000000001265
 20
179.79999999999981
 30
0.0
 11
88.600000000001231
 21
211.99999999999989
 31
0.0
 70
     0
 13
73.563835714720881
 23
244.1999999999999
 33
0.0
 14
73.563835714720881
 24
179.79999999999981
 34
0.0
 50
90.0
1001
ACAD
1000
DSTYLE
1002
{
1070
   173
1070
     1
1002
}
  0
DIMENSION
  5
7914
  8
0
  6
CONTINUOUS
 62
     7
  2
*D8
 10
95.250000000001123
 20
177.49999999999989
 30
0.0
 11
93.600000000001089
 21
211.99999999999989
 31
0.0
 70
     0
 13
78.850000000000819
 23
246.49999999999989
 33
0.0
 14
78.850000000000819
 24
177.49999999999989
 34
0.0
 50
90.0
1001
ACAD
1000
DSTYLE
1002
{
1070
   173
1070
     1
1002
}
  0
DIMENSION
  5
85B6
  8
0
  6
CONTINUOUS
 62
     7
  2
*D9
 10
100.25000000000109
 20
174.49999999999989
 30
0.0
 11
100.25000000000109
 21
212.0
 31
0.0
 70
   128
 13
78.250000000000909
 23
249.4999999999998
 33
0.0
 14
78.350000000000819
 24
174.49999999999989
 34
0.0
 50
90.0
1001
ACAD
1000
DSTYLE
1002
{
1070
   173
1070
     1
1002
}
  0
DIMENSION
  5
8B91
  8
0
  6
CONTINUOUS
 62
     7
  2
*D10
 10
76.250000000001137
 20
226.2631014902266
 30
0.0
 11
66.828263644084473
 21
226.2631014902266
 31
0.0
 70
   128
 13
56.850000000000122
 23
222.49999999999989
 33
0.0
 14
76.250000000001137
 24
222.49999999999989
 34
0.0
1001
ACAD
1000
DSTYLE
1002
{
1070
   173
1070
     1
1002
}
  0
DIMENSION
  5
91BA
  8
0
  6
CONTINUOUS
 62
     7
  2
*D11
 10
78.250000000000909
 20
230.70614509280421
 30
0.0
 11
67.681820866142871
 21
230.70614509280421
 31
0.0
 70
   128
 13
76.250000000001137
 23
231.03945092557879
 33
0.0
 14
78.250000000000909
 24
230.77113980865229
 34
0.0
1001
ACAD
1000
DSTYLE
1002
{
1070
   173
1070
     1
1002
}
  0
DIMENSION
  5
9587
  8
0
  6
CONTINUOUS
 62
     7
  2
*D12
 10
65.550000000000864
 20
186.2968716146859
 30
0.0
 11
70.453805693456843
 21
188.4596481315881
 31
0.0
 70
   128
 13
63.350000000000811
 23
177.4999999999996
 33
0.0
 14
65.550000000000864
 24
177.4999999999996
 34
0.0
1001
ACAD
1000
DSTYLE
1002
{
1070
   287
1070
     4
1070
   173
1070
     1
1070
   279
1070
     1
1070
    77
1070
     0
1002
}
  0
DIMENSION
  5
9D09
  8
0
  6
CONTINUOUS
 62
     7
  2
*D13
 10
78.250000000000909
 20
167.5
 30
0.0
 11
73.500000000000796
 21
169.15000000000001
 31
0.0
 70
     0
 13
68.750000000000682
 23
175.99999999999989
 33
0.0
 14
78.250000000000909
 24
176.09999999999999
 34
0.0
1001
ACAD
1000
DSTYLE
1002
{
1070
   173
1070
     1
1002
}
  0
DIMENSION
  5
A81E
  8
0
  6
CONTINUOUS
 62
     7
  2
*D14
 10
78.250000000000909
 20
162.5
 30
0.0
 11
71.900000000000887
 21
164.1502460629921
 31
0.0
 70
     0
 13
65.550000000000864
 23
175.9999999999996
 33
0.0
 14
78.250000000000909
 24
176.09999999999999
 34
0.0
1001
ACAD
1000
DSTYLE
1002
{
1070
   173
1070
     1
1002
}
  0
DIMENSION
  5
B0F1
  8
0
  6
CONTINUOUS
 62
     7
  2
*D15
 10
78.250000000000909
 20
157.5
 30
0.0
 11
70.750000000000227
 21
157.5
 31
0.0
 70
   128
 13
62.350000000000811
 23
175.9999999999996
 33
0.0
 14
78.250000000000909
 24
176.09999999999999
 34
0.0
1001
ACAD
1000
DSTYLE
1002
{
1070
   173
1070
     1
1002
}
  0
DIMENSION
  5
C16D
  8
0
  6
CONTINUOUS
 62
     7
  2
*D16
 10
78.250000000000909
 20
152.5
 30
0.0
 11
66.750000000000213
 21
152.5
 31
0.0
 70
   128
 13
53.850000000000023
 23
195.8000000000003
 33
0.0
 14
78.250000000000909
 24
176.19990081102571
 34
0.0
1001
ACAD
1000
DSTYLE
1002
{
1070
   173
1070
     1
1002
}
  0
INSERT
  5
D0C7
  8
0
  6
CONTINUOUS
 62
     1
  2
*U24
 10
0.0
 20
0.0
 30
0.0
  0
LINE
  5
D0C8
  8
0
  6
CONTINUOUS
 62
     1
 10
37.965389914102161
 20
277.01498556580918
 30
0.0
 11
95.805317120789354
 21
277.01498556580918
 31
0.0
1001
PHOENIX7010
1002
{
1070
    41
1040
1.0
1002
}
  0
INSERT
  5
D0C9
  8
0
  6
CONTINUOUS
 62
     1
  2
PH_GRPBLK
 10
37.965389914102161
 20
277.01498556580918
 30
0.0
1001
PHOENIX7010
1002
{
1070
    41
1040
1.0
1002
}
  0
LINE
  5
D0CA
  8
0
  6
CONTINUOUS
 62
     1
 10
37.965389914102161
 20
277.01498556580918
 30
0.0
 11
56.138129973091281
 21
248.7025792351821
 31
0.0
1001
PHOENIX7010
1002
{
1070
    41
1040
1.0
1002
}
  0
CIRCLE
  5
D0CB
  8
0
  6
CONTINUOUS
 62
     3
 10
56.138129973091281
 20
248.7025792351821
 30
0.0
 40
0.4000000000000057
1001
PHOENIX7010
1002
{
1070
    41
1040
1.0
1002
}
  0
INSERT
  5
D0CC
  8
0
  6
CONTINUOUS
 62
     1
  2
PH_GRPBLK
 10
37.965389914102161
 20
277.01498556580918
 30
0.0
1001
PHOENIX7010
1002
{
1070
    41
1040
1.0
1002
}
  0
DIMENSION
  5
D2B4
  8
0
  6
CONTINUOUS
 62
     7
  2
*D17
 10
39.349999999999902
 20
175.9999999999998
 30
0.0
 11
39.349999999999881
 21
211.99999999999989
 31
0.0
 70
   128
 13
57.150000000000077
 23
247.9999999999998
 33
0.0
 14
57.150000000000077
 24
175.9999999999998
 34
0.0
 50
90.0
1001
ACAD
1000
DSTYLE
1002
{
1070
   173
1070
     1
1002
}
  0
CIRCLE
  5
DAB0
  8
0
  6
CONTINUOUS
 62
     1
 10
53.850000000000129
 20
195.79999999999981
 30
0.0
 40
0.8
1001
PHOENIX7010
1002
{
1070
    41
1040
1.0
1002
}
  0
INSERT
  5
DAB7
  8
0
  6
CONTINUOUS
 62
     1
  2
PH_GRPBLK
 10
54.250000000000128
 20
195.79999999999981
 30
0.0
  0
LINE
  5
DAD0
  8
0
  6
CONTINUOUS
 62
     1
 10
122.28281590237469
 20
200.14772217264789
 30
0.0
 11
197.51851347939919
 21
200.14772217264789
 31
0.0
1001
PHOENIX7010
1002
{
1070
    41
1040
1.0
1002
}
  0
INSERT
  5
DAE2
  8
0
  6
CONTINUOUS
 62
     1
  2
*U34
 10
0.0
 20
0.0
 30
0.0
  0
LINE
  5
DAE3
  8
0
  6
CONTINUOUS
 62
     1
 10
89.123356419883294
 20
268.3546076413291
 30
0.0
 11
107.0885229173757
 21
268.3546076413291
 31
0.0
1001
PHOENIX7010
1002
{
1070
    41
1040
1.0
1002
}
  0
LINE
  5
DAE4
  8
0
  6
CONTINUOUS
 62
     1
 10
89.123356419883194
 20
268.35460764132893
 30
0.0
 11
65.997143573879043
 21
249.4999999999996
 31
0.0
1001
PHOENIX7010
1002
{
1070
    41
1040
1.0
1002
}
  0
INSERT
  5
DAE5
  8
0
  6
CONTINUOUS
 62
     5
  2
PH_GRPBLK
 10
89.123356419883294
 20
268.3546076413291
 30
0.0
1001
PHOENIX7010
1002
{
1070
    41
1040
1.0
1002
}
  0
INSERT
  5
DAE8
  8
0
  6
CONTINUOUS
 62
     1
  2
*U35
 10
0.0
 20
0.0
 30
0.0
  0
LINE
  5
DAE9
  8
0
  6
CONTINUOUS
 62
     1
 10
89.123356419883393
 20
155.64539235867059
 30
0.0
 11
108.9241198485033
 21
155.64539235867059
 31
0.0
1001
PHOENIX7010
1002
{
1070
    41
1040
1.0
1002
}
  0
LINE
  5
DAEA
  8
0
  6
CONTINUOUS
 62
     1
 10
89.123356419883294
 20
155.64539235867051
 30
0.0
 11
76.041381819798517
 21
174.56327789352571
 31
0.0
1001
PHOENIX7010
1002
{
1070
    41
1040
1.0
1002
}
  0
INSERT
  5
DAEB
  8
0
  6
CONTINUOUS
 62
     5
  2
PH_GRPBLK
 10
89.123356419883393
 20
155.64539235867059
 30
0.0
1001
PHOENIX7010
1002
{
1070
    41
1040
1.0
1002
}
  0
LINE
  5
DC3F
  8
0
  6
CONTINUOUS
 62
     7
 10
51.200000000000053
 20
237.6813466520527
 30
0.0
 11
51.200000000000038
 21
228.4499999999999
 31
0.0
1001
PHOENIX7010
1002
{
1070
    41
1040
1.0
1002
}
  0
LINE
  5
DC40
  8
0
  6
CONTINUOUS
 62
     7
 10
51.200000000000038
 20
236.64999999999981
 30
0.0
 11
52.549999999999947
 21
236.64999999999981
 31
0.0
1001
PHOENIX7010
1002
{
1070
    41
1040
1.0
1002
}
  0
LINE
  5
DC41
  8
0
  6
CONTINUOUS
 62
     7
 10
52.549999999999947
 20
236.64999999999981
 30
0.0
 11
53.049999999999962
 21
231.14999999999989
 31
0.0
1001
PHOENIX7010
1002
{
1070
    41
1040
1.0
1002
}
  0
LINE
  5
DC42
  8
0
  6
CONTINUOUS
 62
     7
 10
53.049999999999962
 20
231.14999999999989
 30
0.0
 11
54.549999999999947
 21
231.14999999999989
 31
0.0
1001
PHOENIX7010
1002
{
1070
    41
1040
1.0
1002
}
  0
LINE
  5
DC43
  8
0
  6
CONTINUOUS
 62
     7
 10
55.049999999999947
 20
236.64999999999981
 30
0.0
 11
54.549999999999947
 21
231.14999999999989
 31
0.0
1001
PHOENIX7010
1002
{
1070
    41
1040
1.0
1002
}
  0
LINE
  5
DC44
  8
0
  6
CONTINUOUS
 62
     7
 10
55.049999999999947
 20
236.64999999999981
 30
0.0
 11
56.850000000000023
 21
236.64999999999981
 31
0.0
1001
PHOENIX7010
1002
{
1070
    41
1040
1.0
1002
}
  0
ARC
  5
DC46
  8
0
  6
CONTINUOUS
 62
     7
 10
51.800000000000047
 20
237.6813466520527
 30
0.0
 40
0.6
 50
119.9999999999942
 51
180.0
1001
PHOENIX7010
1002
{
1070
    41
1040
1.0
1002
}
  0
INSERT
  5
DC47
  8
0
  6
CONTINUOUS
 62
     1
  2
*U36
 10
0.0
 20
0.0
 30
0.0
  0
LINE
  5
DC48
  8
0
  6
CONTINUOUS
 62
     1
 10
97.910924751648963
 20
144.08410981173341
 30
0.0
 11
32.101133620365552
 21
144.08410981173341
 31
0.0
1001
PHOENIX7010
1002
{
1070
    41
1040
1.0
1002
}
  0
LINE
  5
DC49
  8
0
  6
CONTINUOUS
 62
     1
 10
59.519424542554582
 20
175.21830961745309
 30
0.0
 11
32.101133620365552
 21
144.08410981173341
 31
0.0
1001
PHOENIX7010
1002
{
1070
    41
1040
1.0
1002
}
  0
CIRCLE
  5
DC4A
  8
0
  6
CONTINUOUS
 62
     3
 10
59.519424542554582
 20
175.21830961745309
 30
0.0
 40
0.4000000000000057
1001
PHOENIX7010
1002
{
1070
    41
1040
1.0
1002
}
  0
INSERT
  5
DDA0
  8
0
  6
CONTINUOUS
 62
     7
  2
PH_GRPBLK
 10
20.0
 20
4.9999999999998863
 30
0.0
1001
PHOENIX7010
1002
{
1070
    41
1040
1.0
1002
}
  0
LINE
  5
DDA1
  8
0
  6
CONTINUOUS
 62
     1
 10
1.0
 20
295.99999999999989
 30
0.0
 11
1.0
 21
0.9999999999998863
 31
0.0
1001
PHOENIX7010
1002
{
1070
    62
1070
     1
1070
    41
1040
1.0
1002
}
  0
LINE
  5
DDA2
  8
0
  6
CONTINUOUS
 62
     1
 10
209.0
 20
295.99999999999989
 30
0.0
 11
1.0
 21
295.99999999999989
 31
0.0
1001
PHOENIX7010
1002
{
1070
    62
1070
     1
1070
    41
1040
1.0
1002
}
  0
LINE
  5
DDA3
  8
0
  6
CONTINUOUS
 62
     1
 10
209.0
 20
0.9999999999998863
 30
0.0
 11
209.0
 21
295.99999999999989
 31
0.0
1001
PHOENIX7010
1002
{
1070
    62
1070
     1
1070
    41
1040
1.0
1002
}
  0
LINE
  5
DDA4
  8
0
  6
CONTINUOUS
 62
     1
 10
1.0
 20
0.9999999999998863
 30
0.0
 11
209.0
 21
0.9999999999998863
 31
0.0
1001
PHOENIX7010
1002
{
1070
    62
1070
     1
1070
    41
1040
1.0
1002
}
  0
LINE
  5
DDA5
  8
0
  6
CONTINUOUS
 62
     3
 10
20.0
 20
291.99999999999989
 30
0.0
 11
20.0
 21
4.9999999999998863
 31
0.0
1001
PHOENIX7010
1002
{
1070
    62
1070
     3
1070
    41
1040
1.0
1002
}
  0
LINE
  5
DDA6
  8
0
  6
CONTINUOUS
 62
     3
 10
205.0
 20
291.99999999999989
 30
0.0
 11
20.0
 21
291.99999999999989
 31
0.0
1001
PHOENIX7010
1002
{
1070
    62
1070
     3
1070
    41
1040
1.0
1002
}
  0
LINE
  5
DDA7
  8
0
  6
CONTINUOUS
 62
     3
 10
205.0
 20
4.9999999999998863
 30
0.0
 11
205.0
 21
291.99999999999989
 31
0.0
1001
PHOENIX7010
1002
{
1070
    62
1070
     3
1070
    41
1040
1.0
1002
}
  0
LINE
  5
DDA8
  8
0
  6
CONTINUOUS
 62
     3
 10
20.0
 20
4.9999999999998863
 30
0.0
 11
205.0
 21
4.9999999999998863
 31
0.0
1001
PHOENIX7010
1002
{
1070
    62
1070
     3
1070
    41
1040
1.0
1002
}
  0
INSERT
  5
DDA9
  8
0
  6
CONTINUOUS
 62
     1
  2
*U37
 10
0.0
 20
0.0
 30
0.0
  0
INSERT
  5
DDBE
  8
0
  6
CONTINUOUS
 62
     1
  2
*X38
 10
0.0
 20
0.0
 30
0.0
1001
PHOENIX7010
1002
{
1070
    41
1040
1.0
1002
}
1001
ACAD
1000
HATCH
1002
{
1070
    19
1000
_U
1040
0.1
1040
0.7853981633974483
1070
     0
1000
ASC_BOUNDS
1070
     1
1070
     2
1070
     1
1005
DE02
1000
ASC_SEEDPOINT
1011
-210.0
1021
0.0
1031
0.0
1021
-32.088852972070747
1031
0.0
1000
R14_HATCH_DATA
1000
DDBE
1011
1.0
1021
0.0
1031
0.0
1021
0.0
1031
0.0
1011
0.0
1021
0.0
1031
0.0
1021
1.0
1031
0.0
1011
0.0
1021
0.0
1031
0.0
1021
0.0
1031
1.0
1040
0.0
1010
0.0
1020
0.0
1030
1.0
1000
_U
1070
     0
1070
     1
1071
        1
1071
        0
1071
        5
1070
     1
1040
197.4334749940256
1040
35.164538113980257
1040
190.73347499402561
1040
27.364538113980188
1070
     1
1040
190.7334749940255
1040
27.364538113980188
1040
202.7334749940255
1040
27.364538113980188
1070
     1
1040
202.7334749940255
1040
27.364538113980188
1040
202.73347499402561
1040
35.1645381139802
1070
     1
1040
202.7334749940255
1040
35.164538113980143
1040
197.43347499402549
1040
28.264538113980251
1070
     1
1040
197.4334749940256
1040
28.264538113980279
1040
197.43347499402549
1040
35.164538113980257
1071
        1
1005
DE02
1070
     0
1070
     0
1040
0.7853981633974483
1040
0.1
1070
     0
1070
     1
1040
0.7853981633974483
1040
-210.0
1040
-32.088852972070747
1040
-0.0707106781186548
1040
0.0707106781186548
1070
     0
1071
        1
1040
-210.0
1040
-32.088852972070747
1040
0.0
1002
}
  0
INSERT
  5
DDBF
  8
0
  6
CONTINUOUS
 62
     1
  2
*X39
 10
0.0
 20
0.0
 30
0.0
1001
PHOENIX7010
1002
{
1070
    41
1040
1.0
1002
}
1001
ACAD
1000
HATCH
1002
{
1070
    19
1000
_U
1040
0.65
1040
0.7853981633974483
1070
     0
1000
ASC_BOUNDS
1070
     1
1070
     2
1070
     1
1005
DE03
1000
ASC_SEEDPOINT
1011
-210.0
1021
0.0
1031
0.0
1021
-32.088852972070747
1031
0.0
1000
R14_HATCH_DATA
1000
DDBF
1011
1.0
1021
0.0
1031
0.0
1021
0.0
1031
0.0
1011
0.0
1021
0.0
1031
0.0
1021
1.0
1031
0.0
1011
0.0
1021
0.0
1031
0.0
1021
0.0
1031
1.0
1040
0.0
1010
0.0
1020
0.0
1030
1.0
1000
_U
1070
     0
1070
     1
1071
        1
1071
        0
1071
        3
1070
     1
1040
189.88347499402551
1040
27.364538113980188
1040
189.88347499402551
1040
31.514538113980191
1070
     1
1040
189.88347499402551
1040
31.514538113980169
1040
194.0334749940254
1040
31.514538113980169
1070
     2
1040
189.88347499402551
1040
31.514538113980169
1040
4.1499999999999773
1040
0.0000000000000034
1040
4.7123889803846888
1070
     1
1071
        1
1005
DE03
1070
     0
1070
     0
1040
0.7853981633974483
1040
0.65
1070
     0
1070
     1
1040
0.7853981633974483
1040
-210.0
1040
-32.088852972070747
1040
-0.4596194077712559
1040
0.459619407771256
1070
     0
1071
        1
1040
-210.0
1040
-32.088852972070747
1040
0.0
1002
}
  0
LINE
  5
DDC0
  8
0
  6
CONTINUOUS
 62
     7
 10
190.7334749940255
 20
27.364538113980188
 30
0.0
 11
202.7334749940255
 21
27.364538113980188
 31
0.0
1001
PHOENIX7010
1002
{
1070
    41
1040
1.0
1002
}
  0
LINE
  5
DDC1
  8
0
  6
CONTINUOUS
 62
     7
 10
202.7334749940255
 20
27.364538113980188
 30
0.0
 11
202.7334749940255
 21
35.164538113980143
 31
0.0
1001
PHOENIX7010
1002
{
1070
    41
1040
1.0
1002
}
  0
LINE
  5
DDC2
  8
0
  6
CONTINUOUS
 62
     7
 10
197.4334749940256
 20
28.264538113980169
 30
0.0
 11
197.4334749940256
 21
35.164538113980143
 31
0.0
1001
PHOENIX7010
1002
{
1070
    41
1040
1.0
1002
}
  0
LINE
  5
DDC3
  8
0
  6
CONTINUOUS
 62
     7
 10
197.4334749940256
 20
35.164538113980143
 30
0.0
 11
190.7334749940255
 21
27.364538113980188
 31
0.0
1001
PHOENIX7010
1002
{
1070
    41
1040
1.0
1002
}
  0
LINE
  5
DDC4
  8
0
  6
CONTINUOUS
 62
     7
 10
202.7334749940255
 20
35.164538113980143
 30
0.0
 11
197.4334749940256
 21
28.264538113980169
 31
0.0
1001
PHOENIX7010
1002
{
1070
    41
1040
1.0
1002
}
  0
INSERT
  5
DDC5
  8
0
  6
CONTINUOUS
 62
     1
  2
PH_GRPBLK
 10
190.7334749940255
 20
27.364538113980188
 30
0.0
1001
PHOENIX7010
1002
{
1070
    41
1040
1.0
1002
}
  0
INSERT
  5
DDC6
  8
0
  6
CONTINUOUS
 62
     1
  2
*U40
 10
0.0
 20
0.0
 30
0.0
  0
INSERT
  5
DDC7
  8
0
  6
CONTINUOUS
 62
     1
  2
*U41
 10
0.0
 20
0.0
 30
0.0
  0
INSERT
  5
DDC8
  8
0
  6
CONTINUOUS
 62
     7
  2
PH_GRPBLK
 10
190.7334749940255
 20
27.364538113980188
 30
0.0
1001
PHOENIX7010
1002
{
1070
    41
1040
1.0
1002
}
  0
INSERT
  5
DDC9
  8
0
  6
CONTINUOUS
 62
     1
  2
*U42
 10
0.0
 20
0.0
 30
0.0
  0
INSERT
  5
DDCA
  8
0
  6
CONTINUOUS
 62
     1
  2
*U43
 10
0.0
 20
0.0
 30
0.0
  0
INSERT
  5
DDCB
  8
0
  6
CONTINUOUS
 62
     1
  2
*U44
 10
0.0
 20
0.0
 30
0.0
  0
INSERT
  5
DDCC
  8
0
  6
CONTINUOUS
 62
     1
  2
*U45
 10
0.0
 20
0.0
 30
0.0
  0
INSERT
  5
DDCD
  8
0
  6
CONTINUOUS
 62
     1
  2
*U46
 10
0.0
 20
0.0
 30
0.0
  0
INSERT
  5
DDCE
  8
0
  6
CONTINUOUS
 62
     1
  2
*U47
 10
0.0
 20
0.0
 30
0.0
  0
INSERT
  5
DDCF
  8
0
  6
CONTINUOUS
 62
     1
  2
*U48
 10
0.0
 20
0.0
 30
0.0
  0
INSERT
  5
DDD0
  8
0
  6
CONTINUOUS
 62
     1
  2
*U49
 10
0.0
 20
0.0
 30
0.0
  0
INSERT
  5
DDD1
  8
0
  6
CONTINUOUS
 62
     1
  2
*U50
 10
0.0
 20
0.0
 30
0.0
  0
INSERT
  5
DDD2
  8
0
  6
CONTINUOUS
 62
     1
  2
*U51
 10
0.0
 20
0.0
 30
0.0
  0
INSERT
  5
DDD3
  8
0
  6
CONTINUOUS
 62
     1
  2
*U52
 10
0.0
 20
0.0
 30
0.0
  0
INSERT
  5
DDD4
  8
0
  6
CONTINUOUS
 62
     1
  2
*U53
 10
0.0
 20
0.0
 30
0.0
  0
INSERT
  5
DDD5
  8
0
  6
CONTINUOUS
 62
     1
  2
*U54
 10
0.0
 20
0.0
 30
0.0
  0
INSERT
  5
DDD6
  8
0
  6
CONTINUOUS
 62
     1
  2
*U55
 10
0.0
 20
0.0
 30
0.0
  0
LINE
  5
DDD7
  8
0
  6
CONTINUOUS
 62
     5
 10
104.9999999999998
 20
14.5
 30
0.0
 11
205.0
 21
14.5
 31
0.0
1001
PHOENIX7010
1002
{
1070
    41
1040
1.0
1002
}
  0
LINE
  5
DDD8
  8
0
  6
CONTINUOUS
 62
     5
 10
195.4999999999998
 20
92.499999999999886
 30
0.0
 11
195.4999999999998
 21
99.499999999999886
 31
0.0
1001
PHOENIX7010
1002
{
1070
    62
1070
     5
1070
    41
1040
1.0
1002
}
  0
LINE
  5
DDD9
  8
0
  6
ACAD_ISO04W100
 62
     1
 10
200.4999999999998
 20
91.499999999999886
 30
0.0
 11
200.4999999999998
 21
100.4999999999999
 31
0.0
1001
PHOENIX7010
1002
{
1070
    62
1070
     1
1070
    41
1040
1.0
1002
}
  0
CIRCLE
  5
DDDA
  8
0
  6
CONTINUOUS
 62
     5
 10
200.4999999999998
 20
95.999999999999886
 30
0.0
 40
1.75
1001
PHOENIX7010
1002
{
1070
    62
1070
     5
1070
    41
1040
1.0
1002
}
  0
CIRCLE
  5
DDDB
  8
0
  6
CONTINUOUS
 62
     5
 10
200.4999999999998
 20
95.999999999999886
 30
0.0
 40
3.5
1001
PHOENIX7010
1002
{
1070
    62
1070
     5
1070
    41
1040
1.0
1002
}
  0
LINE
  5
DDDC
  8
0
  6
CONTINUOUS
 62
     5
 10
188.4999999999998
 20
94.249999999999886
 30
0.0
 11
188.4999999999998
 21
97.749999999999886
 31
0.0
1001
PHOENIX7010
1002
{
1070
    62
1070
     5
1070
    41
1040
1.0
1002
}
  0
LINE
  5
DDDD
  8
0
  6
ACAD_ISO04W100
 62
     1
 10
204.9999999999998
 20
95.999999999999886
 30
0.0
 11
187.4999999999998
 21
95.999999999999886
 31
0.0
1001
PHOENIX7010
1002
{
1070
    62
1070
     1
1070
    41
1040
1.0
1002
}
  0
LINE
  5
DDDE
  8
0
  6
CONTINUOUS
 62
     5
 10
195.4999999999998
 20
92.499999999999886
 30
0.0
 11
188.4999999999998
 21
94.249999999999886
 31
0.0
1001
PHOENIX7010
1002
{
1070
    62
1070
     5
1070
    41
1040
1.0
1002
}
  0
LINE
  5
DDDF
  8
0
  6
CONTINUOUS
 62
     5
 10
195.4999999999998
 20
99.499999999999886
 30
0.0
 11
188.4999999999998
 21
97.749999999999886
 31
0.0
1001
PHOENIX7010
1002
{
1070
    62
1070
     5
1070
    41
1040
1.0
1002
}
  0
ARC
  5
DDE0
  8
0
  6
CONTINUOUS
 62
     5
 10
107.4999999999997
 20
88.999999999999886
 30
0.0
 40
2.5
 50
90.0
 51
180.0
1001
PHOENIX7010
1002
{
1070
    62
1070
     5
1070
    41
1040
1.0
1002
}
  0
ARC
  5
DDE1
  8
0
  6
CONTINUOUS
 62
     5
 10
107.4999999999997
 20
99.999999999999886
 30
0.0
 40
2.5
 50
90.0
 51
180.0
1001
PHOENIX7010
1002
{
1070
    62
1070
     5
1070
    41
1040
1.0
1002
}
  0
LINE
  5
DDE2
  8
0
  6
CONTINUOUS
 62
     5
 10
205.0
 20
91.499999999999886
 30
0.0
 11
107.4999999999997
 21
91.499999999999886
 31
0.0
1001
PHOENIX7010
1002
{
1070
    62
1070
     5
1070
    41
1040
1.0
1002
}
  0
LINE
  5
DDE3
  8
0
  6
CONTINUOUS
 62
     5
 10
205.0
 20
102.4999999999999
 30
0.0
 11
107.4999999999997
 21
102.4999999999999
 31
0.0
1001
PHOENIX7010
1002
{
1070
    62
1070
     5
1070
    41
1040
1.0
1002
}
  0
LINE
  5
DDE4
  8
0
  6
CONTINUOUS
 62
     5
 10
140.0
 20
48.0
 30
0.0
 11
140.0
 21
14.5
 31
0.0
1001
PHOENIX7010
1002
{
1070
    62
1070
     5
1070
    41
1040
1.0
1002
}
  0
TEXT
  5
DDE5
  8
0
  6
CONTINUOUS
 62
     1
 10
118.9999996997324
 20
42.749999815013439
 30
0.0
 40
2.0
  1
-
 41
1.5
1001
PHOENIX7010
1002
{
1070
    62
1070
     1
1070
    41
1040
1.0
1002
}
  0
TEXT
  5
DDE6
  8
0
  6
CONTINUOUS
 62
     1
 10
118.9999996997324
 20
40.249999815013439
 30
0.0
 40
2.0
  1
-
 41
1.5
1001
PHOENIX7010
1002
{
1070
    62
1070
     1
1070
    41
1040
1.0
1002
}
  0
TEXT
  5
DDE7
  8
0
  6
CONTINUOUS
 62
     1
 10
118.9999996997324
 20
45.249999815013439
 30
0.0
 40
2.0
  1
-
 41
1.5
1001
PHOENIX7010
1002
{
1070
    62
1070
     1
1070
    41
1040
1.0
1002
}
  0
TEXT
  5
DDE8
  8
0
  6
CONTINUOUS
 62
     1
 10
105.9999996997323
 20
42.749999815013439
 30
0.0
 40
2.0
  1
-
 41
1.5
1001
PHOENIX7010
1002
{
1070
    62
1070
     1
1070
    41
1040
1.0
1002
}
  0
TEXT
  5
DDE9
  8
0
  6
CONTINUOUS
 62
     1
 10
105.9999996997323
 20
40.249999815013439
 30
0.0
 40
2.0
  1
-
 41
1.5
1001
PHOENIX7010
1002
{
1070
    62
1070
     1
1070
    41
1040
1.0
1002
}
  0
TEXT
  5
DDEA
  8
0
  6
CONTINUOUS
 62
     1
 10
105.9999996997323
 20
45.249999815013439
 30
0.0
 40
2.0
  1
-
 41
1.5
1001
PHOENIX7010
1002
{
1070
    62
1070
     1
1070
    41
1040
1.0
1002
}
  0
ARC
  5
DDEB
  8
0
  6
CONTINUOUS
 62
     5
 10
107.4999999999997
 20
45.499999999999993
 30
0.0
 40
2.5
 50
90.0
 51
180.0
1001
PHOENIX7010
1002
{
1070
    62
1070
     5
1070
    41
1040
1.0
1002
}
  0
ARC
  5
DDEC
  8
0
  6
CONTINUOUS
 62
     5
 10
107.4999999999997
 20
76.0
 30
0.0
 40
2.5
 50
90.0
 51
180.0
1001
PHOENIX7010
1002
{
1070
    62
1070
     5
1070
    41
1040
1.0
1002
}
  0
TEXT
  5
DDED
  8
0
  6
CONTINUOUS
 62
     1
 10
118.9999996997324
 20
25.249999815013439
 30
0.0
 40
2.0
  1
-
 41
1.5
1001
PHOENIX7010
1002
{
1070
    62
1070
     1
1070
    41
1040
1.0
1002
}
  0
TEXT
  5
DDEE
  8
0
  6
CONTINUOUS
 62
     1
 10
118.9999996997324
 20
22.749999815013439
 30
0.0
 40
2.0
  1
-
 41
1.5
1001
PHOENIX7010
1002
{
1070
    62
1070
     1
1070
    41
1040
1.0
1002
}
  0
TEXT
  5
DDEF
  8
0
  6
CONTINUOUS
 62
     1
 10
118.9999996997324
 20
30.249999815013439
 30
0.0
 40
2.0
  1
-
 41
1.5
1001
PHOENIX7010
1002
{
1070
    62
1070
     1
1070
    41
1040
1.0
1002
}
  0
TEXT
  5
DDF0
  8
0
  6
CONTINUOUS
 62
     1
 10
118.9999996997324
 20
27.749999815013439
 30
0.0
 40
2.0
  1
-
 41
1.5
1001
PHOENIX7010
1002
{
1070
    62
1070
     1
1070
    41
1040
1.0
1002
}
  0
TEXT
  5
DDF1
  8
0
  6
CONTINUOUS
 62
     1
 10
118.9999996997324
 20
32.749999815013439
 30
0.0
 40
2.0
  1
-
 41
1.5
1001
PHOENIX7010
1002
{
1070
    62
1070
     1
1070
    41
1040
1.0
1002
}
  0
TEXT
  5
DDF2
  8
0
  6
CONTINUOUS
 62
     1
 10
118.9999996997324
 20
35.249999815013439
 30
0.0
 40
2.0
  1
-
 41
1.5
1001
PHOENIX7010
1002
{
1070
    62
1070
     1
1070
    41
1040
1.0
1002
}
  0
TEXT
  5
DDF3
  8
0
  6
CONTINUOUS
 62
     1
 10
118.9999996997324
 20
37.749999815013439
 30
0.0
 40
2.0
  1
-
 41
1.5
1001
PHOENIX7010
1002
{
1070
    62
1070
     1
1070
    41
1040
1.0
1002
}
  0
TEXT
  5
DDF4
  8
0
  6
CONTINUOUS
 62
     1
 10
105.9999996997323
 20
25.249999815013439
 30
0.0
 40
2.0
  1
-
 41
1.5
1001
PHOENIX7010
1002
{
1070
    62
1070
     1
1070
    41
1040
1.0
1002
}
  0
TEXT
  5
DDF5
  8
0
  6
CONTINUOUS
 62
     1
 10
105.9999996997323
 20
22.749999815013439
 30
0.0
 40
2.0
  1
-
 41
1.5
1001
PHOENIX7010
1002
{
1070
    62
1070
     1
1070
    41
1040
1.0
1002
}
  0
TEXT
  5
DDF6
  8
0
  6
CONTINUOUS
 62
     1
 10
105.9999996997323
 20
30.249999815013439
 30
0.0
 40
2.0
  1
-
 41
1.5
1001
PHOENIX7010
1002
{
1070
    62
1070
     1
1070
    41
1040
1.0
1002
}
  0
TEXT
  5
DDF7
  8
0
  6
CONTINUOUS
 62
     1
 10
105.9999996997323
 20
27.749999815013439
 30
0.0
 40
2.0
  1
-
 41
1.5
1001
PHOENIX7010
1002
{
1070
    62
1070
     1
1070
    41
1040
1.0
1002
}
  0
TEXT
  5
DDF8
  8
0
  6
CONTINUOUS
 62
     1
 10
105.9999996997323
 20
32.749999815013439
 30
0.0
 40
2.0
  1
-
 41
1.5
1001
PHOENIX7010
1002
{
1070
    62
1070
     1
1070
    41
1040
1.0
1002
}
  0
TEXT
  5
DDF9
  8
0
  6
CONTINUOUS
 62
     1
 10
105.9999996997323
 20
35.249999815013439
 30
0.0
 40
2.0
  1
-
 41
1.5
1001
PHOENIX7010
1002
{
1070
    62
1070
     1
1070
    41
1040
1.0
1002
}
  0
TEXT
  5
DDFA
  8
0
  6
CONTINUOUS
 62
     1
 10
105.9999996997323
 20
37.749999815013439
 30
0.0
 40
2.0
  1
-
 41
1.5
1001
PHOENIX7010
1002
{
1070
    62
1070
     1
1070
    41
1040
1.0
1002
}
  0
LINE
  5
DDFB
  8
0
  6
CONTINUOUS
 62
     1
 10
117.9999999999997
 20
48.0
 30
0.0
 11
117.9999999999997
 21
14.5
 31
0.0
1001
PHOENIX7010
1002
{
1070
    62
1070
     1
1070
    41
1040
1.0
1002
}
  0
LINE
  5
DDFC
  8
0
  6
CONTINUOUS
 62
     1
 10
104.9999999999998
 20
21.5
 30
0.0
 11
140.0
 21
21.5
 31
0.0
1001
PHOENIX7010
1002
{
1070
    62
1070
     1
1070
    41
1040
1.0
1002
}
  0
LINE
  5
DDFD
  8
0
  6
CONTINUOUS
 62
     5
 10
205.0
 20
78.5
 30
0.0
 11
107.4999999999997
 21
78.5
 31
0.0
1001
PHOENIX7010
1002
{
1070
    62
1070
     5
1070
    41
1040
1.0
1002
}
  0
LINE
  5
DDFE
  8
0
  6
CONTINUOUS
 62
     5
 10
205.0
 20
48.0
 30
0.0
 11
107.4999999999997
 21
48.0
 31
0.0
1001
PHOENIX7010
1002
{
1070
    62
1070
     5
1070
    41
1040
1.0
1002
}
  0
LINE
  5
DDFF
  8
0
  6
CONTINUOUS
 62
     5
 10
104.9999999999998
 20
99.999999999999886
 30
0.0
 11
104.9999999999998
 21
5.0
 31
0.0
1001
PHOENIX7010
1002
{
1070
    62
1070
     5
1070
    41
1040
1.0
1002
}
  0
INSERT
  5
DE00
  8
0
  6
CONTINUOUS
 62
     5
  2
PH_GRPBLK
 10
104.9999999999998
 20
14.5
 30
0.0
1001
PHOENIX7010
1002
{
1070
    41
1040
1.0
1002
}
  0
POLYLINE
  5
DE02
  8
0
  6
CONTINUOUS
 62
     7
 66
     1
 10
0.0
 20
0.0
 30
0.0
 70
     1
1001
PHOENIX7010
1002
{
1070
    41
1040
1.0
1002
}
1001
ACAD
1000
ASC_BOUNDS
1002
{
1070
    19
1005
DDBE
1002
}
  0
VERTEX
  5
E01B
  8
0
  6
CONTINUOUS
 62
     7
 10
197.4334749940256
 20
35.164538113980257
 30
0.0
  0
VERTEX
  5
E01C
  8
0
  6
CONTINUOUS
 62
     7
 10
190.7334749940255
 20
27.364538113980188
 30
0.0
  0
VERTEX
  5
E01D
  8
0
  6
CONTINUOUS
 62
     7
 10
202.7334749940255
 20
27.364538113980188
 30
0.0
  0
VERTEX
  5
E01E
  8
0
  6
CONTINUOUS
 62
     7
 10
202.7334749940255
 20
35.164538113980143
 30
0.0
  0
VERTEX
  5
E01F
  8
0
  6
CONTINUOUS
 62
     7
 10
197.4334749940256
 20
28.264538113980279
 30
0.0
  0
SEQEND
  5
E020
  8
0
  6
CONTINUOUS
 62
     7
  0
POLYLINE
  5
DE03
  8
0
  6
CONTINUOUS
 62
     7
 66
     1
 10
0.0
 20
0.0
 30
0.0
 70
     1
1001
PHOENIX7010
1002
{
1070
    41
1040
1.0
1002
}
1001
ACAD
1000
ASC_BOUNDS
1002
{
1070
    19
1005
DDBF
1002
}
  0
VERTEX
  5
E021
  8
0
  6
CONTINUOUS
 62
     7
 10
189.88347499402551
 20
27.364538113980188
 30
0.0
  0
VERTEX
  5
E022
  8
0
  6
CONTINUOUS
 62
     7
 10
189.88347499402551
 20
31.514538113980169
 30
0.0
  0
VERTEX
  5
E023
  8
0
  6
CONTINUOUS
 62
     7
 10
194.0334749940254
 20
31.514538113980169
 30
0.0
 42
2.414213562373094
  0
SEQEND
  5
E024
  8
0
  6
CONTINUOUS
 62
     7
  0
ENDSEC
  0
EOF
